  0
SECTION
  2
HEADER
  9
$ACADVER
  1
AC1015
  9
$ACADMAINTVER
 70
    20
  9
$DWGCODEPAGE
  3
ANSI_1252
  9
$INSBASE
 10
0.0
 20
0.0
 30
0.0
  9
$EXTMIN
 10
1638.432596392803
 20
140.1777898225065
 30
0.0
  9
$EXTMAX
 10
1815.668245392803
 20
389.9854958225065
 30
0.0
  9
$LIMMIN
 10
0.0
 20
0.0
  9
$LIMMAX
 10
420.0
 20
297.0
  9
$ORTHOMODE
 70
     1
  9
$REGENMODE
 70
     1
  9
$FILLMODE
 70
     1
  9
$QTEXTMODE
 70
     0
  9
$MIRRTEXT
 70
     1
  9
$LTSCALE
 40
1.0
  9
$ATTMODE
 70
     1
  9
$TEXTSIZE
 40
0.2
  9
$TRACEWID
 40
1.0
  9
$TEXTSTYLE
  7
STANDARD
  9
$CLAYER
  8
Hawa1
  9
$CELTYPE
  6
DASHDOT
  9
$CECOLOR
 62
   256
  9
$CELTSCALE
 40
0.2
  9
$DISPSILH
 70
     0
  9
$DIMSCALE
 40
1.0
  9
$DIMASZ
 40
2.0
  9
$DIMEXO
 40
2.0
  9
$DIMDLI
 40
0.0
  9
$DIMRND
 40
0.0
  9
$DIMDLE
 40
1.0
  9
$DIMEXE
 40
1.0
  9
$DIMTP
 40
0.0
  9
$DIMTM
 40
0.0
  9
$DIMTXT
 40
2.0
  9
$DIMCEN
 40
0.0
  9
$DIMTSZ
 40
0.0
  9
$DIMTOL
 70
     0
  9
$DIMLIM
 70
     0
  9
$DIMTIH
 70
     0
  9
$DIMTOH
 70
     0
  9
$DIMSE1
 70
     0
  9
$DIMSE2
 70
     0
  9
$DIMTAD
 70
     1
  9
$DIMZIN
 70
     8
  9
$DIMBLK
  1

  9
$DIMASO
 70
     1
  9
$DIMSHO
 70
     1
  9
$DIMPOST
  1

  9
$DIMAPOST
  1

  9
$DIMALT
 70
     1
  9
$DIMALTD
 70
     5
  9
$DIMALTF
 40
0.039370078740157
  9
$DIMLFAC
 40
1.0
  9
$DIMTOFL
 70
     1
  9
$DIMTVP
 40
0.0
  9
$DIMTIX
 70
     1
  9
$DIMSOXD
 70
     0
  9
$DIMSAH
 70
     1
  9
$DIMBLK1
  1
Oblique
  9
$DIMBLK2
  1
Oblique
  9
$DIMSTYLE
  2
HAWA-Strich
  9
$DIMCLRD
 70
   256
  9
$DIMCLRE
 70
   256
  9
$DIMCLRT
 70
   256
  9
$DIMTFAC
 40
0.7114285714285717
  9
$DIMGAP
 40
1.0
  9
$DIMJUST
 70
     0
  9
$DIMSD1
 70
     0
  9
$DIMSD2
 70
     0
  9
$DIMTOLJ
 70
     1
  9
$DIMTZIN
 70
     8
  9
$DIMALTZ
 70
     8
  9
$DIMALTTZ
 70
     8
  9
$DIMUPT
 70
     0
  9
$DIMDEC
 70
     2
  9
$DIMTDEC
 70
     2
  9
$DIMALTU
 70
     4
  9
$DIMALTTD
 70
     5
  9
$DIMTXSTY
  7
Beschlag
  9
$DIMAUNIT
 70
     0
  9
$DIMADEC
 70
     1
  9
$DIMALTRND
 40
0.0
  9
$DIMAZIN
 70
     2
  9
$DIMDSEP
 70
    46
  9
$DIMATFIT
 70
     3
  9
$DIMFRAC
 70
     0
  9
$DIMLDRBLK
  1
Oblique
  9
$DIMLUNIT
 70
     2
  9
$DIMLWD
 70
    -2
  9
$DIMLWE
 70
    -2
  9
$DIMTMOVE
 70
     2
  9
$LUNITS
 70
     2
  9
$LUPREC
 70
     4
  9
$SKETCHINC
 40
1.0
  9
$FILLETRAD
 40
2.5
  9
$AUNITS
 70
     0
  9
$AUPREC
 70
     0
  9
$MENU
  1
.
  9
$ELEVATION
 40
0.0
  9
$PELEVATION
 40
0.0
  9
$THICKNESS
 40
0.0
  9
$LIMCHECK
 70
     0
  9
$CHAMFERA
 40
2.5
  9
$CHAMFERB
 40
2.5
  9
$CHAMFERC
 40
0.0
  9
$CHAMFERD
 40
0.0
  9
$SKPOLY
 70
     0
  9
$TDCREATE
 40
2305814.083842720
  9
$TDUCREATE
 40
6.0000000000
  9
$TDUPDATE
 40
2453766.622131910
  9
$TDUUPDATE
 40
2453766.580465243
  9
$TDINDWG
 40
1.3664265046
  9
$TDUSRTIMER
 40
1.3664223727
  9
$USRTIMER
 70
     1
  9
$ANGBASE
 50
0.0
  9
$ANGDIR
 70
     0
  9
$PDMODE
 70
     0
  9
$PDSIZE
 40
0.0
  9
$PLINEWID
 40
0.0
  9
$SPLFRAME
 70
     0
  9
$SPLINETYPE
 70
     6
  9
$SPLINESEGS
 70
     8
  9
$HANDSEED
  5
3869E
  9
$SURFTAB1
 70
     6
  9
$SURFTAB2
 70
     6
  9
$SURFTYPE
 70
     6
  9
$SURFU
 70
     6
  9
$SURFV
 70
     6
  9
$UCSBASE
  2

  9
$UCSNAME
  2

  9
$UCSORG
 10
-353.088219527999
 20
231.1976598478357
 30
0.0
  9
$UCSXDIR
 10
1.0
 20
0.0
 30
0.0
  9
$UCSYDIR
 10
0.0
 20
1.0
 30
0.0
  9
$UCSORTHOREF
  2

  9
$UCSORTHOVIEW
 70
     0
  9
$UCSORGTOP
 10
0.0
 20
0.0
 30
0.0
  9
$UCSORGBOTTOM
 10
0.0
 20
0.0
 30
0.0
  9
$UCSORGLEFT
 10
0.0
 20
0.0
 30
0.0
  9
$UCSORGRIGHT
 10
0.0
 20
0.0
 30
0.0
  9
$UCSORGFRONT
 10
0.0
 20
0.0
 30
0.0
  9
$UCSORGBACK
 10
0.0
 20
0.0
 30
0.0
  9
$PUCSBASE
  2

  9
$PUCSNAME
  2

  9
$PUCSORG
 10
0.0
 20
0.0
 30
0.0
  9
$PUCSXDIR
 10
1.0
 20
0.0
 30
0.0
  9
$PUCSYDIR
 10
0.0
 20
1.0
 30
0.0
  9
$PUCSORTHOREF
  2

  9
$PUCSORTHOVIEW
 70
     0
  9
$PUCSORGTOP
 10
0.0
 20
0.0
 30
0.0
  9
$PUCSORGBOTTOM
 10
0.0
 20
0.0
 30
0.0
  9
$PUCSORGLEFT
 10
0.0
 20
0.0
 30
0.0
  9
$PUCSORGRIGHT
 10
0.0
 20
0.0
 30
0.0
  9
$PUCSORGFRONT
 10
0.0
 20
0.0
 30
0.0
  9
$PUCSORGBACK
 10
0.0
 20
0.0
 30
0.0
  9
$USERI1
 70
     0
  9
$USERI2
 70
     0
  9
$USERI3
 70
     0
  9
$USERI4
 70
     0
  9
$USERI5
 70
     0
  9
$USERR1
 40
0.0
  9
$USERR2
 40
0.0
  9
$USERR3
 40
0.0
  9
$USERR4
 40
0.0
  9
$USERR5
 40
0.0
  9
$WORLDVIEW
 70
     1
  9
$SHADEDGE
 70
     3
  9
$SHADEDIF
 70
    70
  9
$TILEMODE
 70
     1
  9
$MAXACTVP
 70
    48
  9
$PINSBASE
 10
0.0
 20
0.0
 30
0.0
  9
$PLIMCHECK
 70
     0
  9
$PEXTMIN
 10
0.0
 20
0.0
 30
0.0
  9
$PEXTMAX
 10
221.361404
 20
334.895752
 30
2.0
  9
$PLIMMIN
 10
0.0
 20
0.0
  9
$PLIMMAX
 10
420.0
 20
297.0
  9
$UNITMODE
 70
     0
  9
$VISRETAIN
 70
     0
  9
$PLINEGEN
 70
     0
  9
$PSLTSCALE
 70
     1
  9
$TREEDEPTH
 70
  3020
  9
$CMLSTYLE
  2
STANDARD
  9
$CMLJUST
 70
     0
  9
$CMLSCALE
 40
20.0
  9
$PROXYGRAPHICS
 70
     1
  9
$MEASUREMENT
 70
     1
  9
$CELWEIGHT
370
    -1
  9
$ENDCAPS
280
     0
  9
$JOINSTYLE
280
     0
  9
$LWDISPLAY
290
     0
  9
$INSUNITS
 70
     0
  9
$HYPERLINKBASE
  1

  9
$STYLESHEET
  1
MONOCHROME.CTB
  9
$XEDIT
290
     1
  9
$CEPSNTYPE
380
     0
  9
$PSTYLEMODE
290
     1
  9
$FINGERPRINTGUID
  2
{EE8D7B51-278C-4CD6-A565-B272EFE7F033}
  9
$VERSIONGUID
  2
{B6DC5F18-AC38-4E35-A2FF-D9E11436E8C4}
  9
$EXTNAMES
290
     1
  9
$PSVPSCALE
 40
0.0
  9
$OLESTARTUP
290
     0
  0
ENDSEC
  0
SECTION
  2
CLASSES
  0
CLASS
  1
IMAGE
  2
AcDbRasterImage
  3
ISM
 90
    32895
280
     0
281
     1
  0
CLASS
  1
DICTIONARYVAR
  2
AcDbDictionaryVar
  3
ObjectDBX Classes
 90
        0
280
     0
281
     0
  0
CLASS
  1
RASTERVARIABLES
  2
AcDbRasterVariables
  3
ISM
 90
    32768
280
     0
281
     0
  0
CLASS
  1
IMAGEDEF
  2
AcDbRasterImageDef
  3
ISM
 90
    32768
280
     0
281
     0
  0
CLASS
  1
IMAGEDEF_REACTOR
  2
AcDbRasterImageDefReactor
  3
ISM
 90
    32769
280
     0
281
     0
  0
CLASS
  1
IDBUFFER
  2
AcDbIdBuffer
  3
ObjectDBX Classes
 90
    32768
280
     0
281
     0
  0
CLASS
  1
SPATIAL_FILTER
  2
AcDbSpatialFilter
  3
ObjectDBX Classes
 90
    32768
280
     0
281
     0
  0
CLASS
  1
SORTENTSTABLE
  2
AcDbSortentsTable
  3
ObjectDBX Classes
 90
    32768
280
     0
281
     0
  0
CLASS
  1
LAYER_INDEX
  2
AcDbLayerIndex
  3
ObjectDBX Classes
 90
    32768
280
     0
281
     0
  0
CLASS
  1
SPATIAL_INDEX
  2
AcDbSpatialIndex
  3
ObjectDBX Classes
 90
    32768
280
     0
281
     0
  0
CLASS
  1
OBJECT_PTR
  2
CAseDLPNTableRecord
  3
"ASE-LPNTableRecord"
 90
    32769
280
     0
281
     0
  0
CLASS
  1
PLOTSETTINGS
  2
AcDbPlotSettings
  3
ObjectDBX Classes
 90
    32768
280
     0
281
     0
  0
CLASS
  1
ACDBDICTIONARYWDFLT
  2
AcDbDictionaryWithDefault
  3
ObjectDBX Classes
 90
        0
280
     0
281
     0
  0
CLASS
  1
WIPEOUT
  2
AcDbWipeout
  3
"WipeOut|Product Desc: Object Enabler for WipeOut entity^I^I^I^I^I^I|Company: Autodesk, Inc.^I^I^I^I^I^I|WEB Address: www.autodesk.com"
 90
    32895
280
     0
281
     1
  0
CLASS
  1
WIPEOUTVARIABLES
  2
AcDbWipeoutVariables
  3
"WipeOut|Product Desc:     WipeOut Dbx Application|Company:          Autodesk, Inc.|WEB Address:      www.autodesk.com"
 90
    32768
280
     0
281
     0
  0
CLASS
  1
RTEXT
  2
RText
  3
RText|AutoCAD Express Tool|expresstools@autodesk.com
 90
    32768
280
     0
281
     1
  0
CLASS
  1
ARCALIGNEDTEXT
  2
AcDbArcAlignedText
  3
ATEXT|AutoCAD Express Tool|expresstools@autodesk.com
 90
    32768
280
     0
281
     1
  0
CLASS
  1
ACDBPLACEHOLDER
  2
AcDbPlaceHolder
  3
ObjectDBX Classes
 90
        0
280
     0
281
     0
  0
CLASS
  1
LAYOUT
  2
AcDbLayout
  3
ObjectDBX Classes
 90
        0
280
     0
281
     0
  0
ENDSEC
  0
SECTION
  2
TABLES
  0
TABLE
  2
VPORT
  5
7
330
0
100
AcDbSymbolTable
 70
     2
  0
VPORT
  5
38693
330
7
100
AcDbSymbolTableRecord
100
AcDbViewportTableRecord
  2
*Active
 70
     0
 10
0.0
 20
0.0
 11
1.0
 21
1.0
 12
1726.078888127183
 22
261.7056512349021
 13
0.0
 23
0.0
 14
1.0
 24
1.0
 15
0.0
 25
0.0
 16
0.0
 26
0.0
 36
1.0
 17
0.0
 27
0.0
 37
0.0
 40
269.3337778059964
 41
1.613636363636363
 42
50.0
 43
0.0
 44
0.0
 50
0.0
 51
0.0
 71
     0
 72
   100
 73
     1
 74
     1
 75
     0
 76
     0
 77
     0
 78
     0
281
     0
 65
     1
110
-353.088219527999
120
231.1976598478357
130
0.0
111
1.0
121
0.0
131
0.0
112
0.0
122
1.0
132
0.0
 79
     0
146
0.0
  0
ENDTAB
  0
TABLE
  2
LTYPE
  5
4
330
0
100
AcDbSymbolTable
 70
     4
  0
LTYPE
  5
11
330
4
100
AcDbSymbolTableRecord
100
AcDbLinetypeTableRecord
  2
BYBLOCK
 70
     0
  3

 72
    65
 73
     0
 40
0.0
  0
LTYPE
  5
12
330
4
100
AcDbSymbolTableRecord
100
AcDbLinetypeTableRecord
  2
BYLAYER
 70
     0
  3

 72
    65
 73
     0
 40
0.0
  0
LTYPE
  5
13
330
4
100
AcDbSymbolTableRecord
100
AcDbLinetypeTableRecord
  2
CONTINUOUS
 70
     0
  3
Solid line
 72
    65
 73
     0
 40
0.0
  0
LTYPE
  5
1E
330
4
100
AcDbSymbolTableRecord
100
AcDbLinetypeTableRecord
  2
DASHDOT
 70
     0
  3
 __ . __ . __ . __ . __ . __ . __ . 
 72
    65
 73
     4
 40
18.5
 49
12.0
 74
     0
 49
-3.0
 74
     0
 49
0.5
 74
     0
 49
-3.0
 74
     0
  0
LTYPE
  5
22
330
4
100
AcDbSymbolTableRecord
100
AcDbLinetypeTableRecord
  2
PHANTOM
 70
     0
  3
____________    ____    ____   _
 72
    65
 73
     6
 40
20.0
 49
10.0
 74
     0
 49
-2.0
 74
     0
 49
2.0
 74
     0
 49
-2.0
 74
     0
 49
2.0
 74
     0
 49
-2.0
 74
     0
  0
LTYPE
  5
2E1A8
330
4
100
AcDbSymbolTableRecord
100
AcDbLinetypeTableRecord
  2
DASHED
 70
     0
  3
__ __ __ __ __ __ __ __ __ __ __ __ __ __ __ __
 72
    65
 73
     2
 40
15.0
 49
12.0
 74
     0
 49
-3.0
 74
     0
  0
ENDTAB
  0
TABLE
  2
LAYER
  5
2
330
0
100
AcDbSymbolTable
 70
     5
  0
LAYER
  5
14
330
2
100
AcDbSymbolTableRecord
100
AcDbLayerTableRecord
  2
0
 70
     0
 62
     7
  6
CONTINUOUS
370
    -3
390
5C50
  0
LAYER
  5
5C73
330
2
100
AcDbSymbolTableRecord
100
AcDbLayerTableRecord
  2
Defpoints
 70
     0
 62
     7
  6
CONTINUOUS
290
     0
370
    -3
390
5C50
  0
LAYER
  5
99B0
330
2
100
AcDbSymbolTableRecord
100
AcDbLayerTableRecord
  2
Hawa6
 70
     0
 62
     3
  6
CONTINUOUS
370
    35
390
5C50
  0
LAYER
  5
AC9F
330
2
100
AcDbSymbolTableRecord
100
AcDbLayerTableRecord
  2
Hawa5
 70
     0
 62
     1
  6
CONTINUOUS
370
    -3
390
5C50
  0
LAYER
  5
AE2C
330
2
100
AcDbSymbolTableRecord
100
AcDbLayerTableRecord
  2
Hawa1
 70
     0
 62
     2
  6
CONTINUOUS
370
    -3
390
5C50
  0
ENDTAB
  0
TABLE
  2
STYLE
  5
3
330
0
100
AcDbSymbolTable
 70
     2
  0
STYLE
  5
17
330
3
100
AcDbSymbolTableRecord
100
AcDbTextStyleTableRecord
  2
STANDARD
 70
     0
 40
0.0
 41
1.0
 50
0.0
 71
     0
 42
0.2
  3
isocp.shx
  4

  0
STYLE
  5
B3FF
330
3
100
AcDbSymbolTableRecord
100
AcDbTextStyleTableRecord
  2
Beschlag
 70
     0
 40
0.0
 41
0.9
 50
0.0
 71
     0
 42
3.5
  3
ARIAL.TTF
  4

1001
ACAD
1000
Arial
1071
       34
  0
ENDTAB
  0
TABLE
  2
VIEW
  5
5
330
0
100
AcDbSymbolTable
 70
     0
  0
ENDTAB
  0
TABLE
  2
UCS
  5
6
330
0
100
AcDbSymbolTable
 70
     0
  0
ENDTAB
  0
TABLE
  2
APPID
  5
8
330
0
100
AcDbSymbolTable
 70
     1
  0
APPID
  5
16
330
8
100
AcDbSymbolTableRecord
100
AcDbRegAppTableRecord
  2
ACAD
 70
     0
  0
ENDTAB
  0
TABLE
  2
DIMSTYLE
  5
9
330
0
100
AcDbSymbolTable
 70
     2
100
AcDbDimStyleTable
 71
     2
340
B74C
340
18
  0
DIMSTYLE
105
18
330
9
100
AcDbSymbolTableRecord
100
AcDbDimStyleTableRecord
  2
STANDARD
 70
     0
 41
2.5
 42
0.625
 43
3.75
 44
1.25
 73
     0
 74
     0
 77
     1
 78
     8
140
2.5
141
2.5
143
0.03937
147
0.625
171
     3
172
     1
271
     2
272
     2
274
     3
283
     0
284
     8
340
17
  0
DIMSTYLE
105
B74C
102
{ACAD_REACTORS
330
37FBA
330
37FBB
330
37FB8
330
37969
330
3796E
330
3796D
330
3796C
330
3796B
330
3796A
330
38527
330
3856D
330
38587
102
}
330
9
100
AcDbSymbolTableRecord
100
AcDbDimStyleTableRecord
  2
HAWA-Strich
 70
     0
 41
2.0
 42
2.0
 43
0.0
 44
1.0
 46
1.0
 73
     0
 74
     0
 77
     1
 78
     8
 79
     2
140
2.0
141
0.0
143
0.039370078740157
146
0.7114285714285717
147
1.0
170
     1
171
     5
172
     1
173
     1
174
     1
176
   256
177
   256
178
   256
179
     1
271
     2
272
     2
273
     4
274
     5
279
     2
284
     8
285
     8
286
     8
340
B3FF
341
B369
343
B369
344
B369
  0
ENDTAB
  0
TABLE
  2
BLOCK_RECORD
  5
1
330
0
100
AcDbSymbolTable
 70
    13
  0
BLOCK_RECORD
  5
A
330
1
100
AcDbSymbolTableRecord
100
AcDbBlockTableRecord
  2
*MODEL_SPACE
340
5C55
  0
BLOCK_RECORD
  5
B
330
1
100
AcDbSymbolTableRecord
100
AcDbBlockTableRecord
  2
*PAPER_SPACE
340
5C56
  0
BLOCK_RECORD
  5
B369
330
1
100
AcDbSymbolTableRecord
100
AcDbBlockTableRecord
  2
_Oblique
340
0
102
{BLKREFS
331
38619
331
3861A
331
38622
331
38623
331
3862C
331
3862D
331
38637
331
38638
331
38640
331
38641
331
38649
331
3864A
331
38652
331
38653
331
3865B
331
3865C
331
38664
331
38665
331
3866E
331
3866F
331
38679
331
3867A
331
38684
331
38685
102
}
  0
BLOCK_RECORD
  5
37FBC
330
1
100
AcDbSymbolTableRecord
100
AcDbBlockTableRecord
  2
*D1
340
0
  0
BLOCK_RECORD
  5
37FD8
330
1
100
AcDbSymbolTableRecord
100
AcDbBlockTableRecord
  2
*D2
340
0
  0
BLOCK_RECORD
  5
37FE4
330
1
100
AcDbSymbolTableRecord
100
AcDbBlockTableRecord
  2
*D3
340
0
  0
BLOCK_RECORD
  5
3800C
330
1
100
AcDbSymbolTableRecord
100
AcDbBlockTableRecord
  2
*D4
340
0
  0
BLOCK_RECORD
  5
3801A
330
1
100
AcDbSymbolTableRecord
100
AcDbBlockTableRecord
  2
*D5
340
0
  0
BLOCK_RECORD
  5
38026
330
1
100
AcDbSymbolTableRecord
100
AcDbBlockTableRecord
  2
*D6
340
0
  0
BLOCK_RECORD
  5
38032
330
1
100
AcDbSymbolTableRecord
100
AcDbBlockTableRecord
  2
*D7
340
0
  0
BLOCK_RECORD
  5
3803E
330
1
100
AcDbSymbolTableRecord
100
AcDbBlockTableRecord
  2
*D8
340
0
  0
BLOCK_RECORD
  5
3804A
330
1
100
AcDbSymbolTableRecord
100
AcDbBlockTableRecord
  2
*D9
340
0
  0
BLOCK_RECORD
  5
38528
330
1
100
AcDbSymbolTableRecord
100
AcDbBlockTableRecord
  2
*D10
340
0
  0
BLOCK_RECORD
  5
3856E
330
1
100
AcDbSymbolTableRecord
100
AcDbBlockTableRecord
  2
*D11
340
0
  0
BLOCK_RECORD
  5
38588
330
1
100
AcDbSymbolTableRecord
100
AcDbBlockTableRecord
  2
*D12
340
0
  0
ENDTAB
  0
ENDSEC
  0
SECTION
  2
BLOCKS
  0
BLOCK
  5
D
330
A
100
AcDbEntity
  8
0
100
AcDbBlockBegin
  2
*MODEL_SPACE
 70
     0
 10
0.0
 20
0.0
 30
0.0
  3
*MODEL_SPACE
  1

  0
ENDBLK
  5
E
330
A
100
AcDbEntity
  8
0
100
AcDbBlockEnd
  0
BLOCK
  5
F
330
B
100
AcDbEntity
 67
     1
  8
0
100
AcDbBlockBegin
  2
*PAPER_SPACE
 70
     0
 10
0.0
 20
0.0
 30
0.0
  3
*PAPER_SPACE
  1

  0
ENDBLK
  5
10
330
B
100
AcDbEntity
 67
     1
  8
0
100
AcDbBlockEnd
  0
BLOCK
  5
B36A
330
B369
100
AcDbEntity
  8
0
100
AcDbBlockBegin
  2
_Oblique
 70
     0
 10
0.0
 20
0.0
 30
0.0
  3
_Oblique
  1

  0
LINE
  5
B36B
330
B369
100
AcDbEntity
  8
0
 62
     0
370
    -2
100
AcDbLine
 10
-0.5
 20
-0.5
 30
0.0
 11
0.5
 21
0.5
 31
0.0
  0
ENDBLK
  5
B36C
330
B369
100
AcDbEntity
  8
0
100
AcDbBlockEnd
  0
BLOCK
  5
37FC8
330
37FBC
100
AcDbEntity
  8
0
 48
0.2
100
AcDbBlockBegin
  2
*D1
 70
     1
 10
0.0
 20
0.0
 30
0.0
  3
*D1
  1

  0
LINE
  5
38628
330
37FBC
100
AcDbEntity
  8
Hawa1
 48
0.2
370
    -2
100
AcDbLine
 10
1665.050418392872
 20
201.6300844729475
 30
0.0
 11
1656.196652442557
 21
201.6301581825014
 31
0.0
  0
LINE
  5
38629
330
37FBC
100
AcDbEntity
  8
Hawa1
 48
0.2
370
    -2
100
AcDbLine
 10
1666.197798392872
 20
205.1300954729475
 30
0.0
 11
1656.196681581
 21
205.1301787344503
 31
0.0
  0
LINE
  5
3862A
330
37FBC
100
AcDbEntity
  8
Hawa1
 48
0.2
370
    -2
100
AcDbLine
 10
1657.196681580966
 20
205.1301704092298
 30
0.0
 11
1657.196644117302
 21
200.6301498573156
 31
0.0
  0
LINE
  5
3862B
330
37FBC
100
AcDbEntity
  8
Hawa1
 48
0.2
370
    -2
100
AcDbLine
 10
1657.196652442523
 20
201.6301498572809
 30
0.0
 11
1657.196551894305
 21
189.5526057478485
 31
0.0
  0
INSERT
  5
3862C
330
37FBC
100
AcDbEntity
  8
Hawa1
 48
0.2
370
    -2
100
AcDbBlockReference
  2
_Oblique
 10
1657.196681580966
 20
205.1301704092298
 30
0.0
 41
2.0
 42
2.0
 43
2.0
 50
89.99952300000151
  0
INSERT
  5
3862D
330
37FBC
100
AcDbEntity
  8
Hawa1
 48
0.2
370
    -2
100
AcDbBlockReference
  2
_Oblique
 10
1657.196652442523
 20
201.6301498572809
 30
0.0
 41
2.0
 42
2.0
 43
2.0
 50
269.9995230000015
  0
MTEXT
  5
3862E
330
37FBC
100
AcDbEntity
  8
Hawa1
 48
0.2
100
AcDbMText
 10
1654.341265174472
 20
194.2033969334556
 30
0.0
 40
2.0
 41
0.0
 71
     5
 72
     1
  1
\A1;\A1;3.5 {\fTechnicLite|b0|i0|c2|p0;[\H0.7x;\S1/8;"\H1.429x;]}
  7
Beschlag
 11
0.0000083252205058
 21
0.9999999999653454
 31
0.0
 73
     1
 44
1.0
1001
ACAD
1000
MTEXTBEGIN
1070
    73
1070
     1
1070
    44
1040
1.0
1070
    74
1070
     0
1000
MTEXTEND
  0
POINT
  5
3862F
330
37FBC
100
AcDbEntity
  8
Defpoints
 62
     0
 48
0.2
100
AcDbPoint
 10
1667.050418392802
 20
201.6300678225065
 30
0.0
  0
POINT
  5
38630
330
37FBC
100
AcDbEntity
  8
Defpoints
 62
     0
 48
0.2
100
AcDbPoint
 10
1668.197798392803
 20
205.1300788225066
 30
0.0
  0
POINT
  5
38631
330
37FBC
100
AcDbEntity
  8
Defpoints
 62
     0
 48
0.2
100
AcDbPoint
 10
1657.196681580966
 20
205.1301704092298
 30
0.0
  0
ENDBLK
  5
37FC9
330
37FBC
100
AcDbEntity
  8
0
 48
0.2
100
AcDbBlockEnd
  0
BLOCK
  5
37FE2
330
37FD8
100
AcDbEntity
  8
0
 48
0.2
100
AcDbBlockBegin
  2
*D2
 70
     1
 10
0.0
 20
0.0
 30
0.0
  3
*D2
  1

  0
LINE
  5
38616
330
37FD8
100
AcDbEntity
  8
Hawa1
 48
0.2
370
    -2
100
AcDbLine
 10
1694.050451693685
 20
229.6300668222293
 30
0.0
 11
1694.050834650103
 21
252.6298430347433
 31
0.0
  0
LINE
  5
38617
330
37FD8
100
AcDbEntity
  8
Hawa1
 48
0.2
370
    -2
100
AcDbLine
 10
1667.050449693685
 20
203.6300688222293
 30
0.0
 11
1667.051265569023
 21
252.6302925894773
 31
0.0
  0
LINE
  5
38618
330
37FD8
100
AcDbEntity
  8
Hawa1
 48
0.2
370
    -2
100
AcDbLine
 10
1695.050817999523
 20
251.6298263844409
 30
0.0
 11
1666.05124891872
 21
251.630309240057
 31
0.0
  0
INSERT
  5
38619
330
37FD8
100
AcDbEntity
  8
Hawa1
 48
0.2
370
    -2
100
AcDbBlockReference
  2
_Oblique
 10
1694.050817999662
 20
251.629843034882
 30
0.0
 41
2.0
 42
2.0
 43
2.0
 50
359.9990459999997
  0
INSERT
  5
3861A
330
37FD8
100
AcDbEntity
  8
Hawa1
 48
0.2
370
    -2
100
AcDbBlockReference
  2
_Oblique
 10
1667.051248918582
 20
251.6302925896159
 30
0.0
 41
2.0
 42
2.0
 43
2.0
 50
179.9990459999996
  0
MTEXT
  5
3861B
330
37FD8
100
AcDbEntity
  8
Hawa1
 48
0.2
100
AcDbMText
 10
1680.550466604561
 20
254.5856505908556
 30
0.0
 40
2.0
 41
0.0
 71
     5
 72
     1
  1
\A1;27 [1{\H0.711429x;\S1/16;}"]
  7
Beschlag
 11
0.9999999998613814
 21
-0.0000166504410687
 31
0.0
 73
     1
 44
1.0
1001
ACAD
1000
MTEXTBEGIN
1070
    73
1070
     1
1070
    44
1040
1.0
1070
    74
1070
     0
1000
MTEXTEND
  0
POINT
  5
3861C
330
37FD8
100
AcDbEntity
  8
Defpoints
 62
     0
 48
0.2
100
AcDbPoint
 10
1694.050418392803
 20
227.6300668225065
 30
0.0
  0
POINT
  5
3861D
330
37FD8
100
AcDbEntity
  8
Defpoints
 62
     0
 48
0.2
100
AcDbPoint
 10
1667.050416392802
 20
201.6300688225065
 30
0.0
  0
POINT
  5
3861E
330
37FD8
100
AcDbEntity
  8
Defpoints
 62
     0
 48
0.2
100
AcDbPoint
 10
1667.051248918582
 20
251.6302925896159
 30
0.0
  0
ENDBLK
  5
37FE3
330
37FD8
100
AcDbEntity
  8
0
 48
0.2
100
AcDbBlockEnd
  0
BLOCK
  5
37FEE
330
37FE4
100
AcDbEntity
  8
0
 48
0.2
100
AcDbBlockBegin
  2
*D3
 70
     1
 10
0.0
 20
0.0
 30
0.0
  3
*D3
  1

  0
LINE
  5
3861F
330
37FE4
100
AcDbEntity
  8
Hawa1
 48
0.2
370
    -2
100
AcDbLine
 10
1685.050449693685
 20
207.1300688222293
 30
0.0
 11
1685.05097418005
 21
238.6299169593881
 31
0.0
  0
LINE
  5
38620
330
37FE4
100
AcDbEntity
  8
Hawa1
 48
0.2
370
    -2
100
AcDbLine
 10
1667.050449693685
 20
203.6300688222293
 30
0.0
 11
1667.051032461584
 21
238.6302166663569
 31
0.0
  0
LINE
  5
38621
330
37FE4
100
AcDbEntity
  8
Hawa1
 48
0.2
370
    -2
100
AcDbLine
 10
1686.05095752947
 20
237.6299003090856
 30
0.0
 11
1666.051015811282
 21
237.6302333169366
 31
0.0
  0
INSERT
  5
38622
330
37FE4
100
AcDbEntity
  8
Hawa1
 48
0.2
370
    -2
100
AcDbBlockReference
  2
_Oblique
 10
1685.050957529609
 20
237.6299169595267
 30
0.0
 41
2.0
 42
2.0
 43
2.0
 50
359.9990459999997
  0
INSERT
  5
38623
330
37FE4
100
AcDbEntity
  8
Hawa1
 48
0.2
370
    -2
100
AcDbBlockReference
  2
_Oblique
 10
1667.051015811143
 20
237.6302166664955
 30
0.0
 41
2.0
 42
2.0
 43
2.0
 50
179.9990459999996
  0
MTEXT
  5
38624
330
37FE4
100
AcDbEntity
  8
Hawa1
 48
0.2
100
AcDbMText
 10
1676.050465822725
 20
240.5987523077703
 30
0.0
 40
2.0
 41
0.0
 71
     5
 72
     1
  1
\A1;18 [{\H0.711429x;\S23/32;}"]
  7
Beschlag
 11
0.9999999998613814
 21
-0.0000166504410687
 31
0.0
 73
     1
 44
1.0
1001
ACAD
1000
MTEXTBEGIN
1070
    73
1070
     1
1070
    44
1040
1.0
1070
    74
1070
     0
1000
MTEXTEND
  0
POINT
  5
38625
330
37FE4
100
AcDbEntity
  8
Defpoints
 62
     0
 48
0.2
100
AcDbPoint
 10
1685.050416392803
 20
205.1300688225065
 30
0.0
  0
POINT
  5
38626
330
37FE4
100
AcDbEntity
  8
Defpoints
 62
     0
 48
0.2
100
AcDbPoint
 10
1667.050416392802
 20
201.6300688225065
 30
0.0
  0
POINT
  5
38627
330
37FE4
100
AcDbEntity
  8
Defpoints
 62
     0
 48
0.2
100
AcDbPoint
 10
1667.051015811143
 20
237.6302166664955
 30
0.0
  0
ENDBLK
  5
37FEF
330
37FE4
100
AcDbEntity
  8
0
 48
0.2
100
AcDbBlockEnd
  0
BLOCK
  5
38018
330
3800C
100
AcDbEntity
  8
0
 48
0.2
100
AcDbBlockBegin
  2
*D4
 70
     1
 10
0.0
 20
0.0
 30
0.0
  3
*D4
  1

  0
LINE
  5
38632
330
3800C
100
AcDbEntity
  8
Hawa1
 48
0.2
370
    -2
100
AcDbLine
 10
1681.473955994567
 20
153.4367218213975
 30
0.0
 11
1681.474309252
 21
164.044772139919
 31
0.0
  0
LINE
  5
38633
330
3800C
100
AcDbEntity
  8
Hawa1
 48
0.2
370
    -2
100
AcDbLine
 10
1682.553831994567
 20
158.1612508213976
 30
0.0
 11
1682.55402791982
 21
164.0447361843349
 31
0.0
  0
LINE
  5
38634
330
3800C
100
AcDbEntity
  8
Hawa1
 48
0.2
370
    -2
100
AcDbLine
 10
1682.553994618938
 20
163.0447361848893
 30
0.0
 11
1684.553994617829
 21
163.0446695831251
 31
0.0
  0
LINE
  5
38635
330
3800C
100
AcDbEntity
  8
Hawa1
 48
0.2
370
    -2
100
AcDbLine
 10
1681.474275951118
 20
163.0447721404735
 30
0.0
 11
1666.196930095485
 21
163.0452808895674
 31
0.0
  0
LINE
  5
38636
330
3800C
100
AcDbEntity
  8
Hawa1
 48
0.2
370
    -2
100
AcDbLine
 10
1682.553994618938
 20
163.0447361848893
 30
0.0
 11
1681.474275951118
 21
163.0447721404735
 31
0.0
  0
INSERT
  5
38637
330
3800C
100
AcDbEntity
  8
Hawa1
 48
0.2
370
    -2
100
AcDbBlockReference
  2
_Oblique
 10
1682.553994618938
 20
163.0447361848893
 30
0.0
 41
2.0
 42
2.0
 43
2.0
 50
179.9980919999991
  0
INSERT
  5
38638
330
3800C
100
AcDbEntity
  8
Hawa1
 48
0.2
370
    -2
100
AcDbBlockReference
  2
_Oblique
 10
1681.474275951118
 20
163.0447721404735
 30
0.0
 41
2.0
 42
2.0
 43
2.0
 50
359.9980919999991
  0
MTEXT
  5
38639
330
3800C
100
AcDbEntity
  8
Hawa1
 48
0.2
100
AcDbMText
 10
1671.698515502351
 20
165.9014465139133
 30
0.0
 40
2.0
 41
0.0
 71
     5
 72
     1
  1
\A1;\A1;27 {\fTechnicLite|b0|i0|c2|p0;[1 \H0.7x;\S1/16;"\H1.429x;]}
  7
Beschlag
 11
0.9999999994455256
 21
-0.0000333008821372
 31
0.0
 73
     1
 44
1.0
1001
ACAD
1000
MTEXTBEGIN
1070
    73
1070
     1
1070
    44
1040
1.0
1070
    74
1070
     0
1000
MTEXTEND
  0
POINT
  5
3863A
330
3800C
100
AcDbEntity
  8
Defpoints
 62
     0
 48
0.2
100
AcDbPoint
 10
1681.473889392802
 20
151.4367218225065
 30
0.0
  0
POINT
  5
3863B
330
3800C
100
AcDbEntity
  8
Defpoints
 62
     0
 48
0.2
100
AcDbPoint
 10
1682.553765392803
 20
156.1612508225065
 30
0.0
  0
POINT
  5
3863C
330
3800C
100
AcDbEntity
  8
Defpoints
 62
     0
 48
0.2
100
AcDbPoint
 10
1682.553994618938
 20
163.0447361848893
 30
0.0
  0
ENDBLK
  5
38019
330
3800C
100
AcDbEntity
  8
0
 48
0.2
100
AcDbBlockEnd
  0
BLOCK
  5
38024
330
3801A
100
AcDbEntity
  8
0
 48
0.2
100
AcDbBlockBegin
  2
*D5
 70
     1
 10
0.0
 20
0.0
 30
0.0
  3
*D5
  1

  0
LINE
  5
38661
330
3801A
100
AcDbEntity
  8
Hawa1
 48
0.2
370
    -2
100
AcDbLine
 10
1803.206738392803
 20
146.0620578225065
 30
0.0
 11
1803.206738392803
 21
140.1777898225065
 31
0.0
  0
LINE
  5
38662
330
3801A
100
AcDbEntity
  8
Hawa1
 48
0.2
370
    -2
100
AcDbLine
 10
1775.129553392802
 20
146.0620578225065
 30
0.0
 11
1775.129553392802
 21
140.1777898225065
 31
0.0
  0
LINE
  5
38663
330
3801A
100
AcDbEntity
  8
Hawa1
 48
0.2
370
    -2
100
AcDbLine
 10
1804.206738392803
 20
141.1777898225065
 30
0.0
 11
1774.129553392802
 21
141.1777898225065
 31
0.0
  0
INSERT
  5
38664
330
3801A
100
AcDbEntity
  8
Hawa1
 48
0.2
370
    -2
100
AcDbBlockReference
  2
_Oblique
 10
1803.206738392803
 20
141.1777898225065
 30
0.0
 41
2.0
 42
2.0
 43
2.0
  0
INSERT
  5
38665
330
3801A
100
AcDbEntity
  8
Hawa1
 48
0.2
370
    -2
100
AcDbBlockReference
  2
_Oblique
 10
1775.129553392802
 20
141.1777898225065
 30
0.0
 41
2.0
 42
2.0
 43
2.0
 50
180.0
  0
MTEXT
  5
38666
330
3801A
100
AcDbEntity
  8
Hawa1
 48
0.2
100
AcDbMText
 10
1789.168145392802
 20
143.1777898225065
 30
0.0
 40
2.0
 41
0.0
 71
     5
 72
     1
  1
\A1;=
  7
Beschlag
 73
     1
 44
1.0
1001
ACAD
1000
MTEXTBEGIN
1070
    73
1070
     1
1070
    44
1040
1.0
1070
    74
1070
     0
1000
MTEXTEND
  0
POINT
  5
38667
330
3801A
100
AcDbEntity
  8
Defpoints
 62
     0
 48
0.2
100
AcDbPoint
 10
1803.206738392803
 20
148.0620578225065
 30
0.0
  0
POINT
  5
38668
330
3801A
100
AcDbEntity
  8
Defpoints
 62
     0
 48
0.2
100
AcDbPoint
 10
1775.129553392802
 20
148.0620578225065
 30
0.0
  0
POINT
  5
38669
330
3801A
100
AcDbEntity
  8
Defpoints
 62
     0
 48
0.2
100
AcDbPoint
 10
1775.129553392802
 20
141.1777898225065
 30
0.0
  0
ENDBLK
  5
38025
330
3801A
100
AcDbEntity
  8
0
 48
0.2
100
AcDbBlockEnd
  0
BLOCK
  5
38030
330
38026
100
AcDbEntity
  8
0
 48
0.2
100
AcDbBlockBegin
  2
*D6
 70
     1
 10
0.0
 20
0.0
 30
0.0
  3
*D6
  1

  0
LINE
  5
38658
330
38026
100
AcDbEntity
  8
Hawa1
 48
0.2
370
    -2
100
AcDbLine
 10
1775.129553392802
 20
146.0620578225065
 30
0.0
 11
1775.129553392802
 21
140.1777898225065
 31
0.0
  0
LINE
  5
38659
330
38026
100
AcDbEntity
  8
Hawa1
 48
0.2
370
    -2
100
AcDbLine
 10
1748.132245392802
 20
146.0620578225065
 30
0.0
 11
1748.132245392802
 21
140.1777898225065
 31
0.0
  0
LINE
  5
3865A
330
38026
100
AcDbEntity
  8
Hawa1
 48
0.2
370
    -2
100
AcDbLine
 10
1776.129553392802
 20
141.1777898225065
 30
0.0
 11
1747.132245392802
 21
141.1777898225065
 31
0.0
  0
INSERT
  5
3865B
330
38026
100
AcDbEntity
  8
Hawa1
 48
0.2
370
    -2
100
AcDbBlockReference
  2
_Oblique
 10
1775.129553392802
 20
141.1777898225065
 30
0.0
 41
2.0
 42
2.0
 43
2.0
  0
INSERT
  5
3865C
330
38026
100
AcDbEntity
  8
Hawa1
 48
0.2
370
    -2
100
AcDbBlockReference
  2
_Oblique
 10
1748.132245392802
 20
141.1777898225065
 30
0.0
 41
2.0
 42
2.0
 43
2.0
 50
180.0
  0
MTEXT
  5
3865D
330
38026
100
AcDbEntity
  8
Hawa1
 48
0.2
100
AcDbMText
 10
1761.630899392802
 20
143.1777898225065
 30
0.0
 40
2.0
 41
0.0
 71
     5
 72
     1
  1
\A1;=
  7
Beschlag
 73
     1
 44
1.0
1001
ACAD
1000
MTEXTBEGIN
1070
    73
1070
     1
1070
    44
1040
1.0
1070
    74
1070
     0
1000
MTEXTEND
  0
POINT
  5
3865E
330
38026
100
AcDbEntity
  8
Defpoints
 62
     0
 48
0.2
100
AcDbPoint
 10
1775.129553392802
 20
148.0620578225065
 30
0.0
  0
POINT
  5
3865F
330
38026
100
AcDbEntity
  8
Defpoints
 62
     0
 48
0.2
100
AcDbPoint
 10
1748.132245392802
 20
148.0620578225065
 30
0.0
  0
POINT
  5
38660
330
38026
100
AcDbEntity
  8
Defpoints
 62
     0
 48
0.2
100
AcDbPoint
 10
1748.132245392802
 20
141.1777898225065
 30
0.0
  0
ENDBLK
  5
38031
330
38026
100
AcDbEntity
  8
0
 48
0.2
100
AcDbBlockEnd
  0
BLOCK
  5
3803C
330
38032
100
AcDbEntity
  8
0
 48
0.2
100
AcDbBlockBegin
  2
*D7
 70
     1
 10
0.0
 20
0.0
 30
0.0
  3
*D7
  1

  0
LINE
  5
3864F
330
38032
100
AcDbEntity
  8
Hawa1
 48
0.2
370
    -2
100
AcDbLine
 10
1735.468506392803
 20
146.0620578225065
 30
0.0
 11
1735.468506392803
 21
140.1777898225065
 31
0.0
  0
LINE
  5
38650
330
38032
100
AcDbEntity
  8
Hawa1
 48
0.2
370
    -2
100
AcDbLine
 10
1708.471198392803
 20
146.0620578225065
 30
0.0
 11
1708.471198392803
 21
140.1777898225065
 31
0.0
  0
LINE
  5
38651
330
38032
100
AcDbEntity
  8
Hawa1
 48
0.2
370
    -2
100
AcDbLine
 10
1736.468506392802
 20
141.1777898225065
 30
0.0
 11
1707.471198392802
 21
141.1777898225065
 31
0.0
  0
INSERT
  5
38652
330
38032
100
AcDbEntity
  8
Hawa1
 48
0.2
370
    -2
100
AcDbBlockReference
  2
_Oblique
 10
1735.468506392803
 20
141.1777898225065
 30
0.0
 41
2.0
 42
2.0
 43
2.0
  0
INSERT
  5
38653
330
38032
100
AcDbEntity
  8
Hawa1
 48
0.2
370
    -2
100
AcDbBlockReference
  2
_Oblique
 10
1708.471198392803
 20
141.1777898225065
 30
0.0
 41
2.0
 42
2.0
 43
2.0
 50
180.0
  0
MTEXT
  5
38654
330
38032
100
AcDbEntity
  8
Hawa1
 48
0.2
100
AcDbMText
 10
1721.969852392803
 20
143.1777898225065
 30
0.0
 40
2.0
 41
0.0
 71
     5
 72
     1
  1
\A1;=
  7
Beschlag
 73
     1
 44
1.0
1001
ACAD
1000
MTEXTBEGIN
1070
    73
1070
     1
1070
    44
1040
1.0
1070
    74
1070
     0
1000
MTEXTEND
  0
POINT
  5
38655
330
38032
100
AcDbEntity
  8
Defpoints
 62
     0
 48
0.2
100
AcDbPoint
 10
1735.468506392803
 20
148.0620578225065
 30
0.0
  0
POINT
  5
38656
330
38032
100
AcDbEntity
  8
Defpoints
 62
     0
 48
0.2
100
AcDbPoint
 10
1708.471198392803
 20
148.0620578225065
 30
0.0
  0
POINT
  5
38657
330
38032
100
AcDbEntity
  8
Defpoints
 62
     0
 48
0.2
100
AcDbPoint
 10
1708.471198392803
 20
141.1777898225065
 30
0.0
  0
ENDBLK
  5
3803D
330
38032
100
AcDbEntity
  8
0
 48
0.2
100
AcDbBlockEnd
  0
BLOCK
  5
38048
330
3803E
100
AcDbEntity
  8
0
 48
0.2
100
AcDbBlockBegin
  2
*D8
 70
     1
 10
0.0
 20
0.0
 30
0.0
  3
*D8
  1

  0
LINE
  5
38646
330
3803E
100
AcDbEntity
  8
Hawa1
 48
0.2
370
    -2
100
AcDbLine
 10
1708.471198392803
 20
146.0620578225065
 30
0.0
 11
1708.471198392803
 21
140.1777898225065
 31
0.0
  0
LINE
  5
38647
330
3803E
100
AcDbEntity
  8
Hawa1
 48
0.2
370
    -2
100
AcDbLine
 10
1681.473889392802
 20
146.0620578225065
 30
0.0
 11
1681.473889392802
 21
140.1777898225065
 31
0.0
  0
LINE
  5
38648
330
3803E
100
AcDbEntity
  8
Hawa1
 48
0.2
370
    -2
100
AcDbLine
 10
1709.471198392802
 20
141.1777898225065
 30
0.0
 11
1680.473889392802
 21
141.1777898225065
 31
0.0
  0
INSERT
  5
38649
330
3803E
100
AcDbEntity
  8
Hawa1
 48
0.2
370
    -2
100
AcDbBlockReference
  2
_Oblique
 10
1708.471198392803
 20
141.1777898225065
 30
0.0
 41
2.0
 42
2.0
 43
2.0
  0
INSERT
  5
3864A
330
3803E
100
AcDbEntity
  8
Hawa1
 48
0.2
370
    -2
100
AcDbBlockReference
  2
_Oblique
 10
1681.473889392802
 20
141.1777898225065
 30
0.0
 41
2.0
 42
2.0
 43
2.0
 50
180.0
  0
MTEXT
  5
3864B
330
3803E
100
AcDbEntity
  8
Hawa1
 48
0.2
100
AcDbMText
 10
1694.045419392802
 20
143.1777898225065
 30
0.0
 40
2.0
 41
0.0
 71
     5
 72
     1
  1
\A1;=
  7
Beschlag
 73
     1
 44
1.0
1001
ACAD
1000
MTEXTBEGIN
1070
    73
1070
     1
1070
    44
1040
1.0
1070
    74
1070
     0
1000
MTEXTEND
  0
POINT
  5
3864C
330
3803E
100
AcDbEntity
  8
Defpoints
 62
     0
 48
0.2
100
AcDbPoint
 10
1708.471198392803
 20
148.0620578225065
 30
0.0
  0
POINT
  5
3864D
330
3803E
100
AcDbEntity
  8
Defpoints
 62
     0
 48
0.2
100
AcDbPoint
 10
1681.473889392802
 20
148.0620578225065
 30
0.0
  0
POINT
  5
3864E
330
3803E
100
AcDbEntity
  8
Defpoints
 62
     0
 48
0.2
100
AcDbPoint
 10
1681.473889392802
 20
141.1777898225065
 30
0.0
  0
ENDBLK
  5
38049
330
3803E
100
AcDbEntity
  8
0
 48
0.2
100
AcDbBlockEnd
  0
BLOCK
  5
38054
330
3804A
100
AcDbEntity
  8
0
 48
0.2
100
AcDbBlockBegin
  2
*D9
 70
     1
 10
0.0
 20
0.0
 30
0.0
  3
*D9
  1

  0
LINE
  5
3863D
330
3804A
100
AcDbEntity
  8
Hawa1
 48
0.2
370
    -2
100
AcDbLine
 10
1681.473889392802
 20
146.0620578225065
 30
0.0
 11
1681.473889392802
 21
140.1777898225065
 31
0.0
  0
LINE
  5
3863E
330
3804A
100
AcDbEntity
  8
Hawa1
 48
0.2
370
    -2
100
AcDbLine
 10
1654.476581392803
 20
146.0620578225065
 30
0.0
 11
1654.476581392803
 21
140.1777898225065
 31
0.0
  0
LINE
  5
3863F
330
3804A
100
AcDbEntity
  8
Hawa1
 48
0.2
370
    -2
100
AcDbLine
 10
1682.473889392803
 20
141.1777898225065
 30
0.0
 11
1653.476581392802
 21
141.1777898225065
 31
0.0
  0
INSERT
  5
38640
330
3804A
100
AcDbEntity
  8
Hawa1
 48
0.2
370
    -2
100
AcDbBlockReference
  2
_Oblique
 10
1681.473889392802
 20
141.1777898225065
 30
0.0
 41
2.0
 42
2.0
 43
2.0
  0
INSERT
  5
38641
330
3804A
100
AcDbEntity
  8
Hawa1
 48
0.2
370
    -2
100
AcDbBlockReference
  2
_Oblique
 10
1654.476581392803
 20
141.1777898225065
 30
0.0
 41
2.0
 42
2.0
 43
2.0
 50
180.0
  0
MTEXT
  5
38642
330
3804A
100
AcDbEntity
  8
Hawa1
 48
0.2
100
AcDbMText
 10
1667.131466392802
 20
143.1777898225065
 30
0.0
 40
2.0
 41
0.0
 71
     5
 72
     1
  1
\A1;=
  7
Beschlag
 73
     1
 44
1.0
1001
ACAD
1000
MTEXTBEGIN
1070
    73
1070
     1
1070
    44
1040
1.0
1070
    74
1070
     0
1000
MTEXTEND
  0
POINT
  5
38643
330
3804A
100
AcDbEntity
  8
Defpoints
 62
     0
 48
0.2
100
AcDbPoint
 10
1681.473889392802
 20
148.0620578225065
 30
0.0
  0
POINT
  5
38644
330
3804A
100
AcDbEntity
  8
Defpoints
 62
     0
 48
0.2
100
AcDbPoint
 10
1654.476581392803
 20
148.0620578225065
 30
0.0
  0
POINT
  5
38645
330
3804A
100
AcDbEntity
  8
Defpoints
 62
     0
 48
0.2
100
AcDbPoint
 10
1654.476581392803
 20
141.1777898225065
 30
0.0
  0
ENDBLK
  5
38055
330
3804A
100
AcDbEntity
  8
0
 48
0.2
100
AcDbBlockEnd
  0
BLOCK
  5
38533
330
38528
100
AcDbEntity
  8
0
 48
0.2
100
AcDbBlockBegin
  2
*D10
 70
     1
 10
0.0
 20
0.0
 30
0.0
  3
*D10
  1

  0
LINE
  5
3866A
330
38528
100
AcDbEntity
  8
Hawa1
 48
0.2
370
    -2
100
AcDbLine
 10
1656.783796270635
 20
205.1299828862243
 30
0.0
 11
1647.930030320321
 21
205.1300565957781
 31
0.0
  0
LINE
  5
3866B
330
38528
100
AcDbEntity
  8
Hawa1
 48
0.2
370
    -2
100
AcDbLine
 10
1657.931176270636
 20
208.6299938862242
 30
0.0
 11
1647.930059458763
 21
208.630077147727
 31
0.0
  0
LINE
  5
3866C
330
38528
100
AcDbEntity
  8
Hawa1
 48
0.2
370
    -2
100
AcDbLine
 10
1648.930059458729
 20
208.6300688225065
 30
0.0
 11
1648.930021995066
 21
204.1300482705923
 31
0.0
  0
LINE
  5
3866D
330
38528
100
AcDbEntity
  8
Hawa1
 48
0.2
370
    -2
100
AcDbLine
 10
1648.930030320286
 20
205.1300482705576
 30
0.0
 11
1648.929929772068
 21
193.0525041611252
 31
0.0
  0
INSERT
  5
3866E
330
38528
100
AcDbEntity
  8
Hawa1
 48
0.2
370
    -2
100
AcDbBlockReference
  2
_Oblique
 10
1648.930059458729
 20
208.6300688225065
 30
0.0
 41
2.0
 42
2.0
 43
2.0
 50
89.99952300000151
  0
INSERT
  5
3866F
330
38528
100
AcDbEntity
  8
Hawa1
 48
0.2
370
    -2
100
AcDbBlockReference
  2
_Oblique
 10
1648.930030320286
 20
205.1300482705576
 30
0.0
 41
2.0
 42
2.0
 43
2.0
 50
269.9995230000015
  0
MTEXT
  5
38670
330
38528
100
AcDbEntity
  8
Hawa1
 48
0.2
100
AcDbMText
 10
1646.074643052235
 20
197.7032953467323
 30
0.0
 40
2.0
 41
0.0
 71
     5
 72
     1
  1
\A1;\A1;3.5 {\fTechnicLite|b0|i0|c2|p0;[\H0.7x;\S1/8;"\H1.429x;]}
  7
Beschlag
 11
0.0000083252205058
 21
0.9999999999653454
 31
0.0
 73
     1
 44
1.0
1001
ACAD
1000
MTEXTBEGIN
1070
    73
1070
     1
1070
    44
1040
1.0
1070
    74
1070
     0
1000
MTEXTEND
  0
POINT
  5
38671
330
38528
100
AcDbEntity
  8
Defpoints
 62
     0
 48
0.2
100
AcDbPoint
 10
1658.783796270566
 20
205.1299662357833
 30
0.0
  0
POINT
  5
38672
330
38528
100
AcDbEntity
  8
Defpoints
 62
     0
 48
0.2
100
AcDbPoint
 10
1659.931176270566
 20
208.6299772357832
 30
0.0
  0
POINT
  5
38673
330
38528
100
AcDbEntity
  8
Defpoints
 62
     0
 48
0.2
100
AcDbPoint
 10
1648.930059458729
 20
208.6300688225065
 30
0.0
  0
ENDBLK
  5
38534
330
38528
100
AcDbEntity
  8
0
 48
0.2
100
AcDbBlockEnd
  0
BLOCK
  5
3857A
330
3856E
100
AcDbEntity
  8
0
 48
0.2
100
AcDbBlockBegin
  2
*D11
 70
     1
 10
0.0
 20
0.0
 30
0.0
  3
*D11
  1

  0
LINE
  5
38674
330
3856E
100
AcDbEntity
  8
Hawa1
 48
0.2
370
    -2
100
AcDbLine
 10
1708.471134791038
 20
153.4367218213975
 30
0.0
 11
1708.470781533604
 21
164.044772139919
 31
0.0
  0
LINE
  5
38675
330
3856E
100
AcDbEntity
  8
Hawa1
 48
0.2
370
    -2
100
AcDbLine
 10
1707.391258791038
 20
158.1612508213976
 30
0.0
 11
1707.391062865785
 21
164.0447361843349
 31
0.0
  0
LINE
  5
38676
330
3856E
100
AcDbEntity
  8
Hawa1
 48
0.2
370
    -2
100
AcDbLine
 10
1707.391096166668
 20
163.0447361848894
 30
0.0
 11
1705.391096167776
 21
163.0446695831251
 31
0.0
  0
LINE
  5
38677
330
3856E
100
AcDbEntity
  8
Hawa1
 48
0.2
370
    -2
100
AcDbLine
 10
1708.470814834486
 20
163.0447721404735
 30
0.0
 11
1723.748160690121
 21
163.0452808895675
 31
0.0
  0
LINE
  5
38678
330
3856E
100
AcDbEntity
  8
Hawa1
 48
0.2
370
    -2
100
AcDbLine
 10
1707.391096166668
 20
163.0447361848894
 30
0.0
 11
1708.470814834486
 21
163.0447721404735
 31
0.0
  0
INSERT
  5
38679
330
3856E
100
AcDbEntity
  8
Hawa1
 48
0.2
370
    -2
100
AcDbBlockReference
  2
_Oblique
 10
1707.391096166668
 20
163.0447361848894
 30
0.0
 41
2.0
 42
2.0
 43
2.0
 50
0.0019080000008778
  0
INSERT
  5
3867A
330
3856E
100
AcDbEntity
  8
Hawa1
 48
0.2
370
    -2
100
AcDbBlockReference
  2
_Oblique
 10
1708.470814834486
 20
163.0447721404735
 30
0.0
 41
2.0
 42
2.0
 43
2.0
 50
180.0019080000008
  0
MTEXT
  5
3867B
330
3856E
100
AcDbEntity
  8
Hawa1
 48
0.2
100
AcDbMText
 10
1718.246575283255
 20
165.9014465139133
 30
0.0
 40
2.0
 41
0.0
 71
     5
 72
     1
  1
\A1;\A1;27 {\fTechnicLite|b0|i0|c2|p0;[1 \H0.7x;\S1/16;"\H1.429x;]}
  7
Beschlag
 11
0.9999999994455256
 21
0.0000333008821372
 31
0.0
 73
     1
 44
1.0
1001
ACAD
1000
MTEXTBEGIN
1070
    73
1070
     1
1070
    44
1040
1.0
1070
    74
1070
     0
1000
MTEXTEND
  0
POINT
  5
3867C
330
3856E
100
AcDbEntity
  8
Defpoints
 62
     0
 48
0.2
100
AcDbPoint
 10
1708.471201392802
 20
151.4367218225065
 30
0.0
  0
POINT
  5
3867D
330
3856E
100
AcDbEntity
  8
Defpoints
 62
     0
 48
0.2
100
AcDbPoint
 10
1707.391325392802
 20
156.1612508225065
 30
0.0
  0
POINT
  5
3867E
330
3856E
100
AcDbEntity
  8
Defpoints
 62
     0
 48
0.2
100
AcDbPoint
 10
1707.391096166668
 20
163.0447361848894
 30
0.0
  0
ENDBLK
  5
3857B
330
3856E
100
AcDbEntity
  8
0
 48
0.2
100
AcDbBlockEnd
  0
BLOCK
  5
38594
330
38588
100
AcDbEntity
  8
0
 48
0.2
100
AcDbBlockBegin
  2
*D12
 70
     1
 10
0.0
 20
0.0
 30
0.0
  3
*D12
  1

  0
LINE
  5
3867F
330
38588
100
AcDbEntity
  8
Hawa1
 48
0.2
370
    -2
100
AcDbLine
 10
1775.129616994567
 20
153.4367218213976
 30
0.0
 11
1775.129970252
 21
164.0447721399191
 31
0.0
  0
LINE
  5
38680
330
38588
100
AcDbEntity
  8
Hawa1
 48
0.2
370
    -2
100
AcDbLine
 10
1776.209492994567
 20
158.1612508213976
 30
0.0
 11
1776.20968891982
 21
164.0447361843349
 31
0.0
  0
LINE
  5
38681
330
38588
100
AcDbEntity
  8
Hawa1
 48
0.2
370
    -2
100
AcDbLine
 10
1776.209655618937
 20
163.0447361848894
 30
0.0
 11
1778.209655617829
 21
163.0446695831251
 31
0.0
  0
LINE
  5
38682
330
38588
100
AcDbEntity
  8
Hawa1
 48
0.2
370
    -2
100
AcDbLine
 10
1775.129936951118
 20
163.0447721404735
 30
0.0
 11
1759.852591095484
 21
163.0452808895675
 31
0.0
  0
LINE
  5
38683
330
38588
100
AcDbEntity
  8
Hawa1
 48
0.2
370
    -2
100
AcDbLine
 10
1776.209655618937
 20
163.0447361848894
 30
0.0
 11
1775.129936951118
 21
163.0447721404735
 31
0.0
  0
INSERT
  5
38684
330
38588
100
AcDbEntity
  8
Hawa1
 48
0.2
370
    -2
100
AcDbBlockReference
  2
_Oblique
 10
1776.209655618937
 20
163.0447361848894
 30
0.0
 41
2.0
 42
2.0
 43
2.0
 50
179.9980919999991
  0
INSERT
  5
38685
330
38588
100
AcDbEntity
  8
Hawa1
 48
0.2
370
    -2
100
AcDbBlockReference
  2
_Oblique
 10
1775.129936951118
 20
163.0447721404735
 30
0.0
 41
2.0
 42
2.0
 43
2.0
 50
359.9980919999991
  0
MTEXT
  5
38686
330
38588
100
AcDbEntity
  8
Hawa1
 48
0.2
100
AcDbMText
 10
1765.354176502351
 20
165.9014465139133
 30
0.0
 40
2.0
 41
0.0
 71
     5
 72
     1
  1
\A1;\A1;27 {\fTechnicLite|b0|i0|c2|p0;[1 \H0.7x;\S1/16;"\H1.429x;]}
  7
Beschlag
 11
0.9999999994455256
 21
-0.0000333008821372
 31
0.0
 73
     1
 44
1.0
1001
ACAD
1000
MTEXTBEGIN
1070
    73
1070
     1
1070
    44
1040
1.0
1070
    74
1070
     0
1000
MTEXTEND
  0
POINT
  5
38687
330
38588
100
AcDbEntity
  8
Defpoints
 62
     0
 48
0.2
100
AcDbPoint
 10
1775.129550392803
 20
151.4367218225065
 30
0.0
  0
POINT
  5
38688
330
38588
100
AcDbEntity
  8
Defpoints
 62
     0
 48
0.2
100
AcDbPoint
 10
1776.209426392802
 20
156.1612508225065
 30
0.0
  0
POINT
  5
38689
330
38588
100
AcDbEntity
  8
Defpoints
 62
     0
 48
0.2
100
AcDbPoint
 10
1776.209655618937
 20
163.0447361848894
 30
0.0
  0
ENDBLK
  5
38595
330
38588
100
AcDbEntity
  8
0
 48
0.2
100
AcDbBlockEnd
  0
ENDSEC
  0
SECTION
  2
ENTITIES
  0
LINE
  5
37907
330
A
100
AcDbEntity
  8
Hawa5
100
AcDbLine
 10
1749.212123392803
 20
156.1612508225065
 30
0.0
 11
1776.209427392802
 21
156.1612508225065
 31
0.0
  0
LINE
  5
37908
330
A
100
AcDbEntity
  8
Hawa5
100
AcDbLine
 10
1682.553766392802
 20
152.7865868225065
 30
0.0
 11
1682.553766392802
 21
156.1612508225065
 31
0.0
  0
LINE
  5
37909
330
A
100
AcDbEntity
  8
Hawa5
100
AcDbLine
 10
1654.476581392803
 20
148.0620578225065
 30
0.0
 11
1654.476581392803
 21
168.3100388225065
 31
0.0
  0
LINE
  5
3790A
330
A
100
AcDbEntity
  8
Hawa5
100
AcDbLine
 10
1681.473890392802
 20
151.4367218225065
 30
0.0
 11
1708.471200392802
 21
151.4367218225065
 31
0.0
  0
LINE
  5
3790B
330
A
100
AcDbEntity
  8
Hawa5
100
AcDbLine
 10
1803.206742392802
 20
168.3100388225065
 30
0.0
 11
1803.206742392802
 21
148.0620578225065
 31
0.0
  0
LINE
  5
3790C
330
A
100
AcDbEntity
  8
Hawa5
100
AcDbLine
 10
1708.471200392802
 20
148.0620578225065
 30
0.0
 11
1681.473890392802
 21
148.0620578225065
 31
0.0
  0
LINE
  5
3790D
330
A
100
AcDbEntity
  8
Hawa5
100
AcDbLine
 10
1748.132250392802
 20
168.3100388225065
 30
0.0
 11
1748.132250392802
 21
148.0620578225065
 31
0.0
  0
LINE
  5
3790E
330
A
100
AcDbEntity
  8
Hawa5
100
AcDbLine
 10
1655.556457392802
 20
152.7865868225065
 30
0.0
 11
1655.556457392802
 21
156.1612508225065
 31
0.0
  0
LINE
  5
3790F
330
A
100
AcDbEntity
  8
Hawa5
100
AcDbLine
 10
1681.473890392802
 20
148.0620578225065
 30
0.0
 11
1681.473890392802
 21
151.4367218225065
 31
0.0
  0
LINE
  5
37910
330
A
100
AcDbEntity
  8
Hawa5
100
AcDbLine
 10
1655.556457392802
 20
152.7865868225065
 30
0.0
 11
1682.553766392802
 21
152.7865868225065
 31
0.0
  0
LINE
  5
37911
330
A
100
AcDbEntity
  8
Hawa5
100
AcDbLine
 10
1655.556457392802
 20
156.1612508225065
 30
0.0
 11
1682.553766392802
 21
156.1612508225065
 31
0.0
  0
LINE
  5
37912
330
A
100
AcDbEntity
  8
Hawa5
100
AcDbLine
 10
1651.101918392803
 20
148.0620578225065
 30
0.0
 11
1651.101918392803
 21
168.3100388225065
 31
0.0
  0
LINE
  5
37913
330
A
100
AcDbEntity
  8
Hawa5
100
AcDbLine
 10
1744.757582392803
 20
168.3100388225065
 30
0.0
 11
1744.757582392803
 21
148.0620578225065
 31
0.0
  0
LINE
  5
37914
330
A
100
AcDbEntity
  8
Hawa5
100
AcDbLine
 10
1806.581400392802
 20
168.3100388225065
 30
0.0
 11
1806.581400392802
 21
148.0620578225065
 31
0.0
  0
LINE
  5
37915
330
A
100
AcDbEntity
  8
Hawa5
100
AcDbLine
 10
1749.212123392803
 20
152.7865868225065
 30
0.0
 11
1776.209427392802
 21
152.7865868225065
 31
0.0
  0
LINE
  5
37916
330
A
100
AcDbEntity
  8
Hawa5
100
AcDbLine
 10
1734.388627392803
 20
156.1612508225065
 30
0.0
 11
1707.391322392803
 21
156.1612508225065
 31
0.0
  0
LINE
  5
37917
330
A
100
AcDbEntity
  8
Hawa5
100
AcDbLine
 10
1775.129554392802
 20
148.0620578225065
 30
0.0
 11
1775.129554392802
 21
151.4367218225065
 31
0.0
  0
LINE
  5
37918
330
A
100
AcDbEntity
  8
Hawa5
100
AcDbLine
 10
1749.212123392803
 20
152.7865868225065
 30
0.0
 11
1749.212123392803
 21
156.1612508225065
 31
0.0
  0
LINE
  5
37919
330
A
100
AcDbEntity
  8
Hawa5
100
AcDbLine
 10
1802.126859392802
 20
148.0620578225065
 30
0.0
 11
1775.129554392802
 21
148.0620578225065
 31
0.0
  0
LINE
  5
3791A
330
A
100
AcDbEntity
  8
Hawa5
100
AcDbLine
 10
1744.757582392803
 20
148.0620578225065
 30
0.0
 11
1748.132250392802
 21
148.0620578225065
 31
0.0
  0
LINE
  5
3791B
330
A
100
AcDbEntity
  8
Hawa5
100
AcDbLine
 10
1651.101918392803
 20
148.0620578225065
 30
0.0
 11
1654.476581392803
 21
148.0620578225065
 31
0.0
  0
LINE
  5
3791C
330
A
100
AcDbEntity
  8
Hawa5
100
AcDbLine
 10
1803.206742392802
 20
148.0620578225065
 30
0.0
 11
1806.581400392802
 21
148.0620578225065
 31
0.0
  0
LINE
  5
3791D
330
A
100
AcDbEntity
  8
Hawa5
100
AcDbLine
 10
1735.468509392802
 20
148.0620578225065
 30
0.0
 11
1738.843168392802
 21
148.0620578225065
 31
0.0
  0
LINE
  5
3791E
330
A
100
AcDbEntity
  8
Hawa5
100
AcDbLine
 10
1775.129554392802
 20
151.4367218225065
 30
0.0
 11
1802.126859392802
 21
151.4367218225065
 31
0.0
  0
LINE
  5
3791F
330
A
100
AcDbEntity
  8
Hawa5
100
AcDbLine
 10
1734.388627392803
 20
152.7865868225065
 30
0.0
 11
1707.391322392803
 21
152.7865868225065
 31
0.0
  0
LINE
  5
37920
330
A
100
AcDbEntity
  8
Hawa5
100
AcDbLine
 10
1707.391322392803
 20
152.7865868225065
 30
0.0
 11
1707.391322392803
 21
156.1612508225065
 31
0.0
  0
LINE
  5
37921
330
A
100
AcDbEntity
  8
Hawa5
100
AcDbLine
 10
1776.209427392802
 20
152.7865868225065
 30
0.0
 11
1776.209427392802
 21
156.1612508225065
 31
0.0
  0
LINE
  5
37922
330
A
100
AcDbEntity
  8
Hawa5
100
AcDbLine
 10
1734.388627392803
 20
152.7865868225065
 30
0.0
 11
1734.388627392803
 21
156.1612508225065
 31
0.0
  0
LINE
  5
37923
330
A
100
AcDbEntity
  8
Hawa5
100
AcDbLine
 10
1802.126859392802
 20
148.0620578225065
 30
0.0
 11
1802.126859392802
 21
151.4367218225065
 31
0.0
  0
LINE
  5
37924
330
A
100
AcDbEntity
  8
Hawa5
100
AcDbLine
 10
1735.468509392802
 20
148.0620578225065
 30
0.0
 11
1735.468509392802
 21
168.3100388225065
 31
0.0
  0
LINE
  5
37925
330
A
100
AcDbEntity
  8
Hawa5
100
AcDbLine
 10
1738.843168392802
 20
148.0620578225065
 30
0.0
 11
1738.843168392802
 21
168.3100388225065
 31
0.0
  0
LINE
  5
37926
330
A
100
AcDbEntity
  8
Hawa5
100
AcDbLine
 10
1708.471200392802
 20
148.0620578225065
 30
0.0
 11
1708.471200392802
 21
151.4367218225065
 31
0.0
  0
POINT
  5
37927
330
A
100
AcDbEntity
  8
Hawa5
100
AcDbPoint
 10
1749.212123392803
 20
156.1612508225065
 30
0.0
  0
POINT
  5
37928
330
A
100
AcDbEntity
  8
Hawa5
100
AcDbPoint
 10
1776.209427392802
 20
156.1612508225065
 30
0.0
  0
POINT
  5
37929
330
A
100
AcDbEntity
  8
Hawa5
100
AcDbPoint
 10
1682.553766392802
 20
152.7865868225065
 30
0.0
  0
POINT
  5
3792A
330
A
100
AcDbEntity
  8
Hawa5
100
AcDbPoint
 10
1682.553766392802
 20
156.1612508225065
 30
0.0
  0
POINT
  5
3792B
330
A
100
AcDbEntity
  8
Hawa5
100
AcDbPoint
 10
1654.476581392803
 20
148.0620578225065
 30
0.0
  0
POINT
  5
3792D
330
A
100
AcDbEntity
  8
Hawa5
100
AcDbPoint
 10
1681.473890392802
 20
151.4367218225065
 30
0.0
  0
POINT
  5
3792E
330
A
100
AcDbEntity
  8
Hawa5
100
AcDbPoint
 10
1708.471200392802
 20
151.4367218225065
 30
0.0
  0
POINT
  5
37930
330
A
100
AcDbEntity
  8
Hawa5
100
AcDbPoint
 10
1803.206742392802
 20
148.0620578225065
 30
0.0
  0
POINT
  5
37931
330
A
100
AcDbEntity
  8
Hawa5
100
AcDbPoint
 10
1708.471200392802
 20
148.0620578225065
 30
0.0
  0
POINT
  5
37932
330
A
100
AcDbEntity
  8
Hawa5
100
AcDbPoint
 10
1681.473890392802
 20
148.0620578225065
 30
0.0
  0
POINT
  5
37934
330
A
100
AcDbEntity
  8
Hawa5
100
AcDbPoint
 10
1748.132250392802
 20
148.0620578225065
 30
0.0
  0
POINT
  5
37935
330
A
100
AcDbEntity
  8
Hawa5
100
AcDbPoint
 10
1655.556457392802
 20
152.7865868225065
 30
0.0
  0
POINT
  5
37936
330
A
100
AcDbEntity
  8
Hawa5
100
AcDbPoint
 10
1655.556457392802
 20
156.1612508225065
 30
0.0
  0
POINT
  5
37937
330
A
100
AcDbEntity
  8
Hawa5
100
AcDbPoint
 10
1681.473890392802
 20
148.0620578225065
 30
0.0
  0
POINT
  5
37938
330
A
100
AcDbEntity
  8
Hawa5
100
AcDbPoint
 10
1681.473890392802
 20
151.4367218225065
 30
0.0
  0
POINT
  5
37939
330
A
100
AcDbEntity
  8
Hawa5
100
AcDbPoint
 10
1655.556457392802
 20
152.7865868225065
 30
0.0
  0
POINT
  5
3793A
330
A
100
AcDbEntity
  8
Hawa5
100
AcDbPoint
 10
1682.553766392802
 20
152.7865868225065
 30
0.0
  0
POINT
  5
3793B
330
A
100
AcDbEntity
  8
Hawa5
100
AcDbPoint
 10
1655.556457392802
 20
156.1612508225065
 30
0.0
  0
POINT
  5
3793C
330
A
100
AcDbEntity
  8
Hawa5
100
AcDbPoint
 10
1682.553766392802
 20
156.1612508225065
 30
0.0
  0
POINT
  5
3793D
330
A
100
AcDbEntity
  8
Hawa5
100
AcDbPoint
 10
1651.101918392803
 20
148.0620578225065
 30
0.0
  0
POINT
  5
37940
330
A
100
AcDbEntity
  8
Hawa5
100
AcDbPoint
 10
1744.757582392803
 20
148.0620578225065
 30
0.0
  0
POINT
  5
37942
330
A
100
AcDbEntity
  8
Hawa5
100
AcDbPoint
 10
1806.581400392802
 20
148.0620578225065
 30
0.0
  0
POINT
  5
37943
330
A
100
AcDbEntity
  8
Hawa5
100
AcDbPoint
 10
1749.212123392803
 20
152.7865868225065
 30
0.0
  0
POINT
  5
37944
330
A
100
AcDbEntity
  8
Hawa5
100
AcDbPoint
 10
1776.209427392802
 20
152.7865868225065
 30
0.0
  0
POINT
  5
37945
330
A
100
AcDbEntity
  8
Hawa5
100
AcDbPoint
 10
1734.388627392803
 20
156.1612508225065
 30
0.0
  0
POINT
  5
37946
330
A
100
AcDbEntity
  8
Hawa5
100
AcDbPoint
 10
1707.391322392803
 20
156.1612508225065
 30
0.0
  0
POINT
  5
37947
330
A
100
AcDbEntity
  8
Hawa5
100
AcDbPoint
 10
1775.129554392802
 20
148.0620578225065
 30
0.0
  0
POINT
  5
37948
330
A
100
AcDbEntity
  8
Hawa5
100
AcDbPoint
 10
1775.129554392802
 20
151.4367218225065
 30
0.0
  0
POINT
  5
37949
330
A
100
AcDbEntity
  8
Hawa5
100
AcDbPoint
 10
1749.212123392803
 20
152.7865868225065
 30
0.0
  0
POINT
  5
3794A
330
A
100
AcDbEntity
  8
Hawa5
100
AcDbPoint
 10
1749.212123392803
 20
156.1612508225065
 30
0.0
  0
POINT
  5
3794B
330
A
100
AcDbEntity
  8
Hawa5
100
AcDbPoint
 10
1802.126859392802
 20
148.0620578225065
 30
0.0
  0
POINT
  5
3794C
330
A
100
AcDbEntity
  8
Hawa5
100
AcDbPoint
 10
1775.129554392802
 20
148.0620578225065
 30
0.0
  0
POINT
  5
3794D
330
A
100
AcDbEntity
  8
Hawa5
100
AcDbPoint
 10
1744.757582392803
 20
148.0620578225065
 30
0.0
  0
POINT
  5
3794E
330
A
100
AcDbEntity
  8
Hawa5
100
AcDbPoint
 10
1748.132250392802
 20
148.0620578225065
 30
0.0
  0
POINT
  5
3794F
330
A
100
AcDbEntity
  8
Hawa5
100
AcDbPoint
 10
1651.101918392803
 20
148.0620578225065
 30
0.0
  0
POINT
  5
37950
330
A
100
AcDbEntity
  8
Hawa5
100
AcDbPoint
 10
1654.476581392803
 20
148.0620578225065
 30
0.0
  0
POINT
  5
37951
330
A
100
AcDbEntity
  8
Hawa5
100
AcDbPoint
 10
1803.206742392802
 20
148.0620578225065
 30
0.0
  0
POINT
  5
37952
330
A
100
AcDbEntity
  8
Hawa5
100
AcDbPoint
 10
1806.581400392802
 20
148.0620578225065
 30
0.0
  0
POINT
  5
37953
330
A
100
AcDbEntity
  8
Hawa5
100
AcDbPoint
 10
1735.468509392802
 20
148.0620578225065
 30
0.0
  0
POINT
  5
37954
330
A
100
AcDbEntity
  8
Hawa5
100
AcDbPoint
 10
1738.843168392802
 20
148.0620578225065
 30
0.0
  0
POINT
  5
37955
330
A
100
AcDbEntity
  8
Hawa5
100
AcDbPoint
 10
1775.129554392802
 20
151.4367218225065
 30
0.0
  0
POINT
  5
37956
330
A
100
AcDbEntity
  8
Hawa5
100
AcDbPoint
 10
1802.126859392802
 20
151.4367218225065
 30
0.0
  0
POINT
  5
37957
330
A
100
AcDbEntity
  8
Hawa5
100
AcDbPoint
 10
1734.388627392803
 20
152.7865868225065
 30
0.0
  0
POINT
  5
37958
330
A
100
AcDbEntity
  8
Hawa5
100
AcDbPoint
 10
1707.391322392803
 20
152.7865868225065
 30
0.0
  0
POINT
  5
37959
330
A
100
AcDbEntity
  8
Hawa5
100
AcDbPoint
 10
1707.391322392803
 20
152.7865868225065
 30
0.0
  0
POINT
  5
3795A
330
A
100
AcDbEntity
  8
Hawa5
100
AcDbPoint
 10
1707.391322392803
 20
156.1612508225065
 30
0.0
  0
POINT
  5
3795B
330
A
100
AcDbEntity
  8
Hawa5
100
AcDbPoint
 10
1776.209427392802
 20
152.7865868225065
 30
0.0
  0
POINT
  5
3795C
330
A
100
AcDbEntity
  8
Hawa5
100
AcDbPoint
 10
1776.209427392802
 20
156.1612508225065
 30
0.0
  0
POINT
  5
3795D
330
A
100
AcDbEntity
  8
Hawa5
100
AcDbPoint
 10
1734.388627392803
 20
152.7865868225065
 30
0.0
  0
POINT
  5
3795E
330
A
100
AcDbEntity
  8
Hawa5
100
AcDbPoint
 10
1734.388627392803
 20
156.1612508225065
 30
0.0
  0
POINT
  5
3795F
330
A
100
AcDbEntity
  8
Hawa5
100
AcDbPoint
 10
1802.126859392802
 20
148.0620578225065
 30
0.0
  0
POINT
  5
37960
330
A
100
AcDbEntity
  8
Hawa5
100
AcDbPoint
 10
1802.126859392802
 20
151.4367218225065
 30
0.0
  0
POINT
  5
37961
330
A
100
AcDbEntity
  8
Hawa5
100
AcDbPoint
 10
1735.468509392802
 20
148.0620578225065
 30
0.0
  0
POINT
  5
37963
330
A
100
AcDbEntity
  8
Hawa5
100
AcDbPoint
 10
1738.843168392802
 20
148.0620578225065
 30
0.0
  0
POINT
  5
37965
330
A
100
AcDbEntity
  8
Hawa5
100
AcDbPoint
 10
1708.471200392802
 20
148.0620578225065
 30
0.0
  0
POINT
  5
37966
330
A
100
AcDbEntity
  8
Hawa5
100
AcDbPoint
 10
1708.471200392802
 20
151.4367218225065
 30
0.0
  0
DIMENSION
  5
37969
330
A
100
AcDbEntity
  8
Hawa1
 48
0.2
100
AcDbDimension
  2
*D4
 10
1682.553994618938
 20
163.0447361848893
 30
0.0
 11
1671.698420383416
 21
163.0450976850877
 31
0.0
 70
   160
  1
\A1;27 {\fTechnicLite|b0|i0|c2|p0;[1 \H0.7x;\S1/16;"\H1.429x;]}
 71
     5
 42
1.079718668417854
  3
HAWA-Strich
100
AcDbAlignedDimension
 13
1681.473889392802
 23
151.4367218225065
 33
0.0
 14
1682.553765392803
 24
156.1612508225065
 34
0.0
 50
359.9980919999991
100
AcDbRotatedDimension
1001
ACAD
1000
DSTYLE
1002
{
1070
   271
1070
     0
1070
   279
1070
     0
1002
}
  0
DIMENSION
  5
3796A
330
A
100
AcDbEntity
  8
Hawa1
 48
0.2
100
AcDbDimension
  2
*D5
 10
1775.129553392802
 20
141.1777898225065
 30
0.0
 11
1789.168145392802
 21
141.1777898225065
 31
0.0
 70
   161
  1
=
 71
     5
 42
28.0771850000001
  3
HAWA-Strich
100
AcDbAlignedDimension
 13
1803.206738392803
 23
148.0620578225065
 33
0.0
 14
1775.129553392802
 24
148.0620578225065
 34
0.0
1001
ACAD
1000
DSTYLE
1002
{
1070
   271
1070
     0
1070
   279
1070
     0
1002
}
  0
DIMENSION
  5
3796B
330
A
100
AcDbEntity
  8
Hawa1
 48
0.2
100
AcDbDimension
  2
*D6
 10
1748.132245392802
 20
141.1777898225065
 30
0.0
 11
1761.630899392802
 21
141.1777898225065
 31
0.0
 70
   161
  1
=
 71
     5
 42
26.99730799999997
  3
HAWA-Strich
100
AcDbAlignedDimension
 13
1775.129553392802
 23
148.0620578225065
 33
0.0
 14
1748.132245392802
 24
148.0620578225065
 34
0.0
1001
ACAD
1000
DSTYLE
1002
{
1070
   271
1070
     0
1070
   279
1070
     0
1002
}
  0
DIMENSION
  5
3796C
330
A
100
AcDbEntity
  8
Hawa1
 48
0.2
100
AcDbDimension
  2
*D7
 10
1708.471198392803
 20
141.1777898225065
 30
0.0
 11
1721.969852392803
 21
141.1777898225065
 31
0.0
 70
   161
  1
=
 71
     5
 42
26.99730799999997
  3
HAWA-Strich
100
AcDbAlignedDimension
 13
1735.468506392803
 23
148.0620578225065
 33
0.0
 14
1708.471198392803
 24
148.0620578225065
 34
0.0
1001
ACAD
1000
DSTYLE
1002
{
1070
   271
1070
     0
1070
   279
1070
     0
1002
}
  0
DIMENSION
  5
3796D
330
A
100
AcDbEntity
  8
Hawa1
 48
0.2
100
AcDbDimension
  2
*D8
 10
1681.473889392802
 20
141.1777898225065
 30
0.0
 11
1694.045419392802
 21
141.1777898225065
 31
0.0
 70
   161
  1
=
 71
     5
 42
26.99730899999986
  3
HAWA-Strich
100
AcDbAlignedDimension
 13
1708.471198392803
 23
148.0620578225065
 33
0.0
 14
1681.473889392802
 24
148.0620578225065
 34
0.0
1001
ACAD
1000
DSTYLE
1002
{
1070
   271
1070
     0
1070
   279
1070
     0
1002
}
  0
DIMENSION
  5
3796E
330
A
100
AcDbEntity
  8
Hawa1
 48
0.2
100
AcDbDimension
  2
*D9
 10
1654.476581392803
 20
141.1777898225065
 30
0.0
 11
1667.131466392802
 21
141.1777898225065
 31
0.0
 70
   161
  1
=
 71
     5
 42
26.99730799999997
  3
HAWA-Strich
100
AcDbAlignedDimension
 13
1681.473889392802
 23
148.0620578225065
 33
0.0
 14
1654.476581392803
 24
148.0620578225065
 34
0.0
1001
ACAD
1000
DSTYLE
1002
{
1070
   271
1070
     0
1070
   279
1070
     0
1002
}
  0
LINE
  5
3796F
330
A
100
AcDbEntity
  8
Hawa6
 48
0.2
100
AcDbLine
 10
1670.583329392802
 20
285.5745668225065
 30
0.0
 11
1670.583329392802
 21
284.0745668225066
 31
0.0
  0
LINE
  5
37970
330
A
100
AcDbEntity
  8
Hawa6
 48
0.2
100
AcDbLine
 10
1751.250020392802
 20
368.1500698225065
 30
0.0
 11
1751.250020392802
 21
365.1500698225065
 31
0.0
  0
LINE
  5
37971
330
A
100
AcDbEntity
  8
Hawa6
 48
0.2
100
AcDbLine
 10
1670.583329392802
 20
302.5745688225065
 30
0.0
 11
1670.583329392802
 21
301.0745688225065
 31
0.0
  0
LINE
  5
37972
330
A
100
AcDbEntity
  8
Hawa6
 48
0.2
100
AcDbLine
 10
1670.583329392802
 20
336.5745688225065
 30
0.0
 11
1670.583329392802
 21
335.0745688225065
 31
0.0
  0
ARC
  5
37973
330
A
100
AcDbEntity
  8
Hawa6
 48
0.2
100
AcDbCircle
 10
1685.050397392802
 20
157.7300328225065
 30
0.0
 40
35.0
100
AcDbArc
 50
76.39102799999465
 51
103.6089359999964
  0
ARC
  5
37974
330
A
100
AcDbEntity
  8
Hawa6
 48
0.2
100
AcDbCircle
 10
1685.050397392802
 20
223.5300208225065
 30
0.0
 40
35.0
100
AcDbArc
 50
256.3910129999968
 51
283.6089609999937
  0
ARC
  5
37975
330
A
100
AcDbEntity
  8
Hawa6
 48
0.2
100
AcDbCircle
 10
1693.050397392802
 20
190.7754438225065
 30
0.0
 40
1.0
100
AcDbArc
 50
359.9999830000006
 51
76.39100100000042
  0
ARC
  5
37976
330
A
100
AcDbEntity
  8
Hawa6
 48
0.2
100
AcDbCircle
 10
1693.050397392802
 20
190.4846108225065
 30
0.0
 40
1.0
100
AcDbArc
 50
283.6089609999937
 51
359.9999830000006
  0
ARC
  5
37977
330
A
100
AcDbEntity
  8
Hawa6
 48
0.2
100
AcDbCircle
 10
1677.050397392802
 20
190.7754438225065
 30
0.0
 40
1.0
100
AcDbArc
 50
103.6089629999995
 51
179.9999910000004
  0
ARC
  5
37978
330
A
100
AcDbEntity
  8
Hawa6
 48
0.2
100
AcDbCircle
 10
1677.050397392802
 20
190.4846108225065
 30
0.0
 40
1.0
100
AcDbArc
 50
179.9999910000004
 51
256.3910129999968
  0
ARC
  5
37979
330
A
100
AcDbEntity
  8
Hawa6
 48
0.2
100
AcDbCircle
 10
1701.050418392803
 20
213.1300688225065
 30
0.0
 40
2.0
100
AcDbArc
 50
270.0000009999949
 51
0.0
  0
ARC
  5
3797A
330
A
100
AcDbEntity
  8
Hawa6
 48
0.2
100
AcDbCircle
 10
1701.050418392803
 20
223.1300688225065
 30
0.0
 40
2.0
100
AcDbArc
 50
0.0
 51
90.00000299999769
  0
ARC
  5
3797B
330
A
100
AcDbEntity
  8
Hawa6
 48
0.2
100
AcDbCircle
 10
1685.050416392802
 20
205.1300688225065
 30
0.0
 40
18.5
100
AcDbArc
 50
60.89009100000189
 51
169.0945290000005
  0
CIRCLE
  5
3797C
330
A
100
AcDbEntity
  8
Hawa6
 48
0.2
100
AcDbCircle
 10
1697.050418392802
 20
205.1300688225065
 30
0.0
 40
2.799999999999999
  0
CIRCLE
  5
3797D
330
A
100
AcDbEntity
  8
Hawa6
 48
0.2
100
AcDbCircle
 10
1673.050416392802
 20
205.1300688225065
 30
0.0
 40
2.799999999999999
  0
CIRCLE
  5
3797E
330
A
100
AcDbEntity
  8
Hawa6
 48
0.2
100
AcDbCircle
 10
1685.050416392802
 20
205.1300688225065
 30
0.0
 40
17.6
  0
CIRCLE
  5
3797F
330
A
100
AcDbEntity
  8
Hawa6
 48
0.2
100
AcDbCircle
 10
1697.050418392802
 20
205.1300688225065
 30
0.0
 40
3.6
  0
ARC
  5
37980
330
A
100
AcDbEntity
  8
Hawa6
 48
0.2
100
AcDbCircle
 10
1693.050416392803
 20
219.7754858225065
 30
0.0
 40
1.0
100
AcDbArc
 50
0.000008999999603
 51
76.39103499999515
  0
ARC
  5
37981
330
A
100
AcDbEntity
  8
Hawa6
 48
0.2
100
AcDbCircle
 10
1693.050416392803
 20
219.4846528225065
 30
0.0
 40
1.0
100
AcDbArc
 50
283.6089889999962
 51
0.000008999999603
  0
ARC
  5
37982
330
A
100
AcDbEntity
  8
Hawa6
 48
0.2
100
AcDbCircle
 10
1677.050416392803
 20
219.7754858225065
 30
0.0
 40
1.0
100
AcDbArc
 50
103.6089969999938
 51
180.0000190000006
  0
ARC
  5
37983
330
A
100
AcDbEntity
  8
Hawa6
 48
0.2
100
AcDbCircle
 10
1677.050416392803
 20
219.4846528225065
 30
0.0
 40
1.0
100
AcDbArc
 50
180.0000190000006
 51
256.3910400000026
  0
ARC
  5
37984
330
A
100
AcDbEntity
  8
Hawa6
 48
0.2
100
AcDbCircle
 10
1685.050416392802
 20
186.7300718225065
 30
0.0
 40
35.0
100
AcDbArc
 50
76.3910619999986
 51
103.608984000001
  0
ARC
  5
37985
330
A
100
AcDbEntity
  8
Hawa6
 48
0.2
100
AcDbCircle
 10
1685.050416392802
 20
205.1300688225065
 30
0.0
 40
18.5
100
AcDbArc
 50
349.0945199999996
 51
60.89010500000206
  0
ARC
  5
37986
330
A
100
AcDbEntity
  8
Hawa6
 48
0.2
100
AcDbCircle
 10
1685.050416392802
 20
252.5300618225065
 30
0.0
 40
35.0
100
AcDbArc
 50
256.3910670000053
 51
283.6089889999962
  0
CIRCLE
  5
37987
330
A
100
AcDbEntity
  8
Hawa6
 48
0.2
100
AcDbCircle
 10
1673.050416392802
 20
205.1300688225065
 30
0.0
 40
3.6
  0
CIRCLE
  5
37988
330
A
100
AcDbEntity
  8
Hawa6
 48
0.2
100
AcDbCircle
 10
1673.050416392802
 20
205.1300688225065
 30
0.0
 40
3.6
  0
ARC
  5
37989
330
A
100
AcDbEntity
  8
Hawa6
 48
0.2
100
AcDbCircle
 10
1685.050416392802
 20
205.1300688225065
 30
0.0
 40
18.5
100
AcDbArc
 50
169.0945290000005
 51
193.3511940000016
  0
ARC
  5
3798A
330
A
100
AcDbEntity
  8
Hawa6
 48
0.2
100
AcDbCircle
 10
1685.050416392802
 20
205.1300688225065
 30
0.0
 40
18.5
100
AcDbArc
 50
193.3511810000004
 51
349.0945199999996
  0
ARC
  5
3798B
330
A
100
AcDbEntity
  8
Hawa6
 48
0.2
100
AcDbCircle
 10
1778.550416392803
 20
233.8391988225065
 30
0.0
 40
18.5
100
AcDbArc
 50
199.610776
 51
340.389225999999
  0
CIRCLE
  5
3798C
330
A
100
AcDbEntity
  8
Hawa6
 48
0.2
100
AcDbCircle
 10
1766.550416392802
 20
233.8391988225065
 30
0.0
 40
2.799999999999999
  0
CIRCLE
  5
3798D
330
A
100
AcDbEntity
  8
Hawa6
 48
0.2
100
AcDbCircle
 10
1790.550416392802
 20
233.8391988225065
 30
0.0
 40
2.799999999999999
  0
CIRCLE
  5
3798E
330
A
100
AcDbEntity
  8
Hawa6
 48
0.2
100
AcDbCircle
 10
1778.550416392803
 20
233.8391988225065
 30
0.0
 40
17.6
  0
CIRCLE
  5
3798F
330
A
100
AcDbEntity
  8
Hawa6
 48
0.2
100
AcDbCircle
 10
1766.550416392802
 20
233.8391988225065
 30
0.0
 40
3.6
  0
ARC
  5
37990
330
A
100
AcDbEntity
  8
Hawa6
 48
0.2
100
AcDbCircle
 10
1770.550416392802
 20
219.7754858225065
 30
0.0
 40
1.0
100
AcDbArc
 50
103.6089629999995
 51
179.9999910000004
  0
ARC
  5
37991
330
A
100
AcDbEntity
  8
Hawa6
 48
0.2
100
AcDbCircle
 10
1770.550416392802
 20
219.4846528225065
 30
0.0
 40
1.0
100
AcDbArc
 50
179.9999910000004
 51
256.3910129999968
  0
ARC
  5
37992
330
A
100
AcDbEntity
  8
Hawa6
 48
0.2
100
AcDbCircle
 10
1786.550416392802
 20
219.7754858225065
 30
0.0
 40
1.0
100
AcDbArc
 50
359.9999830000006
 51
76.39100100000042
  0
ARC
  5
37993
330
A
100
AcDbEntity
  8
Hawa6
 48
0.2
100
AcDbCircle
 10
1786.550416392802
 20
219.4846528225065
 30
0.0
 40
1.0
100
AcDbArc
 50
283.6089609999937
 51
359.9999830000006
  0
ARC
  5
37994
330
A
100
AcDbEntity
  8
Hawa6
 48
0.2
100
AcDbCircle
 10
1778.550416392803
 20
186.7300718225065
 30
0.0
 40
35.0
100
AcDbArc
 50
76.39101500000261
 51
103.6089359999964
  0
ARC
  5
37995
330
A
100
AcDbEntity
  8
Hawa6
 48
0.2
100
AcDbCircle
 10
1778.550416392803
 20
252.5300618225065
 30
0.0
 40
35.0
100
AcDbArc
 50
256.3910129999968
 51
283.6089340000037
  0
CIRCLE
  5
37996
330
A
100
AcDbEntity
  8
Hawa6
 48
0.2
100
AcDbCircle
 10
1790.550416392802
 20
233.8391988225065
 30
0.0
 40
3.6
  0
ARC
  5
37997
330
A
100
AcDbEntity
  8
Hawa6
 48
0.2
100
AcDbCircle
 10
1778.550416392803
 20
233.8391988225065
 30
0.0
 40
18.5
100
AcDbArc
 50
340.389225999999
 51
13.35118399999965
  0
CIRCLE
  5
37998
330
A
100
AcDbEntity
  8
Hawa6
 48
0.2
100
AcDbCircle
 10
1790.550416392802
 20
233.8391988225065
 30
0.0
 40
3.6
  0
ARC
  5
37999
330
A
100
AcDbEntity
  8
Hawa6
 48
0.2
100
AcDbCircle
 10
1778.550416392803
 20
233.8391988225065
 30
0.0
 40
18.5
100
AcDbArc
 50
13.35118399999965
 51
169.0945290000005
  0
ARC
  5
3799A
330
A
100
AcDbEntity
  8
Hawa6
 48
0.2
100
AcDbCircle
 10
1778.550416392803
 20
233.8391988225065
 30
0.0
 40
18.5
100
AcDbArc
 50
169.0945290000005
 51
199.610776
  0
CIRCLE
  5
3799B
330
A
100
AcDbEntity
  8
Hawa6
 48
0.2
100
AcDbCircle
 10
1746.083415392802
 20
283.0745668225065
 30
0.0
 40
1.0
  0
CIRCLE
  5
3799C
330
A
100
AcDbEntity
  8
Hawa6
 48
0.2
100
AcDbCircle
 10
1669.149366392803
 20
283.0745668225065
 30
0.0
 40
1.0
  0
CIRCLE
  5
3799D
330
A
100
AcDbEntity
  8
Hawa6
 48
0.2
100
AcDbCircle
 10
1669.283365392803
 20
300.0745688225066
 30
0.0
 40
1.0
  0
CIRCLE
  5
3799E
330
A
100
AcDbEntity
  8
Hawa6
 48
0.2
100
AcDbCircle
 10
1669.283365392803
 20
317.0745688225065
 30
0.0
 40
1.0
  0
CIRCLE
  5
3799F
330
A
100
AcDbEntity
  8
Hawa6
 48
0.2
100
AcDbCircle
 10
1669.283365392803
 20
334.0745688225065
 30
0.0
 40
1.0
  0
CIRCLE
  5
379A0
330
A
100
AcDbEntity
  8
Hawa6
 48
0.2
100
AcDbCircle
 10
1669.283365392803
 20
351.0745688225065
 30
0.0
 40
1.0
  0
CIRCLE
  5
379A1
330
A
100
AcDbEntity
  8
Hawa6
 48
0.2
100
AcDbCircle
 10
1749.183366392802
 20
320.8160358225065
 30
0.0
 40
2.0
  0
CIRCLE
  5
379A2
330
A
100
AcDbEntity
  8
Hawa6
 48
0.2
100
AcDbCircle
 10
1725.683342392802
 20
300.0745688225066
 30
0.0
 40
1.0
  0
CIRCLE
  5
379A3
330
A
100
AcDbEntity
  8
Hawa6
 48
0.2
100
AcDbCircle
 10
1707.683391392803
 20
317.0745688225065
 30
0.0
 40
1.0
  0
LINE
  5
379A4
330
A
100
AcDbEntity
  8
Hawa1
 48
0.2
100
AcDbLine
 10
1661.171769392802
 20
352.8245618225065
 30
0.0
 11
1662.371763392803
 21
353.5173868225065
 31
0.0
  0
LINE
  5
379A5
330
A
100
AcDbEntity
  8
Hawa1
 48
0.2
100
AcDbLine
 10
1661.171769392802
 20
352.8245688225065
 30
0.0
 11
1662.371763392803
 21
352.1317518225065
 31
0.0
  0
LINE
  5
379A6
330
A
100
AcDbEntity
  8
Hawa1
 48
0.2
100
AcDbLine
 10
1662.371766392802
 20
353.5173868225065
 30
0.0
 11
1662.371766392802
 21
352.1317518225065
 31
0.0
  0
LINE
  5
379A7
330
A
100
AcDbEntity
  8
Hawa1
 48
0.2
100
AcDbLine
 10
1662.671766392803
 20
332.3245618225066
 30
0.0
 11
1663.871763392803
 21
333.0173868225065
 31
0.0
  0
LINE
  5
379A8
330
A
100
AcDbEntity
  8
Hawa1
 48
0.2
100
AcDbLine
 10
1662.671766392803
 20
332.3245688225065
 30
0.0
 11
1663.871763392803
 21
331.6317518225066
 31
0.0
  0
LINE
  5
379A9
330
A
100
AcDbEntity
  8
Hawa1
 48
0.2
100
AcDbLine
 10
1663.871766392803
 20
333.0173868225065
 30
0.0
 11
1663.871766392803
 21
331.6317518225066
 31
0.0
  0
LINE
  5
379AA
330
A
100
AcDbEntity
  8
Hawa1
 48
0.2
100
AcDbLine
 10
1681.871778392802
 20
335.8245618225065
 30
0.0
 11
1683.071775392803
 21
336.5173868225065
 31
0.0
  0
LINE
  5
379AB
330
A
100
AcDbEntity
  8
Hawa1
 48
0.2
100
AcDbLine
 10
1681.871778392802
 20
335.8245688225065
 30
0.0
 11
1683.071775392803
 21
335.1317518225065
 31
0.0
  0
LINE
  5
379AC
330
A
100
AcDbEntity
  8
Hawa1
 48
0.2
100
AcDbLine
 10
1683.071779392802
 20
336.5173868225065
 30
0.0
 11
1683.071779392802
 21
335.1317518225065
 31
0.0
  0
LINE
  5
379AD
330
A
100
AcDbEntity
  8
Hawa1
 48
0.2
100
AcDbLine
 10
1701.071790392802
 20
315.3245648225066
 30
0.0
 11
1702.271787392802
 21
316.0173828225065
 31
0.0
  0
LINE
  5
379AE
330
A
100
AcDbEntity
  8
Hawa1
 48
0.2
100
AcDbLine
 10
1701.071790392802
 20
315.3245688225065
 30
0.0
 11
1702.271787392802
 21
314.6317518225065
 31
0.0
  0
LINE
  5
379AF
330
A
100
AcDbEntity
  8
Hawa1
 48
0.2
100
AcDbLine
 10
1702.271791392802
 20
316.0173868225065
 30
0.0
 11
1702.271793392803
 21
314.6317478225066
 31
0.0
  0
LINE
  5
379B0
330
A
100
AcDbEntity
  8
Hawa1
 48
0.2
100
AcDbLine
 10
1662.671766392803
 20
315.3245648225066
 30
0.0
 11
1663.871763392803
 21
316.0173828225065
 31
0.0
  0
LINE
  5
379B1
330
A
100
AcDbEntity
  8
Hawa1
 48
0.2
100
AcDbLine
 10
1662.671766392803
 20
315.3245688225065
 30
0.0
 11
1663.871763392803
 21
314.6317518225065
 31
0.0
  0
LINE
  5
379B2
330
A
100
AcDbEntity
  8
Hawa1
 48
0.2
100
AcDbLine
 10
1663.871766392803
 20
316.0173868225065
 30
0.0
 11
1663.871766392803
 21
314.6317478225066
 31
0.0
  0
LINE
  5
379B3
330
A
100
AcDbEntity
  8
Hawa1
 48
0.2
100
AcDbLine
 10
1662.671766392803
 20
298.3245648225065
 30
0.0
 11
1663.871763392803
 21
299.0173828225065
 31
0.0
  0
LINE
  5
379B4
330
A
100
AcDbEntity
  8
Hawa1
 48
0.2
100
AcDbLine
 10
1662.671766392803
 20
298.3245688225066
 30
0.0
 11
1663.871763392803
 21
297.6317518225065
 31
0.0
  0
LINE
  5
379B5
330
A
100
AcDbEntity
  8
Hawa1
 48
0.2
100
AcDbLine
 10
1663.871766392803
 20
299.0173868225065
 30
0.0
 11
1663.871766392803
 21
297.6317478225066
 31
0.0
  0
LINE
  5
379B6
330
A
100
AcDbEntity
  8
Hawa1
 48
0.2
100
AcDbLine
 10
1681.871778392802
 20
301.8245648225065
 30
0.0
 11
1683.071775392803
 21
302.5173828225065
 31
0.0
  0
LINE
  5
379B7
330
A
100
AcDbEntity
  8
Hawa1
 48
0.2
100
AcDbLine
 10
1681.871778392802
 20
301.8245688225065
 30
0.0
 11
1683.071775392803
 21
301.1317518225065
 31
0.0
  0
LINE
  5
379B8
330
A
100
AcDbEntity
  8
Hawa1
 48
0.2
100
AcDbLine
 10
1683.071779392802
 20
302.5173868225065
 30
0.0
 11
1683.071779392802
 21
301.1317478225066
 31
0.0
  0
LINE
  5
379B9
330
A
100
AcDbEntity
  8
Hawa1
 48
0.2
100
AcDbLine
 10
1720.271801392803
 20
301.8245648225065
 30
0.0
 11
1721.471798392802
 21
302.5173828225065
 31
0.0
  0
LINE
  5
379BA
330
A
100
AcDbEntity
  8
Hawa1
 48
0.2
100
AcDbLine
 10
1720.271801392803
 20
301.8245688225065
 30
0.0
 11
1721.471799392802
 21
301.1317518225065
 31
0.0
  0
LINE
  5
379BB
330
A
100
AcDbEntity
  8
Hawa1
 48
0.2
100
AcDbLine
 10
1721.471804392803
 20
302.5173868225065
 30
0.0
 11
1721.471804392803
 21
301.1317478225066
 31
0.0
  0
LINE
  5
379BC
330
A
100
AcDbEntity
  8
Hawa1
 48
0.2
100
AcDbLine
 10
1739.471813392803
 20
281.3245648225065
 30
0.0
 11
1740.671809392802
 21
282.0173828225065
 31
0.0
  0
LINE
  5
379BD
330
A
100
AcDbEntity
  8
Hawa1
 48
0.2
100
AcDbLine
 10
1739.471813392803
 20
281.3245708225066
 30
0.0
 11
1740.671811392802
 21
280.6317518225066
 31
0.0
  0
LINE
  5
379BE
330
A
100
AcDbEntity
  8
Hawa1
 48
0.2
100
AcDbLine
 10
1740.671816392802
 20
282.0173868225065
 30
0.0
 11
1740.671817392802
 21
280.6317478225066
 31
0.0
  0
LINE
  5
379BF
330
A
100
AcDbEntity
  8
Hawa1
 48
0.2
100
AcDbLine
 10
1681.871778392802
 20
284.8245648225065
 30
0.0
 11
1683.071775392803
 21
285.5173828225066
 31
0.0
  0
LINE
  5
379C0
330
A
100
AcDbEntity
  8
Hawa1
 48
0.2
100
AcDbLine
 10
1681.871778392802
 20
284.8245708225065
 30
0.0
 11
1683.071775392803
 21
284.1317518225066
 31
0.0
  0
LINE
  5
379C1
330
A
100
AcDbEntity
  8
Hawa1
 48
0.2
100
AcDbLine
 10
1683.071779392802
 20
285.5173868225065
 30
0.0
 11
1683.071779392802
 21
284.1317478225065
 31
0.0
  0
LINE
  5
379C2
330
A
100
AcDbEntity
  8
Hawa1
 48
0.2
100
AcDbLine
 10
1662.671766392803
 20
281.3245648225065
 30
0.0
 11
1663.871763392803
 21
282.0173828225065
 31
0.0
  0
LINE
  5
379C3
330
A
100
AcDbEntity
  8
Hawa1
 48
0.2
100
AcDbLine
 10
1662.671766392803
 20
281.3245708225066
 30
0.0
 11
1663.871763392803
 21
280.6317518225066
 31
0.0
  0
LINE
  5
379C4
330
A
100
AcDbEntity
  8
Hawa1
 48
0.2
100
AcDbLine
 10
1663.871766392803
 20
282.0173868225065
 30
0.0
 11
1663.871766392803
 21
280.6317478225066
 31
0.0
  0
LINE
  5
379C5
330
A
100
AcDbEntity
  8
Hawa1
 48
0.2
100
AcDbLine
 10
1732.294944392802
 20
281.3245708225066
 30
0.0
 11
1731.094947392803
 21
280.6317538225065
 31
0.0
  0
LINE
  5
379C6
330
A
100
AcDbEntity
  8
Hawa1
 48
0.2
100
AcDbLine
 10
1732.294944392802
 20
281.3245648225065
 30
0.0
 11
1731.094946392802
 21
282.0173828225065
 31
0.0
  0
LINE
  5
379C7
330
A
100
AcDbEntity
  8
Hawa1
 48
0.2
100
AcDbLine
 10
1731.094941392802
 20
280.6317498225066
 30
0.0
 11
1731.094941392802
 21
282.0173868225065
 31
0.0
  0
LINE
  5
379C8
330
A
100
AcDbEntity
  8
Hawa1
 48
0.2
100
AcDbLine
 10
1751.494956392803
 20
284.8245708225065
 30
0.0
 11
1750.294959392802
 21
284.1317538225066
 31
0.0
  0
LINE
  5
379C9
330
A
100
AcDbEntity
  8
Hawa1
 48
0.2
100
AcDbLine
 10
1751.494956392803
 20
284.8245648225065
 30
0.0
 11
1750.294957392803
 21
285.5173828225066
 31
0.0
  0
LINE
  5
379CA
330
A
100
AcDbEntity
  8
Hawa1
 48
0.2
100
AcDbLine
 10
1750.294954392802
 20
284.1317498225066
 30
0.0
 11
1750.294954392802
 21
285.5173868225065
 31
0.0
  0
LINE
  5
379CB
330
A
100
AcDbEntity
  8
Hawa1
 48
0.2
100
AcDbLine
 10
1732.294944392802
 20
298.3245688225066
 30
0.0
 11
1731.094947392803
 21
297.6317518225065
 31
0.0
  0
LINE
  5
379CC
330
A
100
AcDbEntity
  8
Hawa1
 48
0.2
100
AcDbLine
 10
1732.294944392802
 20
298.3245648225065
 30
0.0
 11
1731.094946392802
 21
299.0173828225065
 31
0.0
  0
LINE
  5
379CD
330
A
100
AcDbEntity
  8
Hawa1
 48
0.2
100
AcDbLine
 10
1731.094941392802
 20
297.6317478225066
 30
0.0
 11
1731.094941392802
 21
299.0173868225065
 31
0.0
  0
LINE
  5
379CE
330
A
100
AcDbEntity
  8
Hawa1
 48
0.2
100
AcDbLine
 10
1713.094932392802
 20
318.8245688225066
 30
0.0
 11
1711.894935392803
 21
318.1317518225065
 31
0.0
  0
LINE
  5
379CF
330
A
100
AcDbEntity
  8
Hawa1
 48
0.2
100
AcDbLine
 10
1713.094932392802
 20
318.8245648225065
 30
0.0
 11
1711.894934392802
 21
319.5173828225065
 31
0.0
  0
LINE
  5
379D0
330
A
100
AcDbEntity
  8
Hawa1
 48
0.2
100
AcDbLine
 10
1711.894929392802
 20
318.1317478225066
 30
0.0
 11
1711.894929392802
 21
319.5173868225065
 31
0.0
  0
LINE
  5
379D1
330
A
100
AcDbEntity
  8
Hawa1
 48
0.2
100
AcDbLine
 10
1676.194906392802
 20
335.8245688225065
 30
0.0
 11
1674.994912392802
 21
335.1317518225065
 31
0.0
  0
LINE
  5
379D2
330
A
100
AcDbEntity
  8
Hawa1
 48
0.2
100
AcDbLine
 10
1676.194906392802
 20
335.8245618225065
 30
0.0
 11
1674.994909392802
 21
336.5173868225065
 31
0.0
  0
LINE
  5
379D3
330
A
100
AcDbEntity
  8
Hawa1
 48
0.2
100
AcDbLine
 10
1674.994905392803
 20
335.1317518225065
 30
0.0
 11
1674.994905392803
 21
336.5173868225065
 31
0.0
  0
LINE
  5
379D4
330
A
100
AcDbEntity
  8
Hawa1
 48
0.2
100
AcDbLine
 10
1674.694906392802
 20
349.3245688225065
 30
0.0
 11
1673.494912392802
 21
348.6317518225066
 31
0.0
  0
LINE
  5
379D5
330
A
100
AcDbEntity
  8
Hawa1
 48
0.2
100
AcDbLine
 10
1674.694906392802
 20
349.3245618225066
 30
0.0
 11
1673.494909392802
 21
350.0173868225065
 31
0.0
  0
LINE
  5
379D6
330
A
100
AcDbEntity
  8
Hawa1
 48
0.2
100
AcDbLine
 10
1673.494905392803
 20
348.6317518225066
 30
0.0
 11
1673.494905392803
 21
350.0173868225065
 31
0.0
  0
LINE
  5
379D7
330
A
100
AcDbEntity
  8
Hawa1
 48
0.2
100
AcDbLine
 10
1674.694906392802
 20
318.8245688225066
 30
0.0
 11
1673.494912392802
 21
318.1317518225065
 31
0.0
  0
LINE
  5
379D8
330
A
100
AcDbEntity
  8
Hawa1
 48
0.2
100
AcDbLine
 10
1674.694906392802
 20
318.8245648225065
 30
0.0
 11
1673.494909392802
 21
319.5173828225065
 31
0.0
  0
LINE
  5
379D9
330
A
100
AcDbEntity
  8
Hawa1
 48
0.2
100
AcDbLine
 10
1673.494905392803
 20
318.1317478225066
 30
0.0
 11
1673.494905392803
 21
319.5173868225065
 31
0.0
  0
LINE
  5
379DA
330
A
100
AcDbEntity
  8
Hawa1
 48
0.2
100
AcDbLine
 10
1676.194906392802
 20
301.8245688225065
 30
0.0
 11
1674.994912392802
 21
301.1317518225065
 31
0.0
  0
LINE
  5
379DB
330
A
100
AcDbEntity
  8
Hawa1
 48
0.2
100
AcDbLine
 10
1676.194906392802
 20
301.8245648225065
 30
0.0
 11
1674.994909392802
 21
302.5173828225065
 31
0.0
  0
LINE
  5
379DC
330
A
100
AcDbEntity
  8
Hawa1
 48
0.2
100
AcDbLine
 10
1674.994905392803
 20
301.1317478225066
 30
0.0
 11
1674.994905392803
 21
302.5173868225065
 31
0.0
  0
LINE
  5
379DD
330
A
100
AcDbEntity
  8
Hawa1
 48
0.2
100
AcDbLine
 10
1676.194906392802
 20
284.8245708225065
 30
0.0
 11
1674.994912392802
 21
284.1317538225066
 31
0.0
  0
LINE
  5
379DE
330
A
100
AcDbEntity
  8
Hawa1
 48
0.2
100
AcDbLine
 10
1676.194906392802
 20
284.8245648225065
 30
0.0
 11
1674.994909392802
 21
285.5173828225066
 31
0.0
  0
LINE
  5
379DF
330
A
100
AcDbEntity
  8
Hawa1
 48
0.2
100
AcDbLine
 10
1674.994905392803
 20
284.1317498225066
 30
0.0
 11
1674.994905392803
 21
285.5173868225065
 31
0.0
  0
LINE
  5
379E0
330
A
100
AcDbEntity
  8
Hawa6
 48
0.2
100
AcDbLine
 10
1748.250020392802
 20
365.1500698225065
 30
0.0
 11
1751.250020392802
 21
365.1500698225065
 31
0.0
  0
LINE
  5
379E1
330
A
100
AcDbEntity
  8
Hawa6
 48
0.2
100
AcDbLine
 10
1748.250020392802
 20
368.1500698225065
 30
0.0
 11
1748.250020392802
 21
365.1500698225065
 31
0.0
  0
LINE
  5
379E2
330
A
100
AcDbEntity
  8
Hawa6
 48
0.2
100
AcDbLine
 10
1748.250020392802
 20
368.1500698225065
 30
0.0
 11
1751.250020392802
 21
368.1500698225065
 31
0.0
  0
LINE
  5
379E3
330
A
100
AcDbEntity
  8
Hawa6
 48
0.2
100
AcDbLine
 10
1669.083329392802
 20
335.0745688225065
 30
0.0
 11
1670.583329392802
 21
335.0745688225065
 31
0.0
  0
LINE
  5
379E5
330
A
100
AcDbEntity
  8
Hawa6
 48
0.2
100
AcDbLine
 10
1669.083329392802
 20
336.5745688225065
 30
0.0
 11
1670.583329392802
 21
336.5745688225065
 31
0.0
  0
LINE
  5
379E6
330
A
100
AcDbEntity
  8
Hawa6
 48
0.2
100
AcDbLine
 10
1669.083329392802
 20
301.0745688225065
 30
0.0
 11
1670.583329392802
 21
301.0745688225065
 31
0.0
  0
LINE
  5
379E8
330
A
100
AcDbEntity
  8
Hawa6
 48
0.2
100
AcDbLine
 10
1669.083329392802
 20
302.5745688225065
 30
0.0
 11
1670.583329392802
 21
302.5745688225065
 31
0.0
  0
LINE
  5
379E9
330
A
100
AcDbEntity
  8
Hawa6
 48
0.2
100
AcDbLine
 10
1669.083329392802
 20
284.0745668225066
 30
0.0
 11
1670.583329392802
 21
284.0745668225066
 31
0.0
  0
LINE
  5
379EB
330
A
100
AcDbEntity
  8
Hawa6
 48
0.2
100
AcDbLine
 10
1669.083329392802
 20
285.5745668225065
 30
0.0
 11
1670.583329392802
 21
285.5745668225065
 31
0.0
  0
LINE
  5
379EC
330
A
100
AcDbEntity
  8
Hawa6
 48
0.2
100
AcDbLine
 10
1666.783342392802
 20
352.0745688225066
 30
0.0
 11
1668.283342392802
 21
352.0745688225066
 31
0.0
  0
LINE
  5
379ED
330
A
100
AcDbEntity
  8
Hawa6
 48
0.2
100
AcDbLine
 10
1666.783342392802
 20
353.5745688225065
 30
0.0
 11
1666.783342392802
 21
352.0745688225066
 31
0.0
  0
LINE
  5
379EE
330
A
100
AcDbEntity
  8
Hawa6
 48
0.2
100
AcDbLine
 10
1666.783342392802
 20
353.5745688225065
 30
0.0
 11
1668.283342392802
 21
353.5745688225065
 31
0.0
  0
LINE
  5
379EF
330
A
100
AcDbEntity
  8
Hawa1
  6
DASHDOT
 48
0.2
100
AcDbLine
 10
1666.783342392802
 20
352.8245688225065
 30
0.0
 11
1662.687516392803
 21
352.8245688225065
 31
0.0
  0
LINE
  5
379F0
330
A
100
AcDbEntity
  8
Hawa1
  6
DASHDOT
 48
0.2
100
AcDbLine
 10
1668.283342392802
 20
332.3245688225065
 30
0.0
 11
1664.187516392803
 21
332.3245688225065
 31
0.0
  0
LINE
  5
379F1
330
A
100
AcDbEntity
  8
Hawa1
  6
DASHDOT
 48
0.2
100
AcDbLine
 10
1687.483354392802
 20
335.8245688225065
 30
0.0
 11
1683.387529392803
 21
335.8245688225065
 31
0.0
  0
LINE
  5
379F2
330
A
100
AcDbEntity
  8
Hawa1
  6
DASHDOT
 48
0.2
100
AcDbLine
 10
1706.683366392802
 20
315.3245688225065
 30
0.0
 11
1702.587541392803
 21
315.3245688225065
 31
0.0
  0
LINE
  5
379F3
330
A
100
AcDbEntity
  8
Hawa1
  6
DASHDOT
 48
0.2
100
AcDbLine
 10
1668.283342392802
 20
315.3245688225065
 30
0.0
 11
1664.187516392803
 21
315.3245688225065
 31
0.0
  0
LINE
  5
379F4
330
A
100
AcDbEntity
  8
Hawa1
  6
DASHDOT
 48
0.2
100
AcDbLine
 10
1668.283342392802
 20
298.3245688225066
 30
0.0
 11
1664.187516392803
 21
298.3245688225066
 31
0.0
  0
LINE
  5
379F5
330
A
100
AcDbEntity
  8
Hawa1
  6
DASHDOT
 48
0.2
100
AcDbLine
 10
1687.483354392802
 20
301.8245688225065
 30
0.0
 11
1683.387529392803
 21
301.8245688225065
 31
0.0
  0
LINE
  5
379F6
330
A
100
AcDbEntity
  8
Hawa1
  6
DASHDOT
 48
0.2
100
AcDbLine
 10
1725.883379392803
 20
301.8245688225065
 30
0.0
 11
1721.787553392802
 21
301.8245688225065
 31
0.0
  0
LINE
  5
379F7
330
A
100
AcDbEntity
  8
Hawa1
  6
DASHDOT
 48
0.2
100
AcDbLine
 10
1745.083391392802
 20
281.3245668225065
 30
0.0
 11
1740.987565392802
 21
281.3245668225065
 31
0.0
  0
LINE
  5
379F8
330
A
100
AcDbEntity
  8
Hawa1
  6
DASHDOT
 48
0.2
100
AcDbLine
 10
1687.483354392802
 20
284.8245668225065
 30
0.0
 11
1683.387529392803
 21
284.8245668225065
 31
0.0
  0
LINE
  5
379F9
330
A
100
AcDbEntity
  8
Hawa1
  6
DASHDOT
 48
0.2
100
AcDbLine
 10
1668.283342392802
 20
281.3245668225065
 30
0.0
 11
1664.187516392803
 21
281.3245668225065
 31
0.0
  0
LINE
  5
379FA
330
A
100
AcDbEntity
  8
Hawa1
  6
DASHDOT
 48
0.2
100
AcDbLine
 10
1726.683366392802
 20
281.3245668225065
 30
0.0
 11
1730.779192392802
 21
281.3245668225065
 31
0.0
  0
LINE
  5
379FB
330
A
100
AcDbEntity
  8
Hawa1
  6
DASHDOT
 48
0.2
100
AcDbLine
 10
1745.883378392802
 20
284.8245668225065
 30
0.0
 11
1749.979204392802
 21
284.8245668225065
 31
0.0
  0
LINE
  5
379FC
330
A
100
AcDbEntity
  8
Hawa1
  6
DASHDOT
 48
0.2
100
AcDbLine
 10
1726.683366392802
 20
298.3245688225066
 30
0.0
 11
1730.779192392802
 21
298.3245688225066
 31
0.0
  0
LINE
  5
379FD
330
A
100
AcDbEntity
  8
Hawa1
  6
DASHDOT
 48
0.2
100
AcDbLine
 10
1707.483354392802
 20
318.8245688225066
 30
0.0
 11
1711.579179392802
 21
318.8245688225066
 31
0.0
  0
LINE
  5
379FE
330
A
100
AcDbEntity
  8
Hawa1
  6
DASHDOT
 48
0.2
100
AcDbLine
 10
1670.583329392802
 20
335.8245688225065
 30
0.0
 11
1674.679155392803
 21
335.8245688225065
 31
0.0
  0
LINE
  5
379FF
330
A
100
AcDbEntity
  8
Hawa1
  6
DASHDOT
 48
0.2
100
AcDbLine
 10
1669.083329392802
 20
349.3245688225065
 30
0.0
 11
1673.179155392802
 21
349.3245688225065
 31
0.0
  0
LINE
  5
37A00
330
A
100
AcDbEntity
  8
Hawa1
  6
DASHDOT
 48
0.2
100
AcDbLine
 10
1669.083329392802
 20
318.8245688225066
 30
0.0
 11
1673.179155392802
 21
318.8245688225066
 31
0.0
  0
LINE
  5
37A01
330
A
100
AcDbEntity
  8
Hawa1
  6
DASHDOT
 48
0.2
100
AcDbLine
 10
1670.583329392802
 20
301.8245688225065
 30
0.0
 11
1674.679155392803
 21
301.8245688225065
 31
0.0
  0
LINE
  5
37A02
330
A
100
AcDbEntity
  8
Hawa1
  6
DASHDOT
 48
0.2
100
AcDbLine
 10
1670.583329392802
 20
284.8245668225065
 30
0.0
 11
1674.679155392803
 21
284.8245668225065
 31
0.0
  0
LINE
  5
37A03
330
A
100
AcDbEntity
  8
Hawa6
 48
0.2
100
AcDbLine
 10
1651.783326392802
 20
319.4745478225065
 30
0.0
 11
1649.583337392802
 21
318.1745748225065
 31
0.0
  0
LINE
  5
37A04
330
A
100
AcDbEntity
  8
Hawa6
 48
0.2
100
AcDbLine
 10
1649.583253392802
 20
319.4745708225065
 30
0.0
 11
1651.783319392803
 21
318.1745518225065
 31
0.0
  0
LINE
  5
37A05
330
A
100
AcDbEntity
  8
Hawa6
 48
0.2
100
AcDbLine
 10
1651.783342392802
 20
318.1745748225065
 30
0.0
 11
1651.783342392802
 21
319.4745628225065
 31
0.0
  0
LINE
  5
37A06
330
A
100
AcDbEntity
  8
Hawa6
 48
0.2
100
AcDbLine
 10
1649.583329392802
 20
318.1745748225065
 30
0.0
 11
1651.783342392802
 21
318.1745748225065
 31
0.0
  0
LINE
  5
37A07
330
A
100
AcDbEntity
  8
Hawa6
 48
0.2
100
AcDbLine
 10
1649.583329392802
 20
319.4745628225065
 30
0.0
 11
1651.783342392802
 21
319.4745628225065
 31
0.0
  0
LINE
  5
37A08
330
A
100
AcDbEntity
  8
Hawa6
 48
0.2
100
AcDbLine
 10
1649.583329392802
 20
318.1745748225065
 30
0.0
 11
1649.583329392802
 21
319.4745628225065
 31
0.0
  0
LINE
  5
37A09
330
A
100
AcDbEntity
  8
Hawa6
 48
0.2
100
AcDbLine
 10
1651.783334392802
 20
314.6745558225065
 30
0.0
 11
1649.583322392802
 21
315.9745438225065
 31
0.0
  0
LINE
  5
37A0A
330
A
100
AcDbEntity
  8
Hawa6
 48
0.2
100
AcDbLine
 10
1649.583299392802
 20
314.6745638225065
 30
0.0
 11
1651.783334392802
 21
315.9745628225065
 31
0.0
  0
LINE
  5
37A0B
330
A
100
AcDbEntity
  8
Hawa6
 48
0.2
100
AcDbLine
 10
1651.783342392802
 20
315.9745628225065
 30
0.0
 11
1651.783342392802
 21
314.6745748225066
 31
0.0
  0
LINE
  5
37A0C
330
A
100
AcDbEntity
  8
Hawa6
 48
0.2
100
AcDbLine
 10
1649.583329392802
 20
315.9745628225065
 30
0.0
 11
1651.783342392802
 21
315.9745628225065
 31
0.0
  0
LINE
  5
37A0D
330
A
100
AcDbEntity
  8
Hawa6
 48
0.2
100
AcDbLine
 10
1649.583329392802
 20
314.6745748225066
 30
0.0
 11
1651.783342392802
 21
314.6745748225066
 31
0.0
  0
LINE
  5
37A0E
330
A
100
AcDbEntity
  8
Hawa6
 48
0.2
100
AcDbLine
 10
1649.583329392802
 20
315.9745628225065
 30
0.0
 11
1649.583329392802
 21
314.6745748225066
 31
0.0
  0
LINE
  5
37A0F
330
A
100
AcDbEntity
  8
Hawa6
 48
0.2
100
AcDbLine
 10
1651.783326392802
 20
302.4745478225066
 30
0.0
 11
1649.583337392802
 21
301.1745748225065
 31
0.0
  0
LINE
  5
37A10
330
A
100
AcDbEntity
  8
Hawa6
 48
0.2
100
AcDbLine
 10
1649.583253392802
 20
302.4745708225065
 30
0.0
 11
1651.783319392803
 21
301.1745518225065
 31
0.0
  0
LINE
  5
37A11
330
A
100
AcDbEntity
  8
Hawa6
 48
0.2
100
AcDbLine
 10
1651.783342392802
 20
301.1745748225065
 30
0.0
 11
1651.783342392802
 21
302.4745628225065
 31
0.0
  0
LINE
  5
37A12
330
A
100
AcDbEntity
  8
Hawa6
 48
0.2
100
AcDbLine
 10
1649.583329392802
 20
301.1745748225065
 30
0.0
 11
1651.783342392802
 21
301.1745748225065
 31
0.0
  0
LINE
  5
37A13
330
A
100
AcDbEntity
  8
Hawa6
 48
0.2
100
AcDbLine
 10
1649.583329392802
 20
302.4745628225065
 30
0.0
 11
1651.783342392802
 21
302.4745628225065
 31
0.0
  0
LINE
  5
37A14
330
A
100
AcDbEntity
  8
Hawa6
 48
0.2
100
AcDbLine
 10
1649.583329392802
 20
301.1745748225065
 30
0.0
 11
1649.583329392802
 21
302.4745628225065
 31
0.0
  0
LINE
  5
37A15
330
A
100
AcDbEntity
  8
Hawa6
 48
0.2
100
AcDbLine
 10
1651.783334392802
 20
297.6745598225065
 30
0.0
 11
1649.583322392802
 21
298.9745438225065
 31
0.0
  0
LINE
  5
37A16
330
A
100
AcDbEntity
  8
Hawa6
 48
0.2
100
AcDbLine
 10
1649.583299392802
 20
297.6745638225065
 30
0.0
 11
1651.783334392802
 21
298.9745668225065
 31
0.0
  0
LINE
  5
37A17
330
A
100
AcDbEntity
  8
Hawa6
 48
0.2
100
AcDbLine
 10
1651.783342392802
 20
298.9745628225065
 30
0.0
 11
1651.783342392802
 21
297.6745748225066
 31
0.0
  0
LINE
  5
37A18
330
A
100
AcDbEntity
  8
Hawa6
 48
0.2
100
AcDbLine
 10
1649.583329392802
 20
298.9745628225065
 30
0.0
 11
1651.783342392802
 21
298.9745628225065
 31
0.0
  0
LINE
  5
37A19
330
A
100
AcDbEntity
  8
Hawa6
 48
0.2
100
AcDbLine
 10
1649.583329392802
 20
297.6745748225066
 30
0.0
 11
1651.783342392802
 21
297.6745748225066
 31
0.0
  0
LINE
  5
37A1A
330
A
100
AcDbEntity
  8
Hawa6
 48
0.2
100
AcDbLine
 10
1649.583329392802
 20
298.9745628225065
 30
0.0
 11
1649.583329392802
 21
297.6745748225066
 31
0.0
  0
LINE
  5
37A1B
330
A
100
AcDbEntity
  8
Hawa6
 48
0.2
100
AcDbLine
 10
1651.783326392802
 20
285.4745478225066
 30
0.0
 11
1649.583337392802
 21
284.1745748225065
 31
0.0
  0
LINE
  5
37A1C
330
A
100
AcDbEntity
  8
Hawa6
 48
0.2
100
AcDbLine
 10
1649.583253392802
 20
285.4745728225065
 30
0.0
 11
1651.783319392803
 21
284.1745538225065
 31
0.0
  0
LINE
  5
37A1D
330
A
100
AcDbEntity
  8
Hawa6
 48
0.2
100
AcDbLine
 10
1651.783342392802
 20
284.1745728225065
 30
0.0
 11
1651.783342392802
 21
285.4745608225065
 31
0.0
  0
LINE
  5
37A1E
330
A
100
AcDbEntity
  8
Hawa6
 48
0.2
100
AcDbLine
 10
1649.583329392802
 20
284.1745728225065
 30
0.0
 11
1651.783342392802
 21
284.1745728225065
 31
0.0
  0
LINE
  5
37A1F
330
A
100
AcDbEntity
  8
Hawa6
 48
0.2
100
AcDbLine
 10
1649.583329392802
 20
285.4745608225065
 30
0.0
 11
1651.783342392802
 21
285.4745608225065
 31
0.0
  0
LINE
  5
37A20
330
A
100
AcDbEntity
  8
Hawa6
 48
0.2
100
AcDbLine
 10
1649.583329392802
 20
284.1745728225065
 30
0.0
 11
1649.583329392802
 21
285.4745608225065
 31
0.0
  0
LINE
  5
37A21
330
A
100
AcDbEntity
  8
Hawa6
 48
0.2
100
AcDbLine
 10
1651.783334392802
 20
280.6745598225065
 30
0.0
 11
1649.583322392802
 21
281.9745458225065
 31
0.0
  0
LINE
  5
37A22
330
A
100
AcDbEntity
  8
Hawa6
 48
0.2
100
AcDbLine
 10
1649.583299392802
 20
280.6745638225065
 30
0.0
 11
1651.783334392802
 21
281.9745668225065
 31
0.0
  0
LINE
  5
37A23
330
A
100
AcDbEntity
  8
Hawa6
 48
0.2
100
AcDbLine
 10
1651.783342392802
 20
281.9745608225066
 30
0.0
 11
1651.783342392802
 21
280.6745728225065
 31
0.0
  0
LINE
  5
37A24
330
A
100
AcDbEntity
  8
Hawa6
 48
0.2
100
AcDbLine
 10
1649.583329392802
 20
281.9745608225066
 30
0.0
 11
1651.783342392802
 21
281.9745608225066
 31
0.0
  0
LINE
  5
37A25
330
A
100
AcDbEntity
  8
Hawa6
 48
0.2
100
AcDbLine
 10
1649.583329392802
 20
280.6745728225065
 30
0.0
 11
1651.783342392802
 21
280.6745728225065
 31
0.0
  0
LINE
  5
37A26
330
A
100
AcDbEntity
  8
Hawa6
 48
0.2
100
AcDbLine
 10
1649.583329392802
 20
281.9745608225066
 30
0.0
 11
1649.583329392802
 21
280.6745728225065
 31
0.0
  0
LINE
  5
37A27
330
A
100
AcDbEntity
  8
Hawa1
 48
0.2
100
AcDbLine
 10
1725.491688392802
 20
285.4927038225065
 30
0.0
 11
1723.522386392803
 21
282.0817728225065
 31
0.0
  0
LINE
  5
37A28
330
A
100
AcDbEntity
  8
Hawa1
 48
0.2
100
AcDbLine
 10
1725.491688392802
 20
285.4927038225065
 30
0.0
 11
1727.460991392802
 21
282.0817728225065
 31
0.0
  0
LINE
  5
37A29
330
A
100
AcDbEntity
  8
Hawa1
 48
0.2
100
AcDbLine
 10
1723.522386392803
 20
282.0817728225065
 30
0.0
 11
1727.460991392802
 21
282.0817728225065
 31
0.0
  0
LINE
  5
37A2A
330
A
100
AcDbEntity
  8
Hawa5
100
AcDbLine
 10
1655.397523392803
 20
209.6300688225065
 30
0.0
 11
1638.432596392803
 21
209.6300688225065
 31
0.0
  0
LINE
  5
37A2B
330
A
100
AcDbEntity
  8
Hawa5
100
AcDbLine
 10
1655.749040392802
 20
208.6300688225065
 30
0.0
 11
1638.432596392803
 21
208.6300688225065
 31
0.0
  0
LINE
  5
37A2C
330
A
100
AcDbEntity
  8
Hawa6
 48
0.2
100
AcDbLine
 10
1676.050412392802
 20
190.4845958225065
 30
0.0
 11
1676.050412392802
 21
190.7754588225065
 31
0.0
  0
LINE
  5
37A2D
330
A
100
AcDbEntity
  8
Hawa6
 48
0.2
100
AcDbLine
 10
1694.050412392802
 20
190.4845958225065
 30
0.0
 11
1694.050412392802
 21
190.7754588225065
 31
0.0
  0
LINE
  5
37A2E
330
A
100
AcDbEntity
  8
Hawa1
 48
0.2
100
AcDbLine
 10
1804.043458392803
 20
195.8338918225065
 30
0.0
 11
1804.043458392803
 21
194.0008498225065
 31
0.0
  0
LINE
  5
37A2F
330
A
100
AcDbEntity
  8
Hawa1
 48
0.2
100
AcDbLine
 10
1801.397439392802
 20
192.3760068225065
 30
0.0
 11
1804.043458392803
 21
188.9183268225065
 31
0.0
  0
LINE
  5
37A30
330
A
100
AcDbEntity
  8
Hawa1
 48
0.2
100
AcDbLine
 10
1801.397439392802
 20
192.3760068225065
 30
0.0
 11
1804.043458392803
 21
195.8338918225065
 31
0.0
  0
LINE
  5
37A31
330
A
100
AcDbEntity
  8
Hawa1
 48
0.2
100
AcDbLine
 10
1808.342416392802
 20
194.1172098225065
 30
0.0
 11
1804.043412392802
 21
194.0008458225065
 31
0.0
  0
LINE
  5
37A32
330
A
100
AcDbEntity
  8
Hawa1
 48
0.2
100
AcDbLine
 10
1804.043458392803
 20
188.9183268225065
 30
0.0
 11
1804.043458392803
 21
190.7513728225065
 31
0.0
  0
LINE
  5
37A33
330
A
100
AcDbEntity
  8
Hawa1
 48
0.2
100
AcDbLine
 10
1808.342416392802
 20
190.6350168225065
 30
0.0
 11
1804.043412392802
 21
190.7513808225065
 31
0.0
  0
LINE
  5
37A34
330
A
100
AcDbEntity
  8
Hawa1
 48
0.2
100
AcDbLine
 10
1741.140786392803
 20
215.6903298225066
 30
0.0
 11
1741.140786392803
 21
217.5233758225065
 31
0.0
  0
LINE
  5
37A35
330
A
100
AcDbEntity
  8
Hawa1
 48
0.2
100
AcDbLine
 10
1738.494773392802
 20
219.1480138225065
 30
0.0
 11
1741.140786392803
 21
222.6058918225065
 31
0.0
  0
LINE
  5
37A36
330
A
100
AcDbEntity
  8
Hawa1
 48
0.2
100
AcDbLine
 10
1741.140786392803
 20
222.6058918225065
 30
0.0
 11
1741.140786392803
 21
220.7728498225066
 31
0.0
  0
LINE
  5
37A37
330
A
100
AcDbEntity
  8
Hawa1
 48
0.2
100
AcDbLine
 10
1738.494773392802
 20
219.1480138225065
 30
0.0
 11
1741.140786392803
 21
215.6903298225066
 31
0.0
  0
LINE
  5
37A38
330
A
100
AcDbEntity
  8
Hawa1
 48
0.2
100
AcDbLine
 10
1745.439746392802
 20
220.8892088225065
 30
0.0
 11
1741.140742392802
 21
220.7728498225066
 31
0.0
  0
LINE
  5
37A39
330
A
100
AcDbEntity
  8
Hawa1
 48
0.2
100
AcDbLine
 10
1745.439746392802
 20
217.4070158225065
 30
0.0
 11
1741.140742392802
 21
217.5233798225065
 31
0.0
  0
LINE
  5
37A3A
330
A
100
AcDbEntity
  8
Hawa1
 48
0.2
100
AcDbLine
 10
1712.960049392802
 20
215.6903298225066
 30
0.0
 11
1712.960049392802
 21
217.5233758225065
 31
0.0
  0
LINE
  5
37A3B
330
A
100
AcDbEntity
  8
Hawa1
 48
0.2
100
AcDbLine
 10
1715.606062392803
 20
219.1480138225065
 30
0.0
 11
1712.960049392802
 21
215.6903298225066
 31
0.0
  0
LINE
  5
37A3C
330
A
100
AcDbEntity
  8
Hawa1
 48
0.2
100
AcDbLine
 10
1712.960049392802
 20
222.6058918225065
 30
0.0
 11
1712.960049392802
 21
220.7728498225066
 31
0.0
  0
LINE
  5
37A3D
330
A
100
AcDbEntity
  8
Hawa1
 48
0.2
100
AcDbLine
 10
1715.606062392803
 20
219.1480138225065
 30
0.0
 11
1712.960049392802
 21
222.6058918225065
 31
0.0
  0
LINE
  5
37A3E
330
A
100
AcDbEntity
  8
Hawa1
 48
0.2
100
AcDbLine
 10
1708.661088392803
 20
217.4070158225065
 30
0.0
 11
1712.960094392802
 21
217.5233798225065
 31
0.0
  0
LINE
  5
37A3F
330
A
100
AcDbEntity
  8
Hawa1
 48
0.2
100
AcDbLine
 10
1708.661088392803
 20
220.8892088225065
 30
0.0
 11
1712.960094392802
 21
220.7728498225066
 31
0.0
  0
LINE
  5
37A40
330
A
100
AcDbEntity
  8
Hawa6
  6
DASHED
 48
0.2
100
AcDbLine
 10
1686.050416392802
 20
223.1300688225065
 30
0.0
 11
1686.050416392802
 21
213.1300688225065
 31
0.0
  0
LINE
  5
37A41
330
A
100
AcDbEntity
  8
Hawa6
  6
DASHED
 48
0.2
100
AcDbLine
 10
1686.050416392802
 20
213.1300688225065
 30
0.0
 11
1694.050418392803
 21
213.1300688225065
 31
0.0
  0
LINE
  5
37A42
330
A
100
AcDbEntity
  8
Hawa6
  6
DASHED
 48
0.2
100
AcDbLine
 10
1686.050416392802
 20
223.1300688225065
 30
0.0
 11
1694.050418392803
 21
223.1300688225065
 31
0.0
  0
LINE
  5
37A43
330
A
100
AcDbEntity
  8
Hawa6
 48
0.2
100
AcDbLine
 10
1694.050418392803
 20
211.1300688225065
 30
0.0
 11
1701.050418392803
 21
211.1300688225065
 31
0.0
  0
LINE
  5
37A44
330
A
100
AcDbEntity
  8
Hawa6
 48
0.2
100
AcDbLine
 10
1694.050418392803
 20
225.1300688225065
 30
0.0
 11
1701.050418392803
 21
225.1300688225065
 31
0.0
  0
LINE
  5
37A45
330
A
100
AcDbEntity
  8
Hawa6
 48
0.2
100
AcDbLine
 10
1703.050418392803
 20
223.1300688225065
 30
0.0
 11
1703.050418392803
 21
213.1300688225065
 31
0.0
  0
LINE
  5
37A46
330
A
100
AcDbEntity
  8
Hawa5
100
AcDbLine
 10
1691.583329392803
 20
345.0745688225065
 30
0.0
 11
1689.083329392802
 21
345.0745688225065
 31
0.0
  0
LINE
  5
37A47
330
A
100
AcDbEntity
  8
Hawa5
100
AcDbLine
 10
1710.783342392802
 20
328.0745688225065
 30
0.0
 11
1708.283342392802
 21
328.0745688225065
 31
0.0
  0
LINE
  5
37A48
330
A
100
AcDbEntity
  8
Hawa5
100
AcDbLine
 10
1729.983293392803
 20
311.0745688225065
 30
0.0
 11
1727.483293392802
 21
311.0745688225065
 31
0.0
  0
LINE
  5
37A49
330
A
100
AcDbEntity
  8
Hawa5
100
AcDbLine
 10
1749.183366392802
 20
294.0745688225065
 30
0.0
 11
1746.683366392802
 21
294.0745688225065
 31
0.0
  0
LINE
  5
37A4A
330
A
100
AcDbEntity
  8
Hawa5
100
AcDbLine
 10
1768.383439392803
 20
277.0745668225065
 30
0.0
 11
1765.883439392802
 21
277.0745668225065
 31
0.0
  0
LINE
  5
37A4B
330
A
100
AcDbEntity
  8
Hawa5
100
AcDbLine
 10
1645.783342392802
 20
277.0745668225065
 30
0.0
 11
1648.283342392802
 21
277.0745668225065
 31
0.0
  0
LINE
  5
37A4C
330
A
100
AcDbEntity
  8
Hawa5
100
AcDbLine
 10
1645.783342392802
 20
294.0745688225065
 30
0.0
 11
1648.283342392802
 21
294.0745688225065
 31
0.0
  0
LINE
  5
37A4D
330
A
100
AcDbEntity
  8
Hawa5
100
AcDbLine
 10
1645.783342392802
 20
311.0745688225065
 30
0.0
 11
1648.283342392802
 21
311.0745688225065
 31
0.0
  0
LINE
  5
37A4E
330
A
100
AcDbEntity
  8
Hawa5
100
AcDbLine
 10
1645.783342392802
 20
328.0745688225065
 30
0.0
 11
1648.283342392802
 21
328.0745688225065
 31
0.0
  0
LINE
  5
37A4F
330
A
100
AcDbEntity
  8
Hawa5
100
AcDbLine
 10
1645.783342392802
 20
345.0745688225065
 30
0.0
 11
1648.283342392802
 21
345.0745688225065
 31
0.0
  0
LINE
  5
37A50
330
A
100
AcDbEntity
  8
Hawa5
100
AcDbLine
 10
1768.383439392803
 20
277.0745668225065
 30
0.0
 11
1768.383439392803
 21
289.0745668225065
 31
0.0
  0
LINE
  5
37A51
330
A
100
AcDbEntity
  8
Hawa5
100
AcDbLine
 10
1749.183366392802
 20
294.0745688225065
 30
0.0
 11
1749.183366392802
 21
306.0745688225065
 31
0.0
  0
LINE
  5
37A52
330
A
100
AcDbEntity
  8
Hawa5
100
AcDbLine
 10
1729.983293392803
 20
311.0745688225065
 30
0.0
 11
1729.983293392803
 21
323.0745688225066
 31
0.0
  0
LINE
  5
37A53
330
A
100
AcDbEntity
  8
Hawa5
100
AcDbLine
 10
1710.783342392802
 20
328.0745688225065
 30
0.0
 11
1710.783342392802
 21
340.0745688225065
 31
0.0
  0
LINE
  5
37A54
330
A
100
AcDbEntity
  8
Hawa5
100
AcDbLine
 10
1691.583329392803
 20
357.0745688225065
 30
0.0
 11
1691.583329392803
 21
345.0745688225065
 31
0.0
  0
LINE
  5
37A55
330
A
100
AcDbEntity
  8
Hawa5
100
AcDbLine
 10
1645.783342392802
 20
277.0745668225065
 30
0.0
 11
1645.783342392802
 21
289.0745668225065
 31
0.0
  0
LINE
  5
37A56
330
A
100
AcDbEntity
  8
Hawa5
100
AcDbLine
 10
1645.783342392802
 20
294.0745688225065
 30
0.0
 11
1645.783342392802
 21
306.0745688225065
 31
0.0
  0
LINE
  5
37A57
330
A
100
AcDbEntity
  8
Hawa5
100
AcDbLine
 10
1645.783342392802
 20
311.0745688225065
 30
0.0
 11
1645.783342392802
 21
323.0745688225066
 31
0.0
  0
LINE
  5
37A58
330
A
100
AcDbEntity
  8
Hawa5
100
AcDbLine
 10
1645.783342392802
 20
328.0745688225065
 30
0.0
 11
1645.783342392802
 21
340.0745688225065
 31
0.0
  0
LINE
  5
37A59
330
A
100
AcDbEntity
  8
Hawa5
100
AcDbLine
 10
1645.783342392802
 20
357.0745688225065
 30
0.0
 11
1645.783342392802
 21
345.0745688225065
 31
0.0
  0
LINE
  5
37A5A
330
A
100
AcDbEntity
  8
Hawa5
  6
PHANTOM
100
AcDbLine
 10
1722.050418392802
 20
206.6300688225065
 30
0.0
 11
1722.050418392802
 21
177.6300648225065
 31
0.0
  0
LINE
  5
37A5B
330
A
100
AcDbEntity
  8
Hawa5
100
AcDbLine
 10
1689.050416392802
 20
209.6300688225065
 30
0.0
 11
1658.608728392803
 21
209.6300688225065
 31
0.0
  0
LINE
  5
37A5C
330
A
100
AcDbEntity
  8
Hawa5
100
AcDbLine
 10
1689.050416392802
 20
226.6300668225065
 30
0.0
 11
1638.432596392803
 21
226.6300668225065
 31
0.0
  0
LINE
  5
37A5D
330
A
100
AcDbEntity
  8
Hawa5
100
AcDbLine
 10
1722.050418392802
 20
200.6300688225065
 30
0.0
 11
1672.050416392802
 21
200.6300688225065
 31
0.0
  0
LINE
  5
37A5E
330
A
100
AcDbEntity
  8
Hawa5
100
AcDbLine
 10
1689.050416392802
 20
227.6300668225065
 30
0.0
 11
1689.050416392802
 21
208.6300688225065
 31
0.0
  0
LINE
  5
37A5F
330
A
100
AcDbEntity
  8
Hawa6
 48
0.2
100
AcDbLine
 10
1698.518943392803
 20
203.6615748225065
 30
0.0
 11
1695.638940392802
 21
206.5415758225065
 31
0.0
  0
LINE
  5
37A60
330
A
100
AcDbEntity
  8
Hawa5
100
AcDbLine
 10
1694.050418392803
 20
208.6300688225065
 30
0.0
 11
1658.549913392803
 21
208.6300688225065
 31
0.0
  0
LINE
  5
37A61
330
A
100
AcDbEntity
  8
Hawa5
100
AcDbLine
 10
1694.050418392803
 20
227.6300668225065
 30
0.0
 11
1694.050418392803
 21
208.6300688225065
 31
0.0
  0
LINE
  5
37A62
330
A
100
AcDbEntity
  8
Hawa5
100
AcDbLine
 10
1722.050418392802
 20
201.6300688225065
 30
0.0
 11
1667.050416392802
 21
201.6300688225065
 31
0.0
  0
LINE
  5
37A63
330
A
100
AcDbEntity
  8
Hawa5
100
AcDbLine
 10
1722.050418392802
 20
182.6300648225064
 30
0.0
 11
1667.050416392802
 21
182.6300648225064
 31
0.0
  0
LINE
  5
37A64
330
A
100
AcDbEntity
  8
Hawa5
100
AcDbLine
 10
1672.050416392802
 20
201.6300688225065
 30
0.0
 11
1672.050416392802
 21
182.6300648225064
 31
0.0
  0
LINE
  5
37A65
330
A
100
AcDbEntity
  8
Hawa5
  6
DASHED
 48
0.2
100
AcDbLine
 10
1694.050418392803
 20
221.8300818225065
 30
0.0
 11
1644.050416392802
 21
221.8300818225065
 31
0.0
  0
LINE
  5
37A66
330
A
100
AcDbEntity
  8
Hawa5
  6
DASHED
 48
0.2
100
AcDbLine
 10
1694.050418392803
 20
217.4300568225065
 30
0.0
 11
1644.050416392802
 21
217.4300568225065
 31
0.0
  0
LINE
  5
37A67
330
A
100
AcDbEntity
  8
Hawa5
  6
DASHED
 48
0.2
100
AcDbLine
 10
1717.050418392803
 20
192.8300778225065
 30
0.0
 11
1667.050416392802
 21
192.8300778225065
 31
0.0
  0
LINE
  5
37A68
330
A
100
AcDbEntity
  8
Hawa5
  6
DASHED
 48
0.2
100
AcDbLine
 10
1717.050418392803
 20
188.4300528225065
 30
0.0
 11
1667.050416392802
 21
188.4300528225065
 31
0.0
  0
LINE
  5
37A69
330
A
100
AcDbEntity
  8
Hawa5
  6
DASHED
 48
0.2
100
AcDbLine
 10
1694.050418392803
 20
222.6300688225065
 30
0.0
 11
1644.050416392802
 21
222.6300688225065
 31
0.0
  0
LINE
  5
37A6A
330
A
100
AcDbEntity
  8
Hawa5
  6
DASHED
 48
0.2
100
AcDbLine
 10
1717.050418392803
 20
187.6300648225065
 30
0.0
 11
1667.050416392802
 21
187.6300648225065
 31
0.0
  0
LINE
  5
37A6B
330
A
100
AcDbEntity
  8
Hawa5
  6
DASHED
 48
0.2
100
AcDbLine
 10
1717.050418392803
 20
193.6300688225065
 30
0.0
 11
1667.050416392802
 21
193.6300688225065
 31
0.0
  0
LINE
  5
37A6C
330
A
100
AcDbEntity
  8
Hawa5
  6
DASHED
 48
0.2
100
AcDbLine
 10
1694.050418392803
 20
216.6300688225065
 30
0.0
 11
1644.050416392802
 21
216.6300688225065
 31
0.0
  0
LINE
  5
37A6D
330
A
100
AcDbEntity
  8
Hawa5
100
AcDbLine
 10
1722.050418392802
 20
183.6300648225065
 30
0.0
 11
1672.050416392802
 21
183.6300648225065
 31
0.0
  0
LINE
  5
37A6E
330
A
100
AcDbEntity
  8
Hawa6
 48
0.2
100
AcDbLine
 10
1695.549337392802
 20
203.6290128225065
 30
0.0
 11
1698.605531392803
 21
206.6852068225065
 31
0.0
  0
LINE
  5
37A6F
330
A
100
AcDbEntity
  8
Hawa6
  6
DASHDOT
 48
0.2
100
AcDbLine
 10
1691.617414392802
 20
205.1300848225066
 30
0.0
 11
1701.903058392803
 21
205.1300848225066
 31
0.0
  0
LINE
  5
37A70
330
A
100
AcDbEntity
  8
Hawa6
  6
DASHDOT
 48
0.2
100
AcDbLine
 10
1697.050399392803
 20
199.0557128225065
 30
0.0
 11
1697.050397392802
 21
210.9240908225065
 31
0.0
  0
LINE
  5
37A71
330
A
100
AcDbEntity
  8
Hawa6
 48
0.2
100
AcDbLine
 10
1676.050393392802
 20
219.7754968225065
 30
0.0
 11
1676.050393392802
 21
219.4846338225065
 31
0.0
  0
LINE
  5
37A73
330
A
100
AcDbEntity
  8
Hawa6
  6
DASHDOT
 48
0.2
100
AcDbLine
 10
1678.483442392802
 20
205.1300808225065
 30
0.0
 11
1668.197797392803
 21
205.1300768225065
 31
0.0
  0
LINE
  5
37A74
330
A
100
AcDbEntity
  8
Hawa6
  6
DASHDOT
 48
0.2
100
AcDbLine
 10
1673.050397392803
 20
211.2044218225065
 30
0.0
 11
1673.050401392802
 21
199.3360438225065
 31
0.0
  0
LINE
  5
37A75
330
A
100
AcDbEntity
  8
Hawa5
  6
PHANTOM
100
AcDbLine
 10
1638.432596392803
 20
232.6300668225065
 30
0.0
 11
1638.432596392803
 21
203.6300688225065
 31
0.0
  0
LINE
  5
37A77
330
A
100
AcDbEntity
  8
Hawa6
 48
0.2
100
AcDbLine
 10
1674.518945392803
 20
203.6615978225065
 30
0.0
 11
1671.638944392802
 21
206.5415988225066
 31
0.0
  0
LINE
  5
37A78
330
A
100
AcDbEntity
  8
Hawa5
100
AcDbLine
 10
1694.050418392803
 20
227.6300668225065
 30
0.0
 11
1638.432596392803
 21
227.6300668225065
 31
0.0
  0
LINE
  5
37A79
330
A
100
AcDbEntity
  8
Hawa5
  6
PHANTOM
100
AcDbLine
 10
1815.668245392803
 20
232.6300668225065
 30
0.0
 11
1815.668245392803
 21
203.6300688225065
 31
0.0
  0
LINE
  5
37A7A
330
A
100
AcDbEntity
  8
Hawa5
  6
PHANTOM
100
AcDbLine
 10
1732.050418392802
 20
206.6300688225065
 30
0.0
 11
1732.050418392802
 21
177.6300648225065
 31
0.0
  0
LINE
  5
37A7B
330
A
100
AcDbEntity
  8
Hawa5
100
AcDbLine
 10
1765.050416392802
 20
209.6300688225065
 30
0.0
 11
1815.668245392803
 21
209.6300688225065
 31
0.0
  0
LINE
  5
37A7C
330
A
100
AcDbEntity
  8
Hawa5
100
AcDbLine
 10
1765.050416392802
 20
226.6300668225065
 30
0.0
 11
1815.668245392803
 21
226.6300668225065
 31
0.0
  0
LINE
  5
37A7D
330
A
100
AcDbEntity
  8
Hawa5
100
AcDbLine
 10
1732.050418392802
 20
200.6300688225065
 30
0.0
 11
1782.050416392802
 21
200.6300688225065
 31
0.0
  0
LINE
  5
37A7E
330
A
100
AcDbEntity
  8
Hawa5
100
AcDbLine
 10
1765.050416392802
 20
227.6300668225065
 30
0.0
 11
1765.050416392802
 21
208.6300688225065
 31
0.0
  0
LINE
  5
37A7F
330
A
100
AcDbEntity
  8
Hawa6
 48
0.2
100
AcDbLine
 10
1671.549299392802
 20
203.6290128225065
 30
0.0
 11
1674.605497392802
 21
206.6852068225065
 31
0.0
  0
LINE
  5
37A80
330
A
100
AcDbEntity
  8
Hawa6
 48
0.2
100
AcDbLine
 10
1765.081891392803
 20
235.3076928225065
 30
0.0
 11
1767.961892392802
 21
232.4276918225065
 31
0.0
  0
LINE
  5
37A81
330
A
100
AcDbEntity
  8
Hawa5
100
AcDbLine
 10
1760.050416392802
 20
208.6300688225065
 30
0.0
 11
1815.668245392803
 21
208.6300688225065
 31
0.0
  0
LINE
  5
37A82
330
A
100
AcDbEntity
  8
Hawa5
100
AcDbLine
 10
1760.050416392802
 20
227.6300668225065
 30
0.0
 11
1760.050416392802
 21
208.6300688225065
 31
0.0
  0
LINE
  5
37A83
330
A
100
AcDbEntity
  8
Hawa5
100
AcDbLine
 10
1732.050418392802
 20
201.6300688225065
 30
0.0
 11
1787.050416392802
 21
201.6300688225065
 31
0.0
  0
LINE
  5
37A84
330
A
100
AcDbEntity
  8
Hawa5
100
AcDbLine
 10
1732.050418392802
 20
182.6300648225064
 30
0.0
 11
1787.050416392802
 21
182.6300648225064
 31
0.0
  0
LINE
  5
37A85
330
A
100
AcDbEntity
  8
Hawa5
100
AcDbLine
 10
1782.050416392802
 20
201.6300688225065
 30
0.0
 11
1782.050416392802
 21
182.6300648225064
 31
0.0
  0
LINE
  5
37A86
330
A
100
AcDbEntity
  8
Hawa5
100
AcDbLine
 10
1667.050416392802
 20
201.6300688225065
 30
0.0
 11
1667.050416392802
 21
182.6300648225064
 31
0.0
  0
LINE
  5
37A87
330
A
100
AcDbEntity
  8
Hawa5
  6
DASHED
 48
0.2
100
AcDbLine
 10
1760.050416392802
 20
221.8300818225065
 30
0.0
 11
1810.050416392802
 21
221.8300818225065
 31
0.0
  0
LINE
  5
37A88
330
A
100
AcDbEntity
  8
Hawa5
  6
DASHED
 48
0.2
100
AcDbLine
 10
1760.050416392802
 20
217.4300568225065
 30
0.0
 11
1810.050416392802
 21
217.4300568225065
 31
0.0
  0
LINE
  5
37A89
330
A
100
AcDbEntity
  8
Hawa5
  6
DASHED
 48
0.2
100
AcDbLine
 10
1737.050418392803
 20
192.8300778225065
 30
0.0
 11
1787.050416392802
 21
192.8300778225065
 31
0.0
  0
LINE
  5
37A8A
330
A
100
AcDbEntity
  8
Hawa5
  6
DASHED
 48
0.2
100
AcDbLine
 10
1737.050418392803
 20
188.4300528225065
 30
0.0
 11
1787.050416392802
 21
188.4300528225065
 31
0.0
  0
LINE
  5
37A8B
330
A
100
AcDbEntity
  8
Hawa5
  6
DASHED
 48
0.2
100
AcDbLine
 10
1760.050416392802
 20
222.6300688225065
 30
0.0
 11
1810.050416392802
 21
222.6300688225065
 31
0.0
  0
LINE
  5
37A8C
330
A
100
AcDbEntity
  8
Hawa5
  6
DASHED
 48
0.2
100
AcDbLine
 10
1737.050418392803
 20
187.6300648225065
 30
0.0
 11
1787.050416392802
 21
187.6300648225065
 31
0.0
  0
LINE
  5
37A8D
330
A
100
AcDbEntity
  8
Hawa5
  6
DASHED
 48
0.2
100
AcDbLine
 10
1737.050418392803
 20
193.6300688225065
 30
0.0
 11
1787.050416392802
 21
193.6300688225065
 31
0.0
  0
LINE
  5
37A8E
330
A
100
AcDbEntity
  8
Hawa5
  6
DASHED
 48
0.2
100
AcDbLine
 10
1760.050416392802
 20
216.6300688225065
 30
0.0
 11
1810.050416392802
 21
216.6300688225065
 31
0.0
  0
LINE
  5
37A8F
330
A
100
AcDbEntity
  8
Hawa5
100
AcDbLine
 10
1732.050418392802
 20
183.6300648225065
 30
0.0
 11
1782.050416392802
 21
183.6300648225065
 31
0.0
  0
LINE
  5
37A90
330
A
100
AcDbEntity
  8
Hawa6
 48
0.2
100
AcDbLine
 10
1768.051519392803
 20
235.3402358225066
 30
0.0
 11
1764.995324392802
 21
232.2840378225066
 31
0.0
  0
LINE
  5
37A91
330
A
100
AcDbEntity
  8
Hawa6
  6
DASHDOT
 48
0.2
100
AcDbLine
 10
1771.983423392802
 20
233.8391828225065
 30
0.0
 11
1761.697778392802
 21
233.8391808225065
 31
0.0
  0
LINE
  5
37A92
330
A
100
AcDbEntity
  8
Hawa6
  6
DASHDOT
 48
0.2
100
AcDbLine
 10
1766.550435392802
 20
239.9135528225065
 30
0.0
 11
1766.550439392803
 21
228.0451748225065
 31
0.0
  0
LINE
  5
37A93
330
A
100
AcDbEntity
  8
Hawa6
 48
0.2
100
AcDbLine
 10
1787.550439392802
 20
219.7754968225065
 30
0.0
 11
1787.550439392802
 21
219.4846338225065
 31
0.0
  0
LINE
  5
37A94
330
A
100
AcDbEntity
  8
Hawa6
 48
0.2
100
AcDbLine
 10
1769.550439392802
 20
219.7755008225065
 30
0.0
 11
1769.550439392802
 21
219.4846378225065
 31
0.0
  0
LINE
  5
37A95
330
A
100
AcDbEntity
  8
Hawa6
  6
DASHDOT
 48
0.2
100
AcDbLine
 10
1785.117395392802
 20
233.8391868225065
 30
0.0
 11
1795.403039392802
 21
233.8391888225065
 31
0.0
  0
LINE
  5
37A96
330
A
100
AcDbEntity
  8
Hawa6
  6
DASHDOT
 48
0.2
100
AcDbLine
 10
1790.550439392802
 20
227.7648458225065
 30
0.0
 11
1790.550439392802
 21
239.6332238225065
 31
0.0
  0
LINE
  5
37A97
330
A
100
AcDbEntity
  8
Hawa6
 48
0.2
100
AcDbLine
 10
1792.051553392802
 20
235.3402338225065
 30
0.0
 11
1788.995359392802
 21
232.2840378225066
 31
0.0
  0
LINE
  5
37A98
330
A
100
AcDbEntity
  8
Hawa6
 48
0.2
100
AcDbLine
 10
1789.081888392803
 20
235.3076698225065
 30
0.0
 11
1791.961892392803
 21
232.4276688225065
 31
0.0
  0
LINE
  5
37A99
330
A
100
AcDbEntity
  8
Hawa5
100
AcDbLine
 10
1760.050416392802
 20
227.6300668225065
 30
0.0
 11
1815.668245392803
 21
227.6300668225065
 31
0.0
  0
LINE
  5
37A9A
330
A
100
AcDbEntity
  8
Hawa5
100
AcDbLine
 10
1787.050416392802
 20
201.6300688225065
 30
0.0
 11
1787.050416392802
 21
182.6300648225064
 31
0.0
  0
LINE
  5
37A9B
330
A
100
AcDbEntity
  8
Hawa1
 48
0.2
100
AcDbLine
 10
1687.245214392802
 20
289.0190308225065
 30
0.0
 11
1685.275911392803
 21
285.6080998225065
 31
0.0
  0
LINE
  5
37A9C
330
A
100
AcDbEntity
  8
Hawa1
 48
0.2
100
AcDbLine
 10
1687.245214392802
 20
289.0190308225065
 30
0.0
 11
1689.214513392803
 21
285.6080998225065
 31
0.0
  0
LINE
  5
37A9D
330
A
100
AcDbEntity
  8
Hawa1
 48
0.2
100
AcDbLine
 10
1685.275911392803
 20
285.6080998225065
 30
0.0
 11
1689.214513392803
 21
285.6080998225065
 31
0.0
  0
LINE
  5
37A9E
330
A
100
AcDbEntity
  8
Hawa1
 48
0.2
100
AcDbLine
 10
1687.245214392802
 20
306.0190308225065
 30
0.0
 11
1685.275911392803
 21
302.6080998225065
 31
0.0
  0
LINE
  5
37A9F
330
A
100
AcDbEntity
  8
Hawa1
 48
0.2
100
AcDbLine
 10
1687.245214392802
 20
306.0190308225065
 30
0.0
 11
1689.214513392803
 21
302.6080998225065
 31
0.0
  0
LINE
  5
37AA0
330
A
100
AcDbEntity
  8
Hawa1
 48
0.2
100
AcDbLine
 10
1685.275911392803
 20
302.6080998225065
 30
0.0
 11
1689.214513392803
 21
302.6080998225065
 31
0.0
  0
LINE
  5
37AA1
330
A
100
AcDbEntity
  8
Hawa1
 48
0.2
100
AcDbLine
 10
1687.245214392802
 20
340.0190348225065
 30
0.0
 11
1689.214513392803
 21
336.6080998225065
 31
0.0
  0
LINE
  5
37AA2
330
A
100
AcDbEntity
  8
Hawa1
 48
0.2
100
AcDbLine
 10
1685.275911392803
 20
336.6080998225065
 30
0.0
 11
1689.214513392803
 21
336.6080998225065
 31
0.0
  0
LINE
  5
37AA3
330
A
100
AcDbEntity
  8
Hawa1
 48
0.2
100
AcDbLine
 10
1687.245214392802
 20
340.0190348225065
 30
0.0
 11
1685.275911392803
 21
336.6080998225065
 31
0.0
  0
LINE
  5
37AA4
330
A
100
AcDbEntity
  8
Hawa1
 48
0.2
100
AcDbLine
 10
1749.166124392803
 20
389.9854958225065
 30
0.0
 11
1752.227466392803
 21
384.6830968225065
 31
0.0
  0
LINE
  5
37AA5
330
A
100
AcDbEntity
  8
Hawa1
 48
0.2
100
AcDbLine
 10
1746.104780392802
 20
384.6830968225065
 30
0.0
 11
1752.227466392803
 21
384.6830968225065
 31
0.0
  0
LINE
  5
37AA6
330
A
100
AcDbEntity
  8
Hawa1
 48
0.2
100
AcDbLine
 10
1749.166124392803
 20
389.9854958225065
 30
0.0
 11
1746.104780392802
 21
384.6830968225065
 31
0.0
  0
LINE
  5
37AA7
330
A
100
AcDbEntity
  8
Hawa6
 48
0.2
100
AcDbLine
 10
1690.183366392802
 20
319.4745628225065
 30
0.0
 11
1690.183366392802
 21
318.1745748225065
 31
0.0
  0
LINE
  5
37AA8
330
A
100
AcDbEntity
  8
Hawa5
100
AcDbLine
 10
1765.883439392802
 20
277.0745668225065
 30
0.0
 11
1765.883439392802
 21
289.0745668225065
 31
0.0
  0
LINE
  5
37AA9
330
A
100
AcDbEntity
  8
Hawa5
100
AcDbLine
 10
1765.083391392802
 20
280.0745668225065
 30
0.0
 11
1765.083391392802
 21
282.5745668225065
 31
0.0
  0
LINE
  5
37AAA
330
A
100
AcDbEntity
  8
Hawa5
100
AcDbLine
 10
1745.083391392802
 20
280.0745668225065
 30
0.0
 11
1745.083391392802
 21
282.5745668225065
 31
0.0
  0
LINE
  5
37AAB
330
A
100
AcDbEntity
  8
Hawa5
100
AcDbLine
 10
1765.083391392802
 20
280.0745668225065
 30
0.0
 11
1745.083391392802
 21
280.0745668225065
 31
0.0
  0
LINE
  5
37AAC
330
A
100
AcDbEntity
  8
Hawa5
100
AcDbLine
 10
1745.083391392802
 20
282.5745668225065
 30
0.0
 11
1765.083391392802
 21
282.5745668225065
 31
0.0
  0
LINE
  5
37AAD
330
A
100
AcDbEntity
  8
Hawa5
100
AcDbLine
 10
1725.883379392803
 20
283.5745668225065
 30
0.0
 11
1725.883379392803
 21
286.0745668225066
 31
0.0
  0
LINE
  5
37AAE
330
A
100
AcDbEntity
  8
Hawa5
100
AcDbLine
 10
1725.883379392803
 20
283.5745668225065
 30
0.0
 11
1745.883378392802
 21
283.5745668225065
 31
0.0
  0
LINE
  5
37AAF
330
A
100
AcDbEntity
  8
Hawa5
100
AcDbLine
 10
1745.883378392802
 20
283.5745668225065
 30
0.0
 11
1745.883378392802
 21
286.0745668225066
 31
0.0
  0
LINE
  5
37AB0
330
A
100
AcDbEntity
  8
Hawa5
100
AcDbLine
 10
1725.883379392803
 20
286.0745668225066
 30
0.0
 11
1745.883378392802
 21
286.0745668225066
 31
0.0
  0
LINE
  5
37AB1
330
A
100
AcDbEntity
  8
Hawa5
100
AcDbLine
 10
1706.683366392802
 20
280.0745668225065
 30
0.0
 11
1706.683366392802
 21
282.5745668225065
 31
0.0
  0
LINE
  5
37AB2
330
A
100
AcDbEntity
  8
Hawa5
100
AcDbLine
 10
1706.683366392802
 20
280.0745668225065
 30
0.0
 11
1726.683366392802
 21
280.0745668225065
 31
0.0
  0
LINE
  5
37AB3
330
A
100
AcDbEntity
  8
Hawa5
100
AcDbLine
 10
1726.683366392802
 20
280.0745668225065
 30
0.0
 11
1726.683366392802
 21
282.5745668225065
 31
0.0
  0
LINE
  5
37AB4
330
A
100
AcDbEntity
  8
Hawa5
100
AcDbLine
 10
1726.683366392802
 20
282.5745668225065
 30
0.0
 11
1706.683366392802
 21
282.5745668225065
 31
0.0
  0
LINE
  5
37AB5
330
A
100
AcDbEntity
  8
Hawa5
100
AcDbLine
 10
1688.283342392803
 20
280.0745668225065
 30
0.0
 11
1668.283342392802
 21
280.0745668225065
 31
0.0
  0
LINE
  5
37AB6
330
A
100
AcDbEntity
  8
Hawa5
100
AcDbLine
 10
1668.283342392802
 20
282.5745668225065
 30
0.0
 11
1688.283342392803
 21
282.5745668225065
 31
0.0
  0
LINE
  5
37AB7
330
A
100
AcDbEntity
  8
Hawa5
100
AcDbLine
 10
1688.283342392803
 20
280.0745668225065
 30
0.0
 11
1688.283342392803
 21
282.5745668225065
 31
0.0
  0
LINE
  5
37AB8
330
A
100
AcDbEntity
  8
Hawa5
100
AcDbLine
 10
1707.483354392802
 20
283.5745668225065
 30
0.0
 11
1687.483354392802
 21
283.5745668225065
 31
0.0
  0
LINE
  5
37AB9
330
A
100
AcDbEntity
  8
Hawa5
100
AcDbLine
 10
1687.483354392802
 20
283.5745668225065
 30
0.0
 11
1687.483354392802
 21
286.0745668225066
 31
0.0
  0
LINE
  5
37ABA
330
A
100
AcDbEntity
  8
Hawa5
100
AcDbLine
 10
1707.483354392802
 20
283.5745668225065
 30
0.0
 11
1707.483354392802
 21
286.0745668225066
 31
0.0
  0
LINE
  5
37ABB
330
A
100
AcDbEntity
  8
Hawa5
100
AcDbLine
 10
1707.483354392802
 20
286.0745668225066
 30
0.0
 11
1687.483354392802
 21
286.0745668225066
 31
0.0
  0
LINE
  5
37ABC
330
A
100
AcDbEntity
  8
Hawa5
100
AcDbLine
 10
1668.283342392802
 20
280.0745668225065
 30
0.0
 11
1668.283342392802
 21
282.5745668225065
 31
0.0
  0
LINE
  5
37ABD
330
A
100
AcDbEntity
  8
Hawa5
100
AcDbLine
 10
1649.083329392803
 20
283.5745668225065
 30
0.0
 11
1669.083329392802
 21
283.5745668225065
 31
0.0
  0
LINE
  5
37ABE
330
A
100
AcDbEntity
  8
Hawa5
100
AcDbLine
 10
1669.083329392802
 20
283.5745668225065
 30
0.0
 11
1669.083329392802
 21
286.0745668225066
 31
0.0
  0
LINE
  5
37ABF
330
A
100
AcDbEntity
  8
Hawa5
100
AcDbLine
 10
1649.083329392803
 20
283.5745668225065
 30
0.0
 11
1649.083329392803
 21
286.0745668225066
 31
0.0
  0
LINE
  5
37AC0
330
A
100
AcDbEntity
  8
Hawa5
100
AcDbLine
 10
1649.083329392803
 20
286.0745668225066
 30
0.0
 11
1669.083329392802
 21
286.0745668225066
 31
0.0
  0
LINE
  5
37AC1
330
A
100
AcDbEntity
  8
Hawa5
100
AcDbLine
 10
1648.283342392802
 20
277.0745668225065
 30
0.0
 11
1648.283342392802
 21
289.0745668225065
 31
0.0
  0
LINE
  5
37AC2
330
A
100
AcDbEntity
  8
Hawa5
100
AcDbLine
 10
1746.683366392802
 20
294.0745688225065
 30
0.0
 11
1746.683366392802
 21
306.0745688225065
 31
0.0
  0
LINE
  5
37AC3
330
A
100
AcDbEntity
  8
Hawa5
100
AcDbLine
 10
1725.883379392803
 20
300.5745688225065
 30
0.0
 11
1725.883379392803
 21
303.0745688225065
 31
0.0
  0
LINE
  5
37AC4
330
A
100
AcDbEntity
  8
Hawa5
100
AcDbLine
 10
1725.883379392803
 20
300.5745688225065
 30
0.0
 11
1745.883378392802
 21
300.5745688225065
 31
0.0
  0
LINE
  5
37AC5
330
A
100
AcDbEntity
  8
Hawa5
100
AcDbLine
 10
1745.883378392802
 20
300.5745688225065
 30
0.0
 11
1745.883378392802
 21
303.0745688225065
 31
0.0
  0
LINE
  5
37AC6
330
A
100
AcDbEntity
  8
Hawa5
100
AcDbLine
 10
1725.883379392803
 20
303.0745688225065
 30
0.0
 11
1745.883378392802
 21
303.0745688225065
 31
0.0
  0
LINE
  5
37AC7
330
A
100
AcDbEntity
  8
Hawa5
100
AcDbLine
 10
1706.683366392802
 20
297.0745688225065
 30
0.0
 11
1706.683366392802
 21
299.5745688225065
 31
0.0
  0
LINE
  5
37AC8
330
A
100
AcDbEntity
  8
Hawa5
100
AcDbLine
 10
1706.683366392802
 20
297.0745688225065
 30
0.0
 11
1726.683366392802
 21
297.0745688225065
 31
0.0
  0
LINE
  5
37AC9
330
A
100
AcDbEntity
  8
Hawa5
100
AcDbLine
 10
1726.683366392802
 20
297.0745688225065
 30
0.0
 11
1726.683366392802
 21
299.5745688225065
 31
0.0
  0
LINE
  5
37ACA
330
A
100
AcDbEntity
  8
Hawa5
100
AcDbLine
 10
1726.683366392802
 20
299.5745688225065
 30
0.0
 11
1706.683366392802
 21
299.5745688225065
 31
0.0
  0
LINE
  5
37ACB
330
A
100
AcDbEntity
  8
Hawa5
100
AcDbLine
 10
1688.283342392803
 20
297.0745688225065
 30
0.0
 11
1668.283342392802
 21
297.0745688225065
 31
0.0
  0
LINE
  5
37ACC
330
A
100
AcDbEntity
  8
Hawa5
100
AcDbLine
 10
1668.283342392802
 20
299.5745688225065
 30
0.0
 11
1688.283342392803
 21
299.5745688225065
 31
0.0
  0
LINE
  5
37ACD
330
A
100
AcDbEntity
  8
Hawa5
100
AcDbLine
 10
1688.283342392803
 20
297.0745688225065
 30
0.0
 11
1688.283342392803
 21
299.5745688225065
 31
0.0
  0
LINE
  5
37ACE
330
A
100
AcDbEntity
  8
Hawa5
100
AcDbLine
 10
1707.483354392802
 20
300.5745688225065
 30
0.0
 11
1687.483354392802
 21
300.5745688225065
 31
0.0
  0
LINE
  5
37ACF
330
A
100
AcDbEntity
  8
Hawa5
100
AcDbLine
 10
1687.483354392802
 20
300.5745688225065
 30
0.0
 11
1687.483354392802
 21
303.0745688225065
 31
0.0
  0
LINE
  5
37AD0
330
A
100
AcDbEntity
  8
Hawa5
100
AcDbLine
 10
1707.483354392802
 20
300.5745688225065
 30
0.0
 11
1707.483354392802
 21
303.0745688225065
 31
0.0
  0
LINE
  5
37AD1
330
A
100
AcDbEntity
  8
Hawa5
100
AcDbLine
 10
1707.483354392802
 20
303.0745688225065
 30
0.0
 11
1687.483354392802
 21
303.0745688225065
 31
0.0
  0
LINE
  5
37AD2
330
A
100
AcDbEntity
  8
Hawa5
100
AcDbLine
 10
1668.283342392802
 20
297.0745688225065
 30
0.0
 11
1668.283342392802
 21
299.5745688225065
 31
0.0
  0
LINE
  5
37AD3
330
A
100
AcDbEntity
  8
Hawa5
100
AcDbLine
 10
1649.083329392803
 20
300.5745688225065
 30
0.0
 11
1669.083329392802
 21
300.5745688225065
 31
0.0
  0
LINE
  5
37AD4
330
A
100
AcDbEntity
  8
Hawa5
100
AcDbLine
 10
1669.083329392802
 20
300.5745688225065
 30
0.0
 11
1669.083329392802
 21
303.0745688225065
 31
0.0
  0
LINE
  5
37AD5
330
A
100
AcDbEntity
  8
Hawa5
100
AcDbLine
 10
1649.083329392803
 20
300.5745688225065
 30
0.0
 11
1649.083329392803
 21
303.0745688225065
 31
0.0
  0
LINE
  5
37AD6
330
A
100
AcDbEntity
  8
Hawa5
100
AcDbLine
 10
1649.083329392803
 20
303.0745688225065
 30
0.0
 11
1669.083329392802
 21
303.0745688225065
 31
0.0
  0
LINE
  5
37AD7
330
A
100
AcDbEntity
  8
Hawa5
100
AcDbLine
 10
1648.283342392802
 20
294.0745688225065
 30
0.0
 11
1648.283342392802
 21
306.0745688225065
 31
0.0
  0
LINE
  5
37AD8
330
A
100
AcDbEntity
  8
Hawa5
100
AcDbLine
 10
1727.483293392802
 20
311.0745688225065
 30
0.0
 11
1727.483293392802
 21
323.0745688225066
 31
0.0
  0
LINE
  5
37AD9
330
A
100
AcDbEntity
  8
Hawa5
100
AcDbLine
 10
1706.683366392802
 20
314.0745688225065
 30
0.0
 11
1706.683366392802
 21
316.5745688225066
 31
0.0
  0
LINE
  5
37ADA
330
A
100
AcDbEntity
  8
Hawa5
100
AcDbLine
 10
1706.683366392802
 20
314.0745688225065
 30
0.0
 11
1726.683366392802
 21
314.0745688225065
 31
0.0
  0
LINE
  5
37ADB
330
A
100
AcDbEntity
  8
Hawa5
100
AcDbLine
 10
1726.683366392802
 20
314.0745688225065
 30
0.0
 11
1726.683366392802
 21
316.5745688225066
 31
0.0
  0
LINE
  5
37ADC
330
A
100
AcDbEntity
  8
Hawa5
100
AcDbLine
 10
1726.683366392802
 20
316.5745688225066
 30
0.0
 11
1706.683366392802
 21
316.5745688225066
 31
0.0
  0
LINE
  5
37ADD
330
A
100
AcDbEntity
  8
Hawa5
100
AcDbLine
 10
1688.283342392803
 20
314.0745688225065
 30
0.0
 11
1668.283342392802
 21
314.0745688225065
 31
0.0
  0
LINE
  5
37ADE
330
A
100
AcDbEntity
  8
Hawa5
100
AcDbLine
 10
1668.283342392802
 20
316.5745688225066
 30
0.0
 11
1688.283342392803
 21
316.5745688225066
 31
0.0
  0
LINE
  5
37ADF
330
A
100
AcDbEntity
  8
Hawa5
100
AcDbLine
 10
1688.283342392803
 20
314.0745688225065
 30
0.0
 11
1688.283342392803
 21
316.5745688225066
 31
0.0
  0
LINE
  5
37AE0
330
A
100
AcDbEntity
  8
Hawa5
100
AcDbLine
 10
1707.483354392802
 20
317.5745688225065
 30
0.0
 11
1687.483354392802
 21
317.5745688225065
 31
0.0
  0
LINE
  5
37AE1
330
A
100
AcDbEntity
  8
Hawa5
100
AcDbLine
 10
1687.483354392802
 20
317.5745688225065
 30
0.0
 11
1687.483354392802
 21
320.0745688225065
 31
0.0
  0
LINE
  5
37AE2
330
A
100
AcDbEntity
  8
Hawa5
100
AcDbLine
 10
1707.483354392802
 20
317.5745688225065
 30
0.0
 11
1707.483354392802
 21
320.0745688225065
 31
0.0
  0
LINE
  5
37AE3
330
A
100
AcDbEntity
  8
Hawa5
100
AcDbLine
 10
1707.483354392802
 20
320.0745688225065
 30
0.0
 11
1687.483354392802
 21
320.0745688225065
 31
0.0
  0
LINE
  5
37AE4
330
A
100
AcDbEntity
  8
Hawa5
100
AcDbLine
 10
1668.283342392802
 20
314.0745688225065
 30
0.0
 11
1668.283342392802
 21
316.5745688225066
 31
0.0
  0
LINE
  5
37AE5
330
A
100
AcDbEntity
  8
Hawa5
100
AcDbLine
 10
1649.083329392803
 20
317.5745688225065
 30
0.0
 11
1669.083329392802
 21
317.5745688225065
 31
0.0
  0
LINE
  5
37AE6
330
A
100
AcDbEntity
  8
Hawa5
100
AcDbLine
 10
1669.083329392802
 20
317.5745688225065
 30
0.0
 11
1669.083329392802
 21
320.0745688225065
 31
0.0
  0
LINE
  5
37AE7
330
A
100
AcDbEntity
  8
Hawa5
100
AcDbLine
 10
1649.083329392803
 20
317.5745688225065
 30
0.0
 11
1649.083329392803
 21
320.0745688225065
 31
0.0
  0
LINE
  5
37AE8
330
A
100
AcDbEntity
  8
Hawa5
100
AcDbLine
 10
1649.083329392803
 20
320.0745688225065
 30
0.0
 11
1669.083329392802
 21
320.0745688225065
 31
0.0
  0
LINE
  5
37AE9
330
A
100
AcDbEntity
  8
Hawa5
100
AcDbLine
 10
1648.283342392802
 20
311.0745688225065
 30
0.0
 11
1648.283342392802
 21
323.0745688225066
 31
0.0
  0
LINE
  5
37AEA
330
A
100
AcDbEntity
  8
Hawa5
100
AcDbLine
 10
1688.283342392803
 20
331.0745688225065
 30
0.0
 11
1668.283342392802
 21
331.0745688225065
 31
0.0
  0
LINE
  5
37AEB
330
A
100
AcDbEntity
  8
Hawa5
100
AcDbLine
 10
1688.283342392803
 20
331.0745688225065
 30
0.0
 11
1688.283342392803
 21
333.5745688225066
 31
0.0
  0
LINE
  5
37AEC
330
A
100
AcDbEntity
  8
Hawa5
100
AcDbLine
 10
1707.483354392802
 20
334.5745688225065
 30
0.0
 11
1687.483354392802
 21
334.5745688225065
 31
0.0
  0
LINE
  5
37AED
330
A
100
AcDbEntity
  8
Hawa5
100
AcDbLine
 10
1687.483354392802
 20
334.5745688225065
 30
0.0
 11
1687.483354392802
 21
337.0745688225065
 31
0.0
  0
LINE
  5
37AEE
330
A
100
AcDbEntity
  8
Hawa6
 48
0.2
100
AcDbLine
 10
1707.483354392802
 20
334.5745688225065
 30
0.0
 11
1707.483354392802
 21
337.0745688225065
 31
0.0
  0
LINE
  5
37AEF
330
A
100
AcDbEntity
  8
Hawa5
100
AcDbLine
 10
1707.483354392802
 20
337.0745688225065
 30
0.0
 11
1687.483354392802
 21
337.0745688225065
 31
0.0
  0
LINE
  5
37AF0
330
A
100
AcDbEntity
  8
Hawa5
100
AcDbLine
 10
1708.283342392802
 20
328.0745688225065
 30
0.0
 11
1708.283342392802
 21
340.0745688225065
 31
0.0
  0
LINE
  5
37AF1
330
A
100
AcDbEntity
  8
Hawa5
100
AcDbLine
 10
1668.283342392802
 20
333.5745688225066
 30
0.0
 11
1688.283342392803
 21
333.5745688225066
 31
0.0
  0
LINE
  5
37AF2
330
A
100
AcDbEntity
  8
Hawa5
100
AcDbLine
 10
1668.283342392802
 20
331.0745688225065
 30
0.0
 11
1668.283342392802
 21
333.5745688225066
 31
0.0
  0
LINE
  5
37AF3
330
A
100
AcDbEntity
  8
Hawa5
100
AcDbLine
 10
1649.083329392803
 20
334.5745688225065
 30
0.0
 11
1669.083329392802
 21
334.5745688225065
 31
0.0
  0
LINE
  5
37AF4
330
A
100
AcDbEntity
  8
Hawa6
 48
0.2
100
AcDbLine
 10
1669.083329392802
 20
334.5745688225065
 30
0.0
 11
1669.083329392802
 21
337.0745688225065
 31
0.0
  0
LINE
  5
37AF5
330
A
100
AcDbEntity
  8
Hawa5
100
AcDbLine
 10
1649.083329392803
 20
334.5745688225065
 30
0.0
 11
1649.083329392803
 21
337.0745688225065
 31
0.0
  0
LINE
  5
37AF6
330
A
100
AcDbEntity
  8
Hawa5
100
AcDbLine
 10
1649.083329392803
 20
337.0745688225065
 30
0.0
 11
1669.083329392802
 21
337.0745688225065
 31
0.0
  0
LINE
  5
37AF7
330
A
100
AcDbEntity
  8
Hawa5
100
AcDbLine
 10
1648.283342392802
 20
328.0745688225065
 30
0.0
 11
1648.283342392802
 21
340.0745688225065
 31
0.0
  0
LINE
  5
37AF8
330
A
100
AcDbEntity
  8
Hawa5
100
AcDbLine
 10
1689.083329392802
 20
357.0745688225065
 30
0.0
 11
1689.083329392802
 21
345.0745688225065
 31
0.0
  0
LINE
  5
37AF9
330
A
100
AcDbEntity
  8
Hawa5
100
AcDbLine
 10
1668.283342392802
 20
354.0745688225066
 30
0.0
 11
1688.283342392803
 21
354.0745688225066
 31
0.0
  0
LINE
  5
37AFA
330
A
100
AcDbEntity
  8
Hawa5
100
AcDbLine
 10
1688.283342392803
 20
354.0745688225066
 30
0.0
 11
1688.283342392803
 21
351.5745688225065
 31
0.0
  0
LINE
  5
37AFB
330
A
100
AcDbEntity
  8
Hawa5
100
AcDbLine
 10
1668.283342392802
 20
354.0745688225066
 30
0.0
 11
1668.283342392802
 21
351.5745688225065
 31
0.0
  0
LINE
  5
37AFC
330
A
100
AcDbEntity
  8
Hawa5
100
AcDbLine
 10
1668.283342392802
 20
351.5745688225065
 30
0.0
 11
1688.283342392803
 21
351.5745688225065
 31
0.0
  0
LINE
  5
37AFD
330
A
100
AcDbEntity
  8
Hawa5
100
AcDbLine
 10
1669.083329392802
 20
350.5745688225065
 30
0.0
 11
1669.083329392802
 21
348.0745688225066
 31
0.0
  0
LINE
  5
37AFE
330
A
100
AcDbEntity
  8
Hawa5
100
AcDbLine
 10
1649.083329392803
 20
350.5745688225065
 30
0.0
 11
1669.083329392802
 21
350.5745688225065
 31
0.0
  0
LINE
  5
37AFF
330
A
100
AcDbEntity
  8
Hawa5
100
AcDbLine
 10
1649.083329392803
 20
350.5745688225065
 30
0.0
 11
1649.083329392803
 21
348.0745688225066
 31
0.0
  0
LINE
  5
37B00
330
A
100
AcDbEntity
  8
Hawa5
100
AcDbLine
 10
1649.083329392803
 20
348.0745688225066
 30
0.0
 11
1669.083329392802
 21
348.0745688225066
 31
0.0
  0
LINE
  5
37B01
330
A
100
AcDbEntity
  8
Hawa5
100
AcDbLine
 10
1648.283342392802
 20
357.0745688225065
 30
0.0
 11
1648.283342392802
 21
345.0745688225065
 31
0.0
  0
LINE
  5
37B02
330
A
100
AcDbEntity
  8
Hawa6
 48
0.2
100
AcDbLine
 10
1746.183337392803
 20
345.5165548225065
 30
0.0
 11
1752.183355392802
 21
342.5165478225065
 31
0.0
  0
LINE
  5
37B03
330
A
100
AcDbEntity
  8
Hawa6
 48
0.2
100
AcDbLine
 10
1752.183368392802
 20
345.5165478225065
 30
0.0
 11
1746.183379392802
 21
342.5165548225065
 31
0.0
  0
LINE
  5
37B04
330
A
100
AcDbEntity
  8
Hawa6
 48
0.2
100
AcDbLine
 10
1746.183366392802
 20
345.5165858225065
 30
0.0
 11
1752.183366392802
 21
345.5165858225065
 31
0.0
  0
LINE
  5
37B05
330
A
100
AcDbEntity
  8
Hawa6
 48
0.2
100
AcDbLine
 10
1762.383249392803
 20
281.9746238225065
 30
0.0
 11
1764.583288392802
 21
280.6746228225065
 31
0.0
  0
LINE
  5
37B06
330
A
100
AcDbEntity
  8
Hawa6
 48
0.2
100
AcDbLine
 10
1764.583303392803
 20
281.9744908225065
 30
0.0
 11
1762.383214392803
 21
280.6744568225065
 31
0.0
  0
LINE
  5
37B07
330
A
100
AcDbEntity
  8
Hawa6
 48
0.2
100
AcDbLine
 10
1762.383439392802
 20
280.6745728225065
 30
0.0
 11
1762.383439392802
 21
281.9745608225066
 31
0.0
  0
LINE
  5
37B08
330
A
100
AcDbEntity
  8
Hawa6
 48
0.2
100
AcDbLine
 10
1764.583452392803
 20
280.6745728225065
 30
0.0
 11
1762.383439392802
 21
280.6745728225065
 31
0.0
  0
LINE
  5
37B09
330
A
100
AcDbEntity
  8
Hawa6
 48
0.2
100
AcDbLine
 10
1764.583452392803
 20
281.9745608225066
 30
0.0
 11
1762.383439392802
 21
281.9745608225066
 31
0.0
  0
LINE
  5
37B0A
330
A
100
AcDbEntity
  8
Hawa6
 48
0.2
100
AcDbLine
 10
1764.583452392803
 20
280.6745728225065
 30
0.0
 11
1764.583452392803
 21
281.9745608225066
 31
0.0
  0
LINE
  5
37B0B
330
A
100
AcDbEntity
  8
Hawa6
 48
0.2
100
AcDbLine
 10
1746.183366392802
 20
342.5165858225065
 30
0.0
 11
1752.183366392802
 21
342.5165858225065
 31
0.0
  0
LINE
  5
37B0C
330
A
100
AcDbEntity
  8
Hawa6
 48
0.2
100
AcDbLine
 10
1752.183366392802
 20
345.5165858225065
 30
0.0
 11
1752.183366392802
 21
342.5165858225065
 31
0.0
  0
LINE
  5
37B0D
330
A
100
AcDbEntity
  8
Hawa6
 48
0.2
100
AcDbLine
 10
1746.183366392802
 20
345.5165858225065
 30
0.0
 11
1746.183366392802
 21
342.5165858225065
 31
0.0
  0
LINE
  5
37B0E
330
A
100
AcDbEntity
  8
Hawa6
 48
0.2
100
AcDbLine
 10
1704.783223392803
 20
285.4746278225065
 30
0.0
 11
1706.983260392803
 21
284.1746248225065
 31
0.0
  0
LINE
  5
37B0F
330
A
100
AcDbEntity
  8
Hawa6
 48
0.2
100
AcDbLine
 10
1706.983300392803
 20
285.4745118225066
 30
0.0
 11
1704.783210392802
 21
284.1744778225065
 31
0.0
  0
LINE
  5
37B10
330
A
100
AcDbEntity
  8
Hawa6
 48
0.2
100
AcDbLine
 10
1704.783403392802
 20
284.1745728225065
 30
0.0
 11
1704.783403392802
 21
285.4745608225065
 31
0.0
  0
LINE
  5
37B11
330
A
100
AcDbEntity
  8
Hawa6
 48
0.2
100
AcDbLine
 10
1706.983415392802
 20
284.1745728225065
 30
0.0
 11
1704.783403392802
 21
284.1745728225065
 31
0.0
  0
LINE
  5
37B12
330
A
100
AcDbEntity
  8
Hawa6
 48
0.2
100
AcDbLine
 10
1706.983415392802
 20
285.4745608225065
 30
0.0
 11
1704.783403392802
 21
285.4745608225065
 31
0.0
  0
LINE
  5
37B13
330
A
100
AcDbEntity
  8
Hawa6
 48
0.2
100
AcDbLine
 10
1706.983415392802
 20
284.1745728225065
 30
0.0
 11
1706.983415392802
 21
285.4745608225065
 31
0.0
  0
LINE
  5
37B14
330
A
100
AcDbEntity
  8
Hawa6
 48
0.2
100
AcDbLine
 10
1743.183244392803
 20
302.4746238225065
 30
0.0
 11
1745.383281392802
 21
301.1746208225066
 31
0.0
  0
LINE
  5
37B15
330
A
100
AcDbEntity
  8
Hawa6
 48
0.2
100
AcDbLine
 10
1745.383317392802
 20
302.4745058225065
 30
0.0
 11
1743.183227392802
 21
301.1744718225065
 31
0.0
  0
LINE
  5
37B16
330
A
100
AcDbEntity
  8
Hawa6
 48
0.2
100
AcDbLine
 10
1743.183427392802
 20
301.1745748225065
 30
0.0
 11
1743.183427392802
 21
302.4745628225065
 31
0.0
  0
LINE
  5
37B17
330
A
100
AcDbEntity
  8
Hawa6
 48
0.2
100
AcDbLine
 10
1745.383439392802
 20
301.1745748225065
 30
0.0
 11
1743.183427392802
 21
301.1745748225065
 31
0.0
  0
LINE
  5
37B18
330
A
100
AcDbEntity
  8
Hawa6
 48
0.2
100
AcDbLine
 10
1745.383439392802
 20
302.4745628225065
 30
0.0
 11
1743.183427392802
 21
302.4745628225065
 31
0.0
  0
LINE
  5
37B19
330
A
100
AcDbEntity
  8
Hawa6
 48
0.2
100
AcDbLine
 10
1745.383439392802
 20
301.1745748225065
 30
0.0
 11
1745.383439392802
 21
302.4745628225065
 31
0.0
  0
LINE
  5
37B1A
330
A
100
AcDbEntity
  8
Hawa6
 48
0.2
100
AcDbLine
 10
1704.783252392802
 20
302.4746088225065
 30
0.0
 11
1706.983289392803
 21
301.1746058225065
 31
0.0
  0
LINE
  5
37B1B
330
A
100
AcDbEntity
  8
Hawa6
 48
0.2
100
AcDbLine
 10
1706.983323392802
 20
302.4745208225065
 30
0.0
 11
1704.783233392802
 21
301.1744878225065
 31
0.0
  0
LINE
  5
37B1C
330
A
100
AcDbEntity
  8
Hawa6
 48
0.2
100
AcDbLine
 10
1704.783403392802
 20
301.1745748225065
 30
0.0
 11
1704.783403392802
 21
302.4745628225065
 31
0.0
  0
LINE
  5
37B1D
330
A
100
AcDbEntity
  8
Hawa6
 48
0.2
100
AcDbLine
 10
1706.983415392802
 20
301.1745748225065
 30
0.0
 11
1704.783403392802
 21
301.1745748225065
 31
0.0
  0
LINE
  5
37B1E
330
A
100
AcDbEntity
  8
Hawa6
 48
0.2
100
AcDbLine
 10
1706.983415392802
 20
302.4745628225065
 30
0.0
 11
1704.783403392802
 21
302.4745628225065
 31
0.0
  0
LINE
  5
37B1F
330
A
100
AcDbEntity
  8
Hawa6
 48
0.2
100
AcDbLine
 10
1706.983415392802
 20
301.1745748225065
 30
0.0
 11
1706.983415392802
 21
302.4745628225065
 31
0.0
  0
LINE
  5
37B20
330
A
100
AcDbEntity
  8
Hawa6
 48
0.2
100
AcDbLine
 10
1685.583253392803
 20
298.9746278225065
 30
0.0
 11
1687.783292392802
 21
297.6746288225065
 31
0.0
  0
LINE
  5
37B21
330
A
100
AcDbEntity
  8
Hawa6
 48
0.2
100
AcDbLine
 10
1687.783342392802
 20
298.9745328225065
 30
0.0
 11
1685.583253392803
 21
297.6744988225065
 31
0.0
  0
LINE
  5
37B22
330
A
100
AcDbEntity
  8
Hawa6
 48
0.2
100
AcDbLine
 10
1685.583391392802
 20
297.6745748225066
 30
0.0
 11
1685.583391392802
 21
298.9745628225065
 31
0.0
  0
LINE
  5
37B23
330
A
100
AcDbEntity
  8
Hawa6
 48
0.2
100
AcDbLine
 10
1687.783403392802
 20
297.6745748225066
 30
0.0
 11
1685.583391392802
 21
297.6745748225066
 31
0.0
  0
LINE
  5
37B24
330
A
100
AcDbEntity
  8
Hawa6
 48
0.2
100
AcDbLine
 10
1687.783403392802
 20
298.9745628225065
 30
0.0
 11
1685.583391392802
 21
298.9745628225065
 31
0.0
  0
LINE
  5
37B25
330
A
100
AcDbEntity
  8
Hawa6
 48
0.2
100
AcDbLine
 10
1687.783403392802
 20
297.6745748225066
 30
0.0
 11
1687.783403392802
 21
298.9745628225065
 31
0.0
  0
LINE
  5
37B26
330
A
100
AcDbEntity
  8
Hawa6
 48
0.2
100
AcDbLine
 10
1685.583280392803
 20
281.9746178225065
 30
0.0
 11
1687.783315392803
 21
280.6746168225065
 31
0.0
  0
LINE
  5
37B27
330
A
100
AcDbEntity
  8
Hawa6
 48
0.2
100
AcDbLine
 10
1687.783372392803
 20
281.9745538225065
 30
0.0
 11
1685.583280392803
 21
280.6745198225065
 31
0.0
  0
LINE
  5
37B28
330
A
100
AcDbEntity
  8
Hawa6
 48
0.2
100
AcDbLine
 10
1685.583391392802
 20
280.6745728225065
 30
0.0
 11
1685.583391392802
 21
281.9745608225066
 31
0.0
  0
LINE
  5
37B29
330
A
100
AcDbEntity
  8
Hawa6
 48
0.2
100
AcDbLine
 10
1687.783403392802
 20
280.6745728225065
 30
0.0
 11
1685.583391392802
 21
280.6745728225065
 31
0.0
  0
LINE
  5
37B2A
330
A
100
AcDbEntity
  8
Hawa6
 48
0.2
100
AcDbLine
 10
1687.783403392802
 20
281.9745608225066
 30
0.0
 11
1685.583391392802
 21
281.9745608225066
 31
0.0
  0
LINE
  5
37B2B
330
A
100
AcDbEntity
  8
Hawa6
 48
0.2
100
AcDbLine
 10
1687.783403392802
 20
280.6745728225065
 30
0.0
 11
1687.783403392802
 21
281.9745608225066
 31
0.0
  0
LINE
  5
37B2C
330
A
100
AcDbEntity
  8
Hawa6
 48
0.2
100
AcDbLine
 10
1723.983329392802
 20
315.9745938225066
 30
0.0
 11
1726.183366392803
 21
314.6745908225065
 31
0.0
  0
LINE
  5
37B2D
330
A
100
AcDbEntity
  8
Hawa6
 48
0.2
100
AcDbLine
 10
1726.183412392802
 20
315.9745588225066
 30
0.0
 11
1723.983322392802
 21
314.6745258225065
 31
0.0
  0
LINE
  5
37B2E
330
A
100
AcDbEntity
  8
Hawa6
 48
0.2
100
AcDbLine
 10
1723.983415392802
 20
314.6745748225066
 30
0.0
 11
1723.983415392802
 21
315.9745628225065
 31
0.0
  0
LINE
  5
37B2F
330
A
100
AcDbEntity
  8
Hawa6
 48
0.2
100
AcDbLine
 10
1726.183427392802
 20
314.6745748225066
 30
0.0
 11
1723.983415392802
 21
314.6745748225066
 31
0.0
  0
LINE
  5
37B30
330
A
100
AcDbEntity
  8
Hawa6
 48
0.2
100
AcDbLine
 10
1726.183427392802
 20
315.9745628225065
 30
0.0
 11
1723.983415392802
 21
315.9745628225065
 31
0.0
  0
LINE
  5
37B31
330
A
100
AcDbEntity
  8
Hawa6
 48
0.2
100
AcDbLine
 10
1726.183427392802
 20
314.6745748225066
 30
0.0
 11
1726.183427392802
 21
315.9745628225065
 31
0.0
  0
LINE
  5
37B32
330
A
100
AcDbEntity
  8
Hawa6
 48
0.2
100
AcDbLine
 10
1685.583337392802
 20
315.9745778225065
 30
0.0
 11
1687.783372392803
 21
314.6745748225066
 31
0.0
  0
LINE
  5
37B33
330
A
100
AcDbEntity
  8
Hawa6
 48
0.2
100
AcDbLine
 10
1687.783418392802
 20
315.9745748225065
 30
0.0
 11
1685.583329392802
 21
314.6745408225065
 31
0.0
  0
LINE
  5
37B34
330
A
100
AcDbEntity
  8
Hawa6
 48
0.2
100
AcDbLine
 10
1685.583391392802
 20
314.6745748225066
 30
0.0
 11
1685.583391392802
 21
315.9745628225065
 31
0.0
  0
LINE
  5
37B35
330
A
100
AcDbEntity
  8
Hawa6
 48
0.2
100
AcDbLine
 10
1687.783403392802
 20
314.6745748225066
 30
0.0
 11
1685.583391392802
 21
314.6745748225066
 31
0.0
  0
LINE
  5
37B36
330
A
100
AcDbEntity
  8
Hawa6
 48
0.2
100
AcDbLine
 10
1687.783403392802
 20
315.9745628225065
 30
0.0
 11
1685.583391392802
 21
315.9745628225065
 31
0.0
  0
LINE
  5
37B37
330
A
100
AcDbEntity
  8
Hawa6
 48
0.2
100
AcDbLine
 10
1687.783403392802
 20
314.6745748225066
 30
0.0
 11
1687.783403392802
 21
315.9745628225065
 31
0.0
  0
LINE
  5
37B38
330
A
100
AcDbEntity
  8
Hawa6
 48
0.2
100
AcDbLine
 10
1704.783378392803
 20
336.4745628225065
 30
0.0
 11
1706.983415392802
 21
335.1745598225065
 31
0.0
  0
LINE
  5
37B39
330
A
100
AcDbEntity
  8
Hawa6
 48
0.2
100
AcDbLine
 10
1706.983432392803
 20
336.4745628225065
 30
0.0
 11
1704.783342392802
 21
335.1745298225065
 31
0.0
  0
LINE
  5
37B3A
330
A
100
AcDbEntity
  8
Hawa6
 48
0.2
100
AcDbLine
 10
1704.783403392802
 20
335.1745748225066
 30
0.0
 11
1704.783403392802
 21
336.4745628225065
 31
0.0
  0
LINE
  5
37B3B
330
A
100
AcDbEntity
  8
Hawa6
 48
0.2
100
AcDbLine
 10
1706.983415392802
 20
335.1745748225066
 30
0.0
 11
1704.783403392802
 21
335.1745748225066
 31
0.0
  0
LINE
  5
37B3C
330
A
100
AcDbEntity
  8
Hawa6
 48
0.2
100
AcDbLine
 10
1706.983415392802
 20
336.4745628225065
 30
0.0
 11
1704.783403392802
 21
336.4745628225065
 31
0.0
  0
LINE
  5
37B3D
330
A
100
AcDbEntity
  8
Hawa6
 48
0.2
100
AcDbLine
 10
1706.983415392802
 20
335.1745748225066
 30
0.0
 11
1706.983415392802
 21
336.4745628225065
 31
0.0
  0
LINE
  5
37B3E
330
A
100
AcDbEntity
  8
Hawa5
100
AcDbLine
 10
1668.283342392802
 20
351.5745688225065
 30
0.0
 11
1688.283342392803
 21
351.5745688225065
 31
0.0
  0
LINE
  5
37B3F
330
A
100
AcDbEntity
  8
Hawa6
 48
0.2
100
AcDbLine
 10
1685.583391392802
 20
353.4745628225065
 30
0.0
 11
1687.783403392802
 21
352.1745748225066
 31
0.0
  0
LINE
  5
37B40
330
A
100
AcDbEntity
  8
Hawa6
 48
0.2
100
AcDbLine
 10
1687.783460392802
 20
353.4745778225065
 30
0.0
 11
1685.583368392802
 21
352.1745448225065
 31
0.0
  0
LINE
  5
37B41
330
A
100
AcDbEntity
  8
Hawa6
 48
0.2
100
AcDbLine
 10
1685.583391392802
 20
352.1745748225066
 30
0.0
 11
1685.583391392802
 21
353.4745628225065
 31
0.0
  0
LINE
  5
37B42
330
A
100
AcDbEntity
  8
Hawa6
 48
0.2
100
AcDbLine
 10
1687.783403392802
 20
352.1745748225066
 30
0.0
 11
1685.583391392802
 21
352.1745748225066
 31
0.0
  0
LINE
  5
37B43
330
A
100
AcDbEntity
  8
Hawa6
 48
0.2
100
AcDbLine
 10
1687.783403392802
 20
353.4745628225065
 30
0.0
 11
1685.583391392802
 21
353.4745628225065
 31
0.0
  0
LINE
  5
37B44
330
A
100
AcDbEntity
  8
Hawa6
 48
0.2
100
AcDbLine
 10
1687.783403392802
 20
352.1745748225066
 30
0.0
 11
1687.783403392802
 21
353.4745628225065
 31
0.0
  0
LINE
  5
37B45
330
A
100
AcDbEntity
  8
Hawa6
 48
0.2
100
AcDbLine
 10
1685.583383392802
 20
348.6745598225065
 30
0.0
 11
1687.783422392802
 21
349.9745628225065
 31
0.0
  0
LINE
  5
37B46
330
A
100
AcDbEntity
  8
Hawa6
 48
0.2
100
AcDbLine
 10
1687.783445392803
 20
348.6745068225066
 30
0.0
 11
1685.583383392802
 21
349.9745248225065
 31
0.0
  0
LINE
  5
37B47
330
A
100
AcDbEntity
  8
Hawa6
 48
0.2
100
AcDbLine
 10
1685.583391392802
 20
349.9745628225065
 30
0.0
 11
1685.583391392802
 21
348.6745748225065
 31
0.0
  0
LINE
  5
37B48
330
A
100
AcDbEntity
  8
Hawa6
 48
0.2
100
AcDbLine
 10
1687.783403392802
 20
349.9745628225065
 30
0.0
 11
1685.583391392802
 21
349.9745628225065
 31
0.0
  0
LINE
  5
37B49
330
A
100
AcDbEntity
  8
Hawa6
 48
0.2
100
AcDbLine
 10
1687.783403392802
 20
348.6745748225065
 30
0.0
 11
1685.583391392802
 21
348.6745748225065
 31
0.0
  0
LINE
  5
37B4A
330
A
100
AcDbEntity
  8
Hawa6
 48
0.2
100
AcDbLine
 10
1687.783403392802
 20
349.9745628225065
 30
0.0
 11
1687.783403392802
 21
348.6745748225065
 31
0.0
  0
LINE
  5
37B4B
330
A
100
AcDbEntity
  8
Hawa6
 48
0.2
100
AcDbLine
 10
1651.783342392802
 20
353.4745558225065
 30
0.0
 11
1649.583360392802
 21
352.1745828225065
 31
0.0
  0
LINE
  5
37B4C
330
A
100
AcDbEntity
  8
Hawa6
 48
0.2
100
AcDbLine
 10
1649.583268392802
 20
353.4745778225065
 30
0.0
 11
1651.783326392802
 21
352.1745598225065
 31
0.0
  0
LINE
  5
37B4D
330
A
100
AcDbEntity
  8
Hawa6
 48
0.2
100
AcDbLine
 10
1651.783349392802
 20
352.1745908225065
 30
0.0
 11
1651.783349392802
 21
353.4745778225065
 31
0.0
  0
LINE
  5
37B4E
330
A
100
AcDbEntity
  8
Hawa6
 48
0.2
100
AcDbLine
 10
1649.583337392802
 20
352.1745908225065
 30
0.0
 11
1651.783349392802
 21
352.1745908225065
 31
0.0
  0
LINE
  5
37B4F
330
A
100
AcDbEntity
  8
Hawa6
 48
0.2
100
AcDbLine
 10
1649.583337392802
 20
353.4745778225065
 30
0.0
 11
1651.783349392802
 21
353.4745778225065
 31
0.0
  0
LINE
  5
37B50
330
A
100
AcDbEntity
  8
Hawa6
 48
0.2
100
AcDbLine
 10
1649.583337392802
 20
352.1745908225065
 30
0.0
 11
1649.583337392802
 21
353.4745778225065
 31
0.0
  0
LINE
  5
37B51
330
A
100
AcDbEntity
  8
Hawa6
 48
0.2
100
AcDbLine
 10
1728.583268392803
 20
284.1745508225065
 30
0.0
 11
1726.383231392803
 21
285.4745518225065
 31
0.0
  0
LINE
  5
37B52
330
A
100
AcDbEntity
  8
Hawa6
 48
0.2
100
AcDbLine
 10
1726.383218392802
 20
284.1745518225065
 30
0.0
 11
1728.583255392803
 21
285.4745558225065
 31
0.0
  0
LINE
  5
37B53
330
A
100
AcDbEntity
  8
Hawa6
 48
0.2
100
AcDbLine
 10
1728.583391392803
 20
285.4745608225065
 30
0.0
 11
1728.583391392803
 21
284.1745728225065
 31
0.0
  0
LINE
  5
37B54
330
A
100
AcDbEntity
  8
Hawa6
 48
0.2
100
AcDbLine
 10
1726.383379392802
 20
285.4745608225065
 30
0.0
 11
1728.583391392803
 21
285.4745608225065
 31
0.0
  0
LINE
  5
37B55
330
A
100
AcDbEntity
  8
Hawa6
 48
0.2
100
AcDbLine
 10
1726.383379392802
 20
284.1745728225065
 30
0.0
 11
1728.583391392803
 21
284.1745728225065
 31
0.0
  0
LINE
  5
37B56
330
A
100
AcDbEntity
  8
Hawa6
 48
0.2
100
AcDbLine
 10
1726.383379392802
 20
285.4745608225065
 30
0.0
 11
1726.383379392802
 21
284.1745728225065
 31
0.0
  0
LINE
  5
37B57
330
A
100
AcDbEntity
  8
Hawa6
 48
0.2
100
AcDbLine
 10
1651.783342392802
 20
348.6745518225065
 30
0.0
 11
1649.583329392802
 21
349.9745398225065
 31
0.0
  0
LINE
  5
37B58
330
A
100
AcDbEntity
  8
Hawa6
 48
0.2
100
AcDbLine
 10
1649.583314392802
 20
348.6745598225065
 30
0.0
 11
1651.783349392802
 21
349.9745628225065
 31
0.0
  0
LINE
  5
37B59
330
A
100
AcDbEntity
  8
Hawa6
 48
0.2
100
AcDbLine
 10
1651.783342392802
 20
349.9745628225065
 30
0.0
 11
1651.783342392802
 21
348.6745748225065
 31
0.0
  0
LINE
  5
37B5A
330
A
100
AcDbEntity
  8
Hawa6
 48
0.2
100
AcDbLine
 10
1649.583329392802
 20
348.6745748225065
 30
0.0
 11
1651.783342392802
 21
348.6745748225065
 31
0.0
  0
LINE
  5
37B5B
330
A
100
AcDbEntity
  8
Hawa6
 48
0.2
100
AcDbLine
 10
1649.583329392802
 20
349.9745628225065
 30
0.0
 11
1651.783342392802
 21
349.9745628225065
 31
0.0
  0
LINE
  5
37B5C
330
A
100
AcDbEntity
  8
Hawa6
 48
0.2
100
AcDbLine
 10
1649.583329392802
 20
349.9745628225065
 30
0.0
 11
1649.583329392802
 21
348.6745748225065
 31
0.0
  0
LINE
  5
37B5D
330
A
100
AcDbEntity
  8
Hawa6
 48
0.2
100
AcDbLine
 10
1707.183366392802
 20
297.6745748225066
 30
0.0
 11
1709.383378392803
 21
297.6745748225066
 31
0.0
  0
LINE
  5
37B5E
330
A
100
AcDbEntity
  8
Hawa6
 48
0.2
100
AcDbLine
 10
1707.183366392802
 20
298.9745628225065
 30
0.0
 11
1707.183366392802
 21
297.6745748225066
 31
0.0
  0
LINE
  5
37B5F
330
A
100
AcDbEntity
  8
Hawa6
 48
0.2
100
AcDbLine
 10
1710.183290392802
 20
301.1745488225065
 30
0.0
 11
1707.983253392803
 21
302.4745518225066
 31
0.0
  0
LINE
  5
37B60
330
A
100
AcDbEntity
  8
Hawa6
 48
0.2
100
AcDbLine
 10
1707.983287392802
 20
301.1745748225065
 30
0.0
 11
1710.183325392802
 21
302.4745778225065
 31
0.0
  0
LINE
  5
37B61
330
A
100
AcDbEntity
  8
Hawa6
 48
0.2
100
AcDbLine
 10
1710.183366392802
 20
302.4745628225065
 30
0.0
 11
1710.183366392802
 21
301.1745748225065
 31
0.0
  0
LINE
  5
37B62
330
A
100
AcDbEntity
  8
Hawa6
 48
0.2
100
AcDbLine
 10
1709.383378392803
 20
298.9745628225065
 30
0.0
 11
1709.383378392803
 21
297.6745748225066
 31
0.0
  0
LINE
  5
37B63
330
A
100
AcDbEntity
  8
Hawa6
 48
0.2
100
AcDbLine
 10
1707.183366392802
 20
298.9745628225065
 30
0.0
 11
1709.383378392803
 21
298.9745628225065
 31
0.0
  0
LINE
  5
37B64
330
A
100
AcDbEntity
  8
Hawa6
 48
0.2
100
AcDbLine
 10
1707.183236392802
 20
280.6745658225065
 30
0.0
 11
1709.383275392802
 21
281.9745668225065
 31
0.0
  0
LINE
  5
37B65
330
A
100
AcDbEntity
  8
Hawa6
 48
0.2
100
AcDbLine
 10
1709.383378392803
 20
281.9745608225066
 30
0.0
 11
1709.383378392803
 21
280.6745728225065
 31
0.0
  0
LINE
  5
37B66
330
A
100
AcDbEntity
  8
Hawa6
 48
0.2
100
AcDbLine
 10
1709.383300392802
 20
297.6745518225065
 30
0.0
 11
1707.183263392803
 21
298.9745558225065
 31
0.0
  0
LINE
  5
37B67
330
A
100
AcDbEntity
  8
Hawa6
 48
0.2
100
AcDbLine
 10
1707.983354392802
 20
302.4745628225065
 30
0.0
 11
1710.183366392802
 21
302.4745628225065
 31
0.0
  0
LINE
  5
37B68
330
A
100
AcDbEntity
  8
Hawa6
 48
0.2
100
AcDbLine
 10
1707.183366392802
 20
280.6745728225065
 30
0.0
 11
1709.383378392803
 21
280.6745728225065
 31
0.0
  0
LINE
  5
37B69
330
A
100
AcDbEntity
  8
Hawa6
 48
0.2
100
AcDbLine
 10
1707.183366392802
 20
281.9745608225066
 30
0.0
 11
1707.183366392802
 21
280.6745728225065
 31
0.0
  0
LINE
  5
37B6A
330
A
100
AcDbEntity
  8
Hawa6
 48
0.2
100
AcDbLine
 10
1707.183261392802
 20
297.6745748225066
 30
0.0
 11
1709.383298392802
 21
298.9745778225065
 31
0.0
  0
LINE
  5
37B6B
330
A
100
AcDbEntity
  8
Hawa6
 48
0.2
100
AcDbLine
 10
1707.183366392802
 20
281.9745608225066
 30
0.0
 11
1709.383378392803
 21
281.9745608225066
 31
0.0
  0
LINE
  5
37B6C
330
A
100
AcDbEntity
  8
Hawa6
 48
0.2
100
AcDbLine
 10
1688.783284392803
 20
314.6745518225065
 30
0.0
 11
1690.983323392802
 21
315.9745558225065
 31
0.0
  0
LINE
  5
37B6D
330
A
100
AcDbEntity
  8
Hawa6
 48
0.2
100
AcDbLine
 10
1690.983354392803
 20
315.9745628225065
 30
0.0
 11
1690.983354392803
 21
314.6745748225066
 31
0.0
  0
LINE
  5
37B6E
330
A
100
AcDbEntity
  8
Hawa6
 48
0.2
100
AcDbLine
 10
1688.783342392802
 20
315.9745628225065
 30
0.0
 11
1690.983354392803
 21
315.9745628225065
 31
0.0
  0
LINE
  5
37B6F
330
A
100
AcDbEntity
  8
Hawa6
 48
0.2
100
AcDbLine
 10
1688.783342392802
 20
314.6745748225066
 30
0.0
 11
1690.983354392803
 21
314.6745748225066
 31
0.0
  0
LINE
  5
37B70
330
A
100
AcDbEntity
  8
Hawa6
 48
0.2
100
AcDbLine
 10
1688.783342392802
 20
315.9745628225065
 30
0.0
 11
1688.783342392802
 21
314.6745748225066
 31
0.0
  0
LINE
  5
37B71
330
A
100
AcDbEntity
  8
Hawa6
 48
0.2
100
AcDbLine
 10
1690.983323392802
 20
314.6745488225065
 30
0.0
 11
1688.783284392803
 21
315.9745518225065
 31
0.0
  0
LINE
  5
37B72
330
A
100
AcDbEntity
  8
Hawa6
 48
0.2
100
AcDbLine
 10
1709.383272392803
 20
280.6745718225065
 30
0.0
 11
1707.183235392802
 21
281.9745748225065
 31
0.0
  0
LINE
  5
37B73
330
A
100
AcDbEntity
  8
Hawa6
 48
0.2
100
AcDbLine
 10
1690.183362392803
 20
318.1745448225065
 30
0.0
 11
1687.983327392802
 21
319.4745478225065
 31
0.0
  0
LINE
  5
37B74
330
A
100
AcDbEntity
  8
Hawa6
 48
0.2
100
AcDbLine
 10
1687.983297392802
 20
318.1745518225065
 30
0.0
 11
1690.183332392803
 21
319.4745518225065
 31
0.0
  0
LINE
  5
37B75
330
A
100
AcDbEntity
  8
Hawa6
 48
0.2
100
AcDbLine
 10
1687.983354392802
 20
319.4745628225065
 30
0.0
 11
1690.183366392802
 21
319.4745628225065
 31
0.0
  0
LINE
  5
37B76
330
A
100
AcDbEntity
  8
Hawa6
 48
0.2
100
AcDbLine
 10
1687.983354392802
 20
318.1745748225065
 30
0.0
 11
1690.183366392802
 21
318.1745748225065
 31
0.0
  0
LINE
  5
37B77
330
A
100
AcDbEntity
  8
Hawa6
 48
0.2
100
AcDbLine
 10
1687.983354392802
 20
319.4745628225065
 30
0.0
 11
1687.983354392802
 21
318.1745748225065
 31
0.0
  0
LINE
  5
37B78
330
A
100
AcDbEntity
  8
Hawa6
 48
0.2
100
AcDbLine
 10
1762.383172392803
 20
285.4745858225065
 30
0.0
 11
1764.583211392803
 21
284.1745828225065
 31
0.0
  0
LINE
  5
37B79
330
A
100
AcDbEntity
  8
Hawa6
 48
0.2
100
AcDbLine
 10
1764.583177392802
 20
285.4744388225065
 30
0.0
 11
1762.383085392803
 21
284.1744038225065
 31
0.0
  0
LINE
  5
37B7A
330
A
100
AcDbEntity
  8
Hawa6
 48
0.2
100
AcDbLine
 10
1762.383439392802
 20
284.1745728225065
 30
0.0
 11
1762.383439392802
 21
285.4745608225065
 31
0.0
  0
LINE
  5
37B7B
330
A
100
AcDbEntity
  8
Hawa6
 48
0.2
100
AcDbLine
 10
1764.583452392803
 20
284.1745728225065
 30
0.0
 11
1762.383439392802
 21
284.1745728225065
 31
0.0
  0
LINE
  5
37B7C
330
A
100
AcDbEntity
  8
Hawa6
 48
0.2
100
AcDbLine
 10
1764.583452392803
 20
285.4745608225065
 30
0.0
 11
1762.383439392802
 21
285.4745608225065
 31
0.0
  0
LINE
  5
37B7D
330
A
100
AcDbEntity
  8
Hawa6
 48
0.2
100
AcDbLine
 10
1764.583452392803
 20
284.1745728225065
 30
0.0
 11
1764.583452392803
 21
285.4745608225065
 31
0.0
  0
LINE
  5
37B7E
330
A
100
AcDbEntity
  8
Hawa6
 48
0.2
100
AcDbLine
 10
1723.983133392803
 20
319.4745898225066
 30
0.0
 11
1726.183170392802
 21
318.1745908225065
 31
0.0
  0
LINE
  5
37B7F
330
A
100
AcDbEntity
  8
Hawa6
 48
0.2
100
AcDbLine
 10
1726.183178392802
 20
319.4744448225065
 30
0.0
 11
1723.983089392802
 21
318.1744108225065
 31
0.0
  0
LINE
  5
37B80
330
A
100
AcDbEntity
  8
Hawa6
 48
0.2
100
AcDbLine
 10
1723.983415392802
 20
318.1745748225065
 30
0.0
 11
1723.983415392802
 21
319.4745628225065
 31
0.0
  0
LINE
  5
37B81
330
A
100
AcDbEntity
  8
Hawa6
 48
0.2
100
AcDbLine
 10
1726.183427392802
 20
318.1745748225065
 30
0.0
 11
1723.983415392802
 21
318.1745748225065
 31
0.0
  0
LINE
  5
37B82
330
A
100
AcDbEntity
  8
Hawa6
 48
0.2
100
AcDbLine
 10
1726.183427392802
 20
319.4745628225065
 30
0.0
 11
1723.983415392802
 21
319.4745628225065
 31
0.0
  0
LINE
  5
37B83
330
A
100
AcDbEntity
  8
Hawa6
 48
0.2
100
AcDbLine
 10
1726.183427392802
 20
318.1745748225065
 30
0.0
 11
1726.183427392802
 21
319.4745628225065
 31
0.0
  0
LINE
  5
37B84
330
A
100
AcDbEntity
  8
Hawa6
 48
0.2
100
AcDbLine
 10
1684.783120392802
 20
319.4746168225065
 30
0.0
 11
1686.983159392802
 21
318.1746138225066
 31
0.0
  0
LINE
  5
37B85
330
A
100
AcDbEntity
  8
Hawa6
 48
0.2
100
AcDbLine
 10
1686.983159392802
 20
319.4744298225065
 30
0.0
 11
1684.783071392802
 21
318.1743958225065
 31
0.0
  0
LINE
  5
37B86
330
A
100
AcDbEntity
  8
Hawa6
 48
0.2
100
AcDbLine
 10
1684.783403392802
 20
318.1745748225065
 30
0.0
 11
1684.783403392802
 21
319.4745628225065
 31
0.0
  0
LINE
  5
37B87
330
A
100
AcDbEntity
  8
Hawa6
 48
0.2
100
AcDbLine
 10
1686.983415392802
 20
318.1745748225065
 30
0.0
 11
1684.783403392802
 21
318.1745748225065
 31
0.0
  0
LINE
  5
37B88
330
A
100
AcDbEntity
  8
Hawa6
 48
0.2
100
AcDbLine
 10
1686.983415392802
 20
319.4745628225065
 30
0.0
 11
1684.783403392802
 21
319.4745628225065
 31
0.0
  0
LINE
  5
37B89
330
A
100
AcDbEntity
  8
Hawa6
 48
0.2
100
AcDbLine
 10
1686.983415392802
 20
318.1745748225065
 30
0.0
 11
1686.983415392802
 21
319.4745628225065
 31
0.0
  0
LINE
  5
37B8A
330
A
100
AcDbEntity
  8
Hawa6
 48
0.2
100
AcDbLine
 10
1685.583123392802
 20
332.9746318225065
 30
0.0
 11
1687.783162392802
 21
331.6746288225065
 31
0.0
  0
LINE
  5
37B8B
330
A
100
AcDbEntity
  8
Hawa6
 48
0.2
100
AcDbLine
 10
1687.783174392802
 20
332.9744408225065
 30
0.0
 11
1685.583082392803
 21
331.6744078225065
 31
0.0
  0
LINE
  5
37B8C
330
A
100
AcDbEntity
  8
Hawa6
 48
0.2
100
AcDbLine
 10
1685.583391392802
 20
331.6745748225065
 30
0.0
 11
1685.583391392802
 21
332.9745628225065
 31
0.0
  0
LINE
  5
37B8D
330
A
100
AcDbEntity
  8
Hawa6
 48
0.2
100
AcDbLine
 10
1687.783403392802
 20
331.6745748225065
 30
0.0
 11
1685.583391392802
 21
331.6745748225065
 31
0.0
  0
LINE
  5
37B8E
330
A
100
AcDbEntity
  8
Hawa6
 48
0.2
100
AcDbLine
 10
1687.783403392802
 20
332.9745628225065
 30
0.0
 11
1685.583391392802
 21
332.9745628225065
 31
0.0
  0
LINE
  5
37B8F
330
A
100
AcDbEntity
  8
Hawa6
 48
0.2
100
AcDbLine
 10
1687.783403392802
 20
331.6745748225065
 30
0.0
 11
1687.783403392802
 21
332.9745628225065
 31
0.0
  0
LINE
  5
37B90
330
A
100
AcDbEntity
  8
Hawa6
 48
0.2
100
AcDbLine
 10
1743.183158392803
 20
298.9746358225065
 30
0.0
 11
1745.383195392802
 21
297.6746328225065
 31
0.0
  0
LINE
  5
37B91
330
A
100
AcDbEntity
  8
Hawa6
 48
0.2
100
AcDbLine
 10
1745.383228392802
 20
298.9744558225065
 30
0.0
 11
1743.183137392803
 21
297.6744228225065
 31
0.0
  0
LINE
  5
37B92
330
A
100
AcDbEntity
  8
Hawa6
 48
0.2
100
AcDbLine
 10
1707.983354392802
 20
302.4745628225065
 30
0.0
 11
1707.983354392802
 21
301.1745748225065
 31
0.0
  0
LINE
  5
37B93
330
A
100
AcDbEntity
  8
Hawa6
 48
0.2
100
AcDbLine
 10
1707.983354392802
 20
301.1745748225065
 30
0.0
 11
1710.183366392802
 21
301.1745748225065
 31
0.0
  0
LINE
  5
37B94
330
A
100
AcDbEntity
  8
Hawa6
 48
0.2
100
AcDbLine
 10
1743.183427392802
 20
297.6745748225066
 30
0.0
 11
1743.183427392802
 21
298.9745628225065
 31
0.0
  0
LINE
  5
37B95
330
A
100
AcDbEntity
  8
Hawa6
 48
0.2
100
AcDbLine
 10
1745.383439392802
 20
297.6745748225066
 30
0.0
 11
1743.183427392802
 21
297.6745748225066
 31
0.0
  0
LINE
  5
37B96
330
A
100
AcDbEntity
  8
Hawa6
 48
0.2
100
AcDbLine
 10
1745.383439392802
 20
298.9745628225065
 30
0.0
 11
1743.183427392802
 21
298.9745628225065
 31
0.0
  0
LINE
  5
37B97
330
A
100
AcDbEntity
  8
Hawa6
 48
0.2
100
AcDbLine
 10
1745.383439392802
 20
297.6745748225066
 30
0.0
 11
1745.383439392802
 21
298.9745628225065
 31
0.0
  0
POINT
  5
37B98
330
A
100
AcDbEntity
  8
Hawa6
 48
0.2
100
AcDbPoint
 10
1676.815118392802
 20
191.7473828225065
 30
0.0
  0
POINT
  5
37B99
330
A
100
AcDbEntity
  8
Hawa6
 48
0.2
100
AcDbPoint
 10
1693.285699392802
 20
191.7473828225065
 30
0.0
  0
POINT
  5
37B9A
330
A
100
AcDbEntity
  8
Hawa6
 48
0.2
100
AcDbPoint
 10
1693.285688392802
 20
189.5126718225064
 30
0.0
  0
POINT
  5
37B9B
330
A
100
AcDbEntity
  8
Hawa6
 48
0.2
100
AcDbPoint
 10
1676.815084392802
 20
189.5126798225065
 30
0.0
  0
POINT
  5
37B9C
330
A
100
AcDbEntity
  8
Hawa6
 48
0.2
100
AcDbPoint
 10
1693.285692392802
 20
191.7473668225065
 30
0.0
  0
POINT
  5
37B9D
330
A
100
AcDbEntity
  8
Hawa6
 48
0.2
100
AcDbPoint
 10
1694.050397392802
 20
190.7754438225065
 30
0.0
  0
POINT
  5
37B9E
330
A
100
AcDbEntity
  8
Hawa6
 48
0.2
100
AcDbPoint
 10
1694.050397392802
 20
190.4846108225065
 30
0.0
  0
POINT
  5
37B9F
330
A
100
AcDbEntity
  8
Hawa6
 48
0.2
100
AcDbPoint
 10
1693.285692392802
 20
189.5126868225065
 30
0.0
  0
POINT
  5
37BA0
330
A
100
AcDbEntity
  8
Hawa6
 48
0.2
100
AcDbPoint
 10
1676.050397392802
 20
190.7754438225065
 30
0.0
  0
POINT
  5
37BA1
330
A
100
AcDbEntity
  8
Hawa6
 48
0.2
100
AcDbPoint
 10
1676.815103392802
 20
191.7473668225065
 30
0.0
  0
POINT
  5
37BA2
330
A
100
AcDbEntity
  8
Hawa6
 48
0.2
100
AcDbPoint
 10
1676.815103392802
 20
189.5126868225065
 30
0.0
  0
POINT
  5
37BA3
330
A
100
AcDbEntity
  8
Hawa6
 48
0.2
100
AcDbPoint
 10
1676.050397392802
 20
190.4846108225065
 30
0.0
  0
POINT
  5
37BA5
330
A
100
AcDbEntity
  8
Hawa6
 48
0.2
100
AcDbPoint
 10
1701.050418392803
 20
211.1300688225065
 30
0.0
  0
POINT
  5
37BA6
330
A
100
AcDbEntity
  8
Hawa6
 48
0.2
100
AcDbPoint
 10
1701.050418392803
 20
225.1300688225065
 30
0.0
  0
POINT
  5
37BA8
330
A
100
AcDbEntity
  8
Hawa6
 48
0.2
100
AcDbPoint
 10
1666.884515392802
 20
208.6300688225065
 30
0.0
  0
POINT
  5
37BAE
330
A
100
AcDbEntity
  8
Hawa6
 48
0.2
100
AcDbPoint
 10
1676.050416392802
 20
219.7754858225065
 30
0.0
  0
POINT
  5
37BB1
330
A
100
AcDbEntity
  8
Hawa6
 48
0.2
100
AcDbPoint
 10
1676.050416392802
 20
219.4846528225065
 30
0.0
  0
POINT
  5
37BB5
330
A
100
AcDbEntity
  8
Hawa6
 48
0.2
100
AcDbPoint
 10
1703.216319392803
 20
201.6300688225065
 30
0.0
  0
POINT
  5
37BB8
330
A
100
AcDbEntity
  8
Hawa6
 48
0.2
100
AcDbPoint
 10
1667.050416392802
 20
200.8580658225065
 30
0.0
  0
POINT
  5
37BB9
330
A
100
AcDbEntity
  8
Hawa6
 48
0.2
100
AcDbPoint
 10
1666.884515392802
 20
208.6300688225065
 30
0.0
  0
POINT
  5
37BBA
330
A
100
AcDbEntity
  8
Hawa6
 48
0.2
100
AcDbPoint
 10
1703.216319392803
 20
201.6300688225065
 30
0.0
  0
POINT
  5
37BBB
330
A
100
AcDbEntity
  8
Hawa6
 48
0.2
100
AcDbPoint
 10
1667.050416392802
 20
200.8580658225065
 30
0.0
  0
POINT
  5
37BBE
330
A
100
AcDbEntity
  8
Hawa6
 48
0.2
100
AcDbPoint
 10
1769.550416392803
 20
219.7754858225065
 30
0.0
  0
POINT
  5
37BBF
330
A
100
AcDbEntity
  8
Hawa6
 48
0.2
100
AcDbPoint
 10
1770.315122392802
 20
220.7474088225065
 30
0.0
  0
POINT
  5
37BC0
330
A
100
AcDbEntity
  8
Hawa6
 48
0.2
100
AcDbPoint
 10
1770.315122392802
 20
218.5127288225065
 30
0.0
  0
POINT
  5
37BC1
330
A
100
AcDbEntity
  8
Hawa6
 48
0.2
100
AcDbPoint
 10
1769.550416392803
 20
219.4846528225065
 30
0.0
  0
POINT
  5
37BC2
330
A
100
AcDbEntity
  8
Hawa6
 48
0.2
100
AcDbPoint
 10
1786.785711392802
 20
220.7474088225065
 30
0.0
  0
POINT
  5
37BC3
330
A
100
AcDbEntity
  8
Hawa6
 48
0.2
100
AcDbPoint
 10
1787.550416392803
 20
219.7754858225065
 30
0.0
  0
POINT
  5
37BC4
330
A
100
AcDbEntity
  8
Hawa6
 48
0.2
100
AcDbPoint
 10
1787.550416392803
 20
219.4846528225065
 30
0.0
  0
POINT
  5
37BC5
330
A
100
AcDbEntity
  8
Hawa6
 48
0.2
100
AcDbPoint
 10
1786.785711392802
 20
218.5127288225065
 30
0.0
  0
POINT
  5
37BC6
330
A
100
AcDbEntity
  8
Hawa6
 48
0.2
100
AcDbPoint
 10
1770.315137392802
 20
220.7474248225066
 30
0.0
  0
POINT
  5
37BC7
330
A
100
AcDbEntity
  8
Hawa6
 48
0.2
100
AcDbPoint
 10
1786.785726392803
 20
220.7474168225065
 30
0.0
  0
POINT
  5
37BC8
330
A
100
AcDbEntity
  8
Hawa6
 48
0.2
100
AcDbPoint
 10
1786.785695392802
 20
218.5127098225065
 30
0.0
  0
POINT
  5
37BC9
330
A
100
AcDbEntity
  8
Hawa6
 48
0.2
100
AcDbPoint
 10
1770.315107392803
 20
218.5127178225065
 30
0.0
  0
POINT
  5
37BCA
330
A
100
AcDbEntity
  8
Hawa6
 48
0.2
100
AcDbPoint
 10
1796.550416392802
 20
238.1112018225065
 30
0.0
  0
POINT
  5
37BCC
330
A
100
AcDbEntity
  8
Hawa6
 48
0.2
100
AcDbPoint
 10
1760.384515392803
 20
237.3391988225066
 30
0.0
  0
POINT
  5
37BCD
330
A
100
AcDbEntity
  8
Hawa6
 48
0.2
100
AcDbPoint
 10
1796.550416392802
 20
238.1112018225065
 30
0.0
  0
POINT
  5
37BCF
330
A
100
AcDbEntity
  8
Hawa6
 48
0.2
100
AcDbPoint
 10
1760.384515392803
 20
237.3391988225066
 30
0.0
  0
POINT
  5
37BD0
330
A
100
AcDbEntity
  8
Hawa1
 48
0.2
100
AcDbPoint
 10
1662.371763392803
 20
353.5173868225065
 30
0.0
  0
POINT
  5
37BD1
330
A
100
AcDbEntity
  8
Hawa1
 48
0.2
100
AcDbPoint
 10
1661.171769392802
 20
352.8245618225065
 30
0.0
  0
POINT
  5
37BD2
330
A
100
AcDbEntity
  8
Hawa1
 48
0.2
100
AcDbPoint
 10
1662.371763392803
 20
352.1317518225065
 30
0.0
  0
POINT
  5
37BD3
330
A
100
AcDbEntity
  8
Hawa1
 48
0.2
100
AcDbPoint
 10
1661.171769392802
 20
352.8245688225065
 30
0.0
  0
POINT
  5
37BD4
330
A
100
AcDbEntity
  8
Hawa1
 48
0.2
100
AcDbPoint
 10
1662.371766392802
 20
352.1317518225065
 30
0.0
  0
POINT
  5
37BD5
330
A
100
AcDbEntity
  8
Hawa1
 48
0.2
100
AcDbPoint
 10
1662.371766392802
 20
353.5173868225065
 30
0.0
  0
POINT
  5
37BD6
330
A
100
AcDbEntity
  8
Hawa1
 48
0.2
100
AcDbPoint
 10
1663.871763392803
 20
333.0173868225065
 30
0.0
  0
POINT
  5
37BD7
330
A
100
AcDbEntity
  8
Hawa1
 48
0.2
100
AcDbPoint
 10
1662.671766392803
 20
332.3245618225066
 30
0.0
  0
POINT
  5
37BD8
330
A
100
AcDbEntity
  8
Hawa1
 48
0.2
100
AcDbPoint
 10
1663.871763392803
 20
331.6317518225066
 30
0.0
  0
POINT
  5
37BD9
330
A
100
AcDbEntity
  8
Hawa1
 48
0.2
100
AcDbPoint
 10
1662.671766392803
 20
332.3245688225065
 30
0.0
  0
POINT
  5
37BDA
330
A
100
AcDbEntity
  8
Hawa1
 48
0.2
100
AcDbPoint
 10
1663.871766392803
 20
331.6317518225066
 30
0.0
  0
POINT
  5
37BDB
330
A
100
AcDbEntity
  8
Hawa1
 48
0.2
100
AcDbPoint
 10
1663.871766392803
 20
333.0173868225065
 30
0.0
  0
POINT
  5
37BDC
330
A
100
AcDbEntity
  8
Hawa1
 48
0.2
100
AcDbPoint
 10
1683.071775392803
 20
336.5173868225065
 30
0.0
  0
POINT
  5
37BDD
330
A
100
AcDbEntity
  8
Hawa1
 48
0.2
100
AcDbPoint
 10
1681.871778392802
 20
335.8245618225065
 30
0.0
  0
POINT
  5
37BDE
330
A
100
AcDbEntity
  8
Hawa1
 48
0.2
100
AcDbPoint
 10
1683.071775392803
 20
335.1317518225065
 30
0.0
  0
POINT
  5
37BDF
330
A
100
AcDbEntity
  8
Hawa1
 48
0.2
100
AcDbPoint
 10
1681.871778392802
 20
335.8245688225065
 30
0.0
  0
POINT
  5
37BE0
330
A
100
AcDbEntity
  8
Hawa1
 48
0.2
100
AcDbPoint
 10
1683.071779392802
 20
335.1317518225065
 30
0.0
  0
POINT
  5
37BE1
330
A
100
AcDbEntity
  8
Hawa1
 48
0.2
100
AcDbPoint
 10
1683.071779392802
 20
336.5173868225065
 30
0.0
  0
POINT
  5
37BE2
330
A
100
AcDbEntity
  8
Hawa1
 48
0.2
100
AcDbPoint
 10
1702.271787392802
 20
316.0173828225065
 30
0.0
  0
POINT
  5
37BE3
330
A
100
AcDbEntity
  8
Hawa1
 48
0.2
100
AcDbPoint
 10
1701.071790392802
 20
315.3245648225066
 30
0.0
  0
POINT
  5
37BE4
330
A
100
AcDbEntity
  8
Hawa1
 48
0.2
100
AcDbPoint
 10
1702.271787392802
 20
314.6317518225065
 30
0.0
  0
POINT
  5
37BE5
330
A
100
AcDbEntity
  8
Hawa1
 48
0.2
100
AcDbPoint
 10
1701.071790392802
 20
315.3245688225065
 30
0.0
  0
POINT
  5
37BE6
330
A
100
AcDbEntity
  8
Hawa1
 48
0.2
100
AcDbPoint
 10
1702.271793392803
 20
314.6317478225066
 30
0.0
  0
POINT
  5
37BE7
330
A
100
AcDbEntity
  8
Hawa1
 48
0.2
100
AcDbPoint
 10
1702.271791392802
 20
316.0173868225065
 30
0.0
  0
POINT
  5
37BE8
330
A
100
AcDbEntity
  8
Hawa1
 48
0.2
100
AcDbPoint
 10
1663.871763392803
 20
316.0173828225065
 30
0.0
  0
POINT
  5
37BE9
330
A
100
AcDbEntity
  8
Hawa1
 48
0.2
100
AcDbPoint
 10
1662.671766392803
 20
315.3245648225066
 30
0.0
  0
POINT
  5
37BEA
330
A
100
AcDbEntity
  8
Hawa1
 48
0.2
100
AcDbPoint
 10
1663.871763392803
 20
314.6317518225065
 30
0.0
  0
POINT
  5
37BEB
330
A
100
AcDbEntity
  8
Hawa1
 48
0.2
100
AcDbPoint
 10
1662.671766392803
 20
315.3245688225065
 30
0.0
  0
POINT
  5
37BEC
330
A
100
AcDbEntity
  8
Hawa1
 48
0.2
100
AcDbPoint
 10
1663.871766392803
 20
314.6317478225066
 30
0.0
  0
POINT
  5
37BED
330
A
100
AcDbEntity
  8
Hawa1
 48
0.2
100
AcDbPoint
 10
1663.871766392803
 20
316.0173868225065
 30
0.0
  0
POINT
  5
37BEE
330
A
100
AcDbEntity
  8
Hawa1
 48
0.2
100
AcDbPoint
 10
1663.871763392803
 20
299.0173828225065
 30
0.0
  0
POINT
  5
37BEF
330
A
100
AcDbEntity
  8
Hawa1
 48
0.2
100
AcDbPoint
 10
1662.671766392803
 20
298.3245648225065
 30
0.0
  0
POINT
  5
37BF0
330
A
100
AcDbEntity
  8
Hawa1
 48
0.2
100
AcDbPoint
 10
1663.871763392803
 20
297.6317518225065
 30
0.0
  0
POINT
  5
37BF1
330
A
100
AcDbEntity
  8
Hawa1
 48
0.2
100
AcDbPoint
 10
1662.671766392803
 20
298.3245688225066
 30
0.0
  0
POINT
  5
37BF2
330
A
100
AcDbEntity
  8
Hawa1
 48
0.2
100
AcDbPoint
 10
1663.871766392803
 20
297.6317478225066
 30
0.0
  0
POINT
  5
37BF3
330
A
100
AcDbEntity
  8
Hawa1
 48
0.2
100
AcDbPoint
 10
1663.871766392803
 20
299.0173868225065
 30
0.0
  0
POINT
  5
37BF4
330
A
100
AcDbEntity
  8
Hawa1
 48
0.2
100
AcDbPoint
 10
1683.071775392803
 20
302.5173828225065
 30
0.0
  0
POINT
  5
37BF5
330
A
100
AcDbEntity
  8
Hawa1
 48
0.2
100
AcDbPoint
 10
1681.871778392802
 20
301.8245648225065
 30
0.0
  0
POINT
  5
37BF6
330
A
100
AcDbEntity
  8
Hawa1
 48
0.2
100
AcDbPoint
 10
1683.071775392803
 20
301.1317518225065
 30
0.0
  0
POINT
  5
37BF7
330
A
100
AcDbEntity
  8
Hawa1
 48
0.2
100
AcDbPoint
 10
1681.871778392802
 20
301.8245688225065
 30
0.0
  0
POINT
  5
37BF8
330
A
100
AcDbEntity
  8
Hawa1
 48
0.2
100
AcDbPoint
 10
1683.071779392802
 20
301.1317478225066
 30
0.0
  0
POINT
  5
37BF9
330
A
100
AcDbEntity
  8
Hawa1
 48
0.2
100
AcDbPoint
 10
1683.071779392802
 20
302.5173868225065
 30
0.0
  0
POINT
  5
37BFA
330
A
100
AcDbEntity
  8
Hawa1
 48
0.2
100
AcDbPoint
 10
1721.471798392802
 20
302.5173828225065
 30
0.0
  0
POINT
  5
37BFB
330
A
100
AcDbEntity
  8
Hawa1
 48
0.2
100
AcDbPoint
 10
1720.271801392803
 20
301.8245648225065
 30
0.0
  0
POINT
  5
37BFC
330
A
100
AcDbEntity
  8
Hawa1
 48
0.2
100
AcDbPoint
 10
1721.471799392802
 20
301.1317518225065
 30
0.0
  0
POINT
  5
37BFD
330
A
100
AcDbEntity
  8
Hawa1
 48
0.2
100
AcDbPoint
 10
1720.271801392803
 20
301.8245688225065
 30
0.0
  0
POINT
  5
37BFE
330
A
100
AcDbEntity
  8
Hawa1
 48
0.2
100
AcDbPoint
 10
1721.471804392803
 20
301.1317478225066
 30
0.0
  0
POINT
  5
37BFF
330
A
100
AcDbEntity
  8
Hawa1
 48
0.2
100
AcDbPoint
 10
1721.471804392803
 20
302.5173868225065
 30
0.0
  0
POINT
  5
37C00
330
A
100
AcDbEntity
  8
Hawa1
 48
0.2
100
AcDbPoint
 10
1740.671809392802
 20
282.0173828225065
 30
0.0
  0
POINT
  5
37C01
330
A
100
AcDbEntity
  8
Hawa1
 48
0.2
100
AcDbPoint
 10
1739.471813392803
 20
281.3245648225065
 30
0.0
  0
POINT
  5
37C02
330
A
100
AcDbEntity
  8
Hawa1
 48
0.2
100
AcDbPoint
 10
1740.671811392802
 20
280.6317518225066
 30
0.0
  0
POINT
  5
37C03
330
A
100
AcDbEntity
  8
Hawa1
 48
0.2
100
AcDbPoint
 10
1739.471813392803
 20
281.3245708225066
 30
0.0
  0
POINT
  5
37C04
330
A
100
AcDbEntity
  8
Hawa1
 48
0.2
100
AcDbPoint
 10
1740.671817392802
 20
280.6317478225066
 30
0.0
  0
POINT
  5
37C05
330
A
100
AcDbEntity
  8
Hawa1
 48
0.2
100
AcDbPoint
 10
1740.671816392802
 20
282.0173868225065
 30
0.0
  0
POINT
  5
37C06
330
A
100
AcDbEntity
  8
Hawa1
 48
0.2
100
AcDbPoint
 10
1683.071775392803
 20
285.5173828225066
 30
0.0
  0
POINT
  5
37C07
330
A
100
AcDbEntity
  8
Hawa1
 48
0.2
100
AcDbPoint
 10
1681.871778392802
 20
284.8245648225065
 30
0.0
  0
POINT
  5
37C08
330
A
100
AcDbEntity
  8
Hawa1
 48
0.2
100
AcDbPoint
 10
1683.071775392803
 20
284.1317518225066
 30
0.0
  0
POINT
  5
37C09
330
A
100
AcDbEntity
  8
Hawa1
 48
0.2
100
AcDbPoint
 10
1681.871778392802
 20
284.8245708225065
 30
0.0
  0
POINT
  5
37C0A
330
A
100
AcDbEntity
  8
Hawa1
 48
0.2
100
AcDbPoint
 10
1683.071779392802
 20
284.1317478225065
 30
0.0
  0
POINT
  5
37C0B
330
A
100
AcDbEntity
  8
Hawa1
 48
0.2
100
AcDbPoint
 10
1683.071779392802
 20
285.5173868225065
 30
0.0
  0
POINT
  5
37C0C
330
A
100
AcDbEntity
  8
Hawa1
 48
0.2
100
AcDbPoint
 10
1663.871763392803
 20
282.0173828225065
 30
0.0
  0
POINT
  5
37C0D
330
A
100
AcDbEntity
  8
Hawa1
 48
0.2
100
AcDbPoint
 10
1662.671766392803
 20
281.3245648225065
 30
0.0
  0
POINT
  5
37C0E
330
A
100
AcDbEntity
  8
Hawa1
 48
0.2
100
AcDbPoint
 10
1663.871763392803
 20
280.6317518225066
 30
0.0
  0
POINT
  5
37C0F
330
A
100
AcDbEntity
  8
Hawa1
 48
0.2
100
AcDbPoint
 10
1662.671766392803
 20
281.3245708225066
 30
0.0
  0
POINT
  5
37C10
330
A
100
AcDbEntity
  8
Hawa1
 48
0.2
100
AcDbPoint
 10
1663.871766392803
 20
280.6317478225066
 30
0.0
  0
POINT
  5
37C11
330
A
100
AcDbEntity
  8
Hawa1
 48
0.2
100
AcDbPoint
 10
1663.871766392803
 20
282.0173868225065
 30
0.0
  0
POINT
  5
37C12
330
A
100
AcDbEntity
  8
Hawa1
 48
0.2
100
AcDbPoint
 10
1731.094947392803
 20
280.6317538225065
 30
0.0
  0
POINT
  5
37C13
330
A
100
AcDbEntity
  8
Hawa1
 48
0.2
100
AcDbPoint
 10
1732.294944392802
 20
281.3245708225066
 30
0.0
  0
POINT
  5
37C14
330
A
100
AcDbEntity
  8
Hawa1
 48
0.2
100
AcDbPoint
 10
1731.094946392802
 20
282.0173828225065
 30
0.0
  0
POINT
  5
37C15
330
A
100
AcDbEntity
  8
Hawa1
 48
0.2
100
AcDbPoint
 10
1732.294944392802
 20
281.3245648225065
 30
0.0
  0
POINT
  5
37C16
330
A
100
AcDbEntity
  8
Hawa1
 48
0.2
100
AcDbPoint
 10
1731.094941392802
 20
282.0173868225065
 30
0.0
  0
POINT
  5
37C17
330
A
100
AcDbEntity
  8
Hawa1
 48
0.2
100
AcDbPoint
 10
1731.094941392802
 20
280.6317498225066
 30
0.0
  0
POINT
  5
37C18
330
A
100
AcDbEntity
  8
Hawa1
 48
0.2
100
AcDbPoint
 10
1750.294959392802
 20
284.1317538225066
 30
0.0
  0
POINT
  5
37C19
330
A
100
AcDbEntity
  8
Hawa1
 48
0.2
100
AcDbPoint
 10
1751.494956392803
 20
284.8245708225065
 30
0.0
  0
POINT
  5
37C1A
330
A
100
AcDbEntity
  8
Hawa1
 48
0.2
100
AcDbPoint
 10
1750.294957392803
 20
285.5173828225066
 30
0.0
  0
POINT
  5
37C1B
330
A
100
AcDbEntity
  8
Hawa1
 48
0.2
100
AcDbPoint
 10
1751.494956392803
 20
284.8245648225065
 30
0.0
  0
POINT
  5
37C1C
330
A
100
AcDbEntity
  8
Hawa1
 48
0.2
100
AcDbPoint
 10
1750.294954392802
 20
285.5173868225065
 30
0.0
  0
POINT
  5
37C1D
330
A
100
AcDbEntity
  8
Hawa1
 48
0.2
100
AcDbPoint
 10
1750.294954392802
 20
284.1317498225066
 30
0.0
  0
POINT
  5
37C1E
330
A
100
AcDbEntity
  8
Hawa1
 48
0.2
100
AcDbPoint
 10
1731.094947392803
 20
297.6317518225065
 30
0.0
  0
POINT
  5
37C1F
330
A
100
AcDbEntity
  8
Hawa1
 48
0.2
100
AcDbPoint
 10
1732.294944392802
 20
298.3245688225066
 30
0.0
  0
POINT
  5
37C20
330
A
100
AcDbEntity
  8
Hawa1
 48
0.2
100
AcDbPoint
 10
1731.094946392802
 20
299.0173828225065
 30
0.0
  0
POINT
  5
37C21
330
A
100
AcDbEntity
  8
Hawa1
 48
0.2
100
AcDbPoint
 10
1732.294944392802
 20
298.3245648225065
 30
0.0
  0
POINT
  5
37C22
330
A
100
AcDbEntity
  8
Hawa1
 48
0.2
100
AcDbPoint
 10
1731.094941392802
 20
299.0173868225065
 30
0.0
  0
POINT
  5
37C23
330
A
100
AcDbEntity
  8
Hawa1
 48
0.2
100
AcDbPoint
 10
1731.094941392802
 20
297.6317478225066
 30
0.0
  0
POINT
  5
37C24
330
A
100
AcDbEntity
  8
Hawa1
 48
0.2
100
AcDbPoint
 10
1711.894935392803
 20
318.1317518225065
 30
0.0
  0
POINT
  5
37C25
330
A
100
AcDbEntity
  8
Hawa1
 48
0.2
100
AcDbPoint
 10
1713.094932392802
 20
318.8245688225066
 30
0.0
  0
POINT
  5
37C26
330
A
100
AcDbEntity
  8
Hawa1
 48
0.2
100
AcDbPoint
 10
1711.894934392802
 20
319.5173828225065
 30
0.0
  0
POINT
  5
37C27
330
A
100
AcDbEntity
  8
Hawa1
 48
0.2
100
AcDbPoint
 10
1713.094932392802
 20
318.8245648225065
 30
0.0
  0
POINT
  5
37C28
330
A
100
AcDbEntity
  8
Hawa1
 48
0.2
100
AcDbPoint
 10
1711.894929392802
 20
319.5173868225065
 30
0.0
  0
POINT
  5
37C29
330
A
100
AcDbEntity
  8
Hawa1
 48
0.2
100
AcDbPoint
 10
1711.894929392802
 20
318.1317478225066
 30
0.0
  0
POINT
  5
37C2A
330
A
100
AcDbEntity
  8
Hawa1
 48
0.2
100
AcDbPoint
 10
1674.994912392802
 20
335.1317518225065
 30
0.0
  0
POINT
  5
37C2B
330
A
100
AcDbEntity
  8
Hawa1
 48
0.2
100
AcDbPoint
 10
1676.194906392802
 20
335.8245688225065
 30
0.0
  0
POINT
  5
37C2C
330
A
100
AcDbEntity
  8
Hawa1
 48
0.2
100
AcDbPoint
 10
1674.994909392802
 20
336.5173868225065
 30
0.0
  0
POINT
  5
37C2D
330
A
100
AcDbEntity
  8
Hawa1
 48
0.2
100
AcDbPoint
 10
1676.194906392802
 20
335.8245618225065
 30
0.0
  0
POINT
  5
37C2E
330
A
100
AcDbEntity
  8
Hawa1
 48
0.2
100
AcDbPoint
 10
1674.994905392803
 20
336.5173868225065
 30
0.0
  0
POINT
  5
37C2F
330
A
100
AcDbEntity
  8
Hawa1
 48
0.2
100
AcDbPoint
 10
1674.994905392803
 20
335.1317518225065
 30
0.0
  0
POINT
  5
37C30
330
A
100
AcDbEntity
  8
Hawa1
 48
0.2
100
AcDbPoint
 10
1673.494912392802
 20
348.6317518225066
 30
0.0
  0
POINT
  5
37C31
330
A
100
AcDbEntity
  8
Hawa1
 48
0.2
100
AcDbPoint
 10
1674.694906392802
 20
349.3245688225065
 30
0.0
  0
POINT
  5
37C32
330
A
100
AcDbEntity
  8
Hawa1
 48
0.2
100
AcDbPoint
 10
1673.494909392802
 20
350.0173868225065
 30
0.0
  0
POINT
  5
37C33
330
A
100
AcDbEntity
  8
Hawa1
 48
0.2
100
AcDbPoint
 10
1674.694906392802
 20
349.3245618225066
 30
0.0
  0
POINT
  5
37C34
330
A
100
AcDbEntity
  8
Hawa1
 48
0.2
100
AcDbPoint
 10
1673.494905392803
 20
350.0173868225065
 30
0.0
  0
POINT
  5
37C35
330
A
100
AcDbEntity
  8
Hawa1
 48
0.2
100
AcDbPoint
 10
1673.494905392803
 20
348.6317518225066
 30
0.0
  0
POINT
  5
37C36
330
A
100
AcDbEntity
  8
Hawa1
 48
0.2
100
AcDbPoint
 10
1673.494912392802
 20
318.1317518225065
 30
0.0
  0
POINT
  5
37C37
330
A
100
AcDbEntity
  8
Hawa1
 48
0.2
100
AcDbPoint
 10
1674.694906392802
 20
318.8245688225066
 30
0.0
  0
POINT
  5
37C38
330
A
100
AcDbEntity
  8
Hawa1
 48
0.2
100
AcDbPoint
 10
1673.494909392802
 20
319.5173828225065
 30
0.0
  0
POINT
  5
37C39
330
A
100
AcDbEntity
  8
Hawa1
 48
0.2
100
AcDbPoint
 10
1674.694906392802
 20
318.8245648225065
 30
0.0
  0
POINT
  5
37C3A
330
A
100
AcDbEntity
  8
Hawa1
 48
0.2
100
AcDbPoint
 10
1673.494905392803
 20
319.5173868225065
 30
0.0
  0
POINT
  5
37C3B
330
A
100
AcDbEntity
  8
Hawa1
 48
0.2
100
AcDbPoint
 10
1673.494905392803
 20
318.1317478225066
 30
0.0
  0
POINT
  5
37C3C
330
A
100
AcDbEntity
  8
Hawa1
 48
0.2
100
AcDbPoint
 10
1674.994912392802
 20
301.1317518225065
 30
0.0
  0
POINT
  5
37C3D
330
A
100
AcDbEntity
  8
Hawa1
 48
0.2
100
AcDbPoint
 10
1676.194906392802
 20
301.8245688225065
 30
0.0
  0
POINT
  5
37C3E
330
A
100
AcDbEntity
  8
Hawa1
 48
0.2
100
AcDbPoint
 10
1674.994909392802
 20
302.5173828225065
 30
0.0
  0
POINT
  5
37C3F
330
A
100
AcDbEntity
  8
Hawa1
 48
0.2
100
AcDbPoint
 10
1676.194906392802
 20
301.8245648225065
 30
0.0
  0
POINT
  5
37C40
330
A
100
AcDbEntity
  8
Hawa1
 48
0.2
100
AcDbPoint
 10
1674.994905392803
 20
302.5173868225065
 30
0.0
  0
POINT
  5
37C41
330
A
100
AcDbEntity
  8
Hawa1
 48
0.2
100
AcDbPoint
 10
1674.994905392803
 20
301.1317478225066
 30
0.0
  0
POINT
  5
37C42
330
A
100
AcDbEntity
  8
Hawa1
 48
0.2
100
AcDbPoint
 10
1674.994912392802
 20
284.1317538225066
 30
0.0
  0
POINT
  5
37C43
330
A
100
AcDbEntity
  8
Hawa1
 48
0.2
100
AcDbPoint
 10
1676.194906392802
 20
284.8245708225065
 30
0.0
  0
POINT
  5
37C44
330
A
100
AcDbEntity
  8
Hawa1
 48
0.2
100
AcDbPoint
 10
1674.994909392802
 20
285.5173828225066
 30
0.0
  0
POINT
  5
37C45
330
A
100
AcDbEntity
  8
Hawa1
 48
0.2
100
AcDbPoint
 10
1676.194906392802
 20
284.8245648225065
 30
0.0
  0
POINT
  5
37C46
330
A
100
AcDbEntity
  8
Hawa1
 48
0.2
100
AcDbPoint
 10
1674.994905392803
 20
285.5173868225065
 30
0.0
  0
POINT
  5
37C47
330
A
100
AcDbEntity
  8
Hawa1
 48
0.2
100
AcDbPoint
 10
1674.994905392803
 20
284.1317498225066
 30
0.0
  0
POINT
  5
37C48
330
A
100
AcDbEntity
  8
Hawa6
 48
0.2
100
AcDbPoint
 10
1751.250020392802
 20
365.1500698225065
 30
0.0
  0
POINT
  5
37C49
330
A
100
AcDbEntity
  8
Hawa6
 48
0.2
100
AcDbPoint
 10
1748.250020392802
 20
365.1500698225065
 30
0.0
  0
POINT
  5
37C4A
330
A
100
AcDbEntity
  8
Hawa6
 48
0.2
100
AcDbPoint
 10
1748.250020392802
 20
365.1500698225065
 30
0.0
  0
POINT
  5
37C4B
330
A
100
AcDbEntity
  8
Hawa6
 48
0.2
100
AcDbPoint
 10
1748.250020392802
 20
368.1500698225065
 30
0.0
  0
POINT
  5
37C4C
330
A
100
AcDbEntity
  8
Hawa6
 48
0.2
100
AcDbPoint
 10
1751.250020392802
 20
368.1500698225065
 30
0.0
  0
POINT
  5
37C4D
330
A
100
AcDbEntity
  8
Hawa6
 48
0.2
100
AcDbPoint
 10
1748.250020392802
 20
368.1500698225065
 30
0.0
  0
POINT
  5
37C58
330
A
100
AcDbEntity
  8
Hawa6
 48
0.2
100
AcDbPoint
 10
1670.583329392802
 20
302.5745688225065
 30
0.0
  0
POINT
  5
37C5E
330
A
100
AcDbEntity
  8
Hawa6
 48
0.2
100
AcDbPoint
 10
1670.583329392802
 20
285.5745668225065
 30
0.0
  0
POINT
  5
37C63
330
A
100
AcDbEntity
  8
Hawa6
 48
0.2
100
AcDbPoint
 10
1666.783342392802
 20
353.5745688225065
 30
0.0
  0
POINT
  5
37C65
330
A
100
AcDbEntity
  8
Hawa6
 48
0.2
100
AcDbPoint
 10
1666.783342392802
 20
353.5745688225065
 30
0.0
  0
POINT
  5
37C66
330
A
100
AcDbEntity
  8
Hawa1
 48
0.2
100
AcDbPoint
 10
1662.687516392803
 20
352.8245688225065
 30
0.0
  0
POINT
  5
37C68
330
A
100
AcDbEntity
  8
Hawa1
 48
0.2
100
AcDbPoint
 10
1664.187516392803
 20
332.3245688225065
 30
0.0
  0
POINT
  5
37C6A
330
A
100
AcDbEntity
  8
Hawa1
 48
0.2
100
AcDbPoint
 10
1683.387529392803
 20
335.8245688225065
 30
0.0
  0
POINT
  5
37C6C
330
A
100
AcDbEntity
  8
Hawa1
 48
0.2
100
AcDbPoint
 10
1702.587541392803
 20
315.3245688225065
 30
0.0
  0
POINT
  5
37C6E
330
A
100
AcDbEntity
  8
Hawa1
 48
0.2
100
AcDbPoint
 10
1664.187516392803
 20
315.3245688225065
 30
0.0
  0
POINT
  5
37C70
330
A
100
AcDbEntity
  8
Hawa1
 48
0.2
100
AcDbPoint
 10
1664.187516392803
 20
298.3245688225066
 30
0.0
  0
POINT
  5
37C72
330
A
100
AcDbEntity
  8
Hawa1
 48
0.2
100
AcDbPoint
 10
1683.387529392803
 20
301.8245688225065
 30
0.0
  0
POINT
  5
37C74
330
A
100
AcDbEntity
  8
Hawa1
 48
0.2
100
AcDbPoint
 10
1721.787553392802
 20
301.8245688225065
 30
0.0
  0
POINT
  5
37C76
330
A
100
AcDbEntity
  8
Hawa1
 48
0.2
100
AcDbPoint
 10
1740.987565392802
 20
281.3245668225065
 30
0.0
  0
POINT
  5
37C78
330
A
100
AcDbEntity
  8
Hawa1
 48
0.2
100
AcDbPoint
 10
1683.387529392803
 20
284.8245668225065
 30
0.0
  0
POINT
  5
37C7A
330
A
100
AcDbEntity
  8
Hawa1
 48
0.2
100
AcDbPoint
 10
1664.187516392803
 20
281.3245668225065
 30
0.0
  0
POINT
  5
37C7C
330
A
100
AcDbEntity
  8
Hawa1
 48
0.2
100
AcDbPoint
 10
1730.779192392802
 20
281.3245668225065
 30
0.0
  0
POINT
  5
37C7E
330
A
100
AcDbEntity
  8
Hawa1
 48
0.2
100
AcDbPoint
 10
1749.979204392802
 20
284.8245668225065
 30
0.0
  0
POINT
  5
37C80
330
A
100
AcDbEntity
  8
Hawa1
 48
0.2
100
AcDbPoint
 10
1730.779192392802
 20
298.3245688225066
 30
0.0
  0
POINT
  5
37C82
330
A
100
AcDbEntity
  8
Hawa1
 48
0.2
100
AcDbPoint
 10
1711.579179392802
 20
318.8245688225066
 30
0.0
  0
POINT
  5
37C84
330
A
100
AcDbEntity
  8
Hawa1
 48
0.2
100
AcDbPoint
 10
1674.679155392803
 20
335.8245688225065
 30
0.0
  0
POINT
  5
37C86
330
A
100
AcDbEntity
  8
Hawa1
 48
0.2
100
AcDbPoint
 10
1673.179155392802
 20
349.3245688225065
 30
0.0
  0
POINT
  5
37C88
330
A
100
AcDbEntity
  8
Hawa1
 48
0.2
100
AcDbPoint
 10
1673.179155392802
 20
318.8245688225066
 30
0.0
  0
POINT
  5
37C8A
330
A
100
AcDbEntity
  8
Hawa1
 48
0.2
100
AcDbPoint
 10
1674.679155392803
 20
301.8245688225065
 30
0.0
  0
POINT
  5
37C8C
330
A
100
AcDbEntity
  8
Hawa1
 48
0.2
100
AcDbPoint
 10
1674.679155392803
 20
284.8245668225065
 30
0.0
  0
POINT
  5
37C8E
330
A
100
AcDbEntity
  8
Hawa6
 48
0.2
100
AcDbPoint
 10
1649.583337392802
 20
318.1745748225065
 30
0.0
  0
POINT
  5
37C8F
330
A
100
AcDbEntity
  8
Hawa6
 48
0.2
100
AcDbPoint
 10
1651.783326392802
 20
319.4745478225065
 30
0.0
  0
POINT
  5
37C90
330
A
100
AcDbEntity
  8
Hawa6
 48
0.2
100
AcDbPoint
 10
1651.783319392803
 20
318.1745518225065
 30
0.0
  0
POINT
  5
37C91
330
A
100
AcDbEntity
  8
Hawa6
 48
0.2
100
AcDbPoint
 10
1649.583253392802
 20
319.4745708225065
 30
0.0
  0
POINT
  5
37C92
330
A
100
AcDbEntity
  8
Hawa6
 48
0.2
100
AcDbPoint
 10
1651.783342392802
 20
319.4745628225065
 30
0.0
  0
POINT
  5
37C93
330
A
100
AcDbEntity
  8
Hawa6
 48
0.2
100
AcDbPoint
 10
1651.783342392802
 20
318.1745748225065
 30
0.0
  0
POINT
  5
37C94
330
A
100
AcDbEntity
  8
Hawa6
 48
0.2
100
AcDbPoint
 10
1651.783342392802
 20
318.1745748225065
 30
0.0
  0
POINT
  5
37C95
330
A
100
AcDbEntity
  8
Hawa6
 48
0.2
100
AcDbPoint
 10
1649.583329392802
 20
318.1745748225065
 30
0.0
  0
POINT
  5
37C96
330
A
100
AcDbEntity
  8
Hawa6
 48
0.2
100
AcDbPoint
 10
1651.783342392802
 20
319.4745628225065
 30
0.0
  0
POINT
  5
37C97
330
A
100
AcDbEntity
  8
Hawa6
 48
0.2
100
AcDbPoint
 10
1649.583329392802
 20
319.4745628225065
 30
0.0
  0
POINT
  5
37C98
330
A
100
AcDbEntity
  8
Hawa6
 48
0.2
100
AcDbPoint
 10
1649.583329392802
 20
319.4745628225065
 30
0.0
  0
POINT
  5
37C99
330
A
100
AcDbEntity
  8
Hawa6
 48
0.2
100
AcDbPoint
 10
1649.583329392802
 20
318.1745748225065
 30
0.0
  0
POINT
  5
37C9A
330
A
100
AcDbEntity
  8
Hawa6
 48
0.2
100
AcDbPoint
 10
1649.583322392802
 20
315.9745438225065
 30
0.0
  0
POINT
  5
37C9B
330
A
100
AcDbEntity
  8
Hawa6
 48
0.2
100
AcDbPoint
 10
1651.783334392802
 20
314.6745558225065
 30
0.0
  0
POINT
  5
37C9C
330
A
100
AcDbEntity
  8
Hawa6
 48
0.2
100
AcDbPoint
 10
1651.783334392802
 20
315.9745628225065
 30
0.0
  0
POINT
  5
37C9D
330
A
100
AcDbEntity
  8
Hawa6
 48
0.2
100
AcDbPoint
 10
1649.583299392802
 20
314.6745638225065
 30
0.0
  0
POINT
  5
37C9E
330
A
100
AcDbEntity
  8
Hawa6
 48
0.2
100
AcDbPoint
 10
1651.783342392802
 20
314.6745748225066
 30
0.0
  0
POINT
  5
37C9F
330
A
100
AcDbEntity
  8
Hawa6
 48
0.2
100
AcDbPoint
 10
1651.783342392802
 20
315.9745628225065
 30
0.0
  0
POINT
  5
37CA0
330
A
100
AcDbEntity
  8
Hawa6
 48
0.2
100
AcDbPoint
 10
1651.783342392802
 20
315.9745628225065
 30
0.0
  0
POINT
  5
37CA1
330
A
100
AcDbEntity
  8
Hawa6
 48
0.2
100
AcDbPoint
 10
1649.583329392802
 20
315.9745628225065
 30
0.0
  0
POINT
  5
37CA2
330
A
100
AcDbEntity
  8
Hawa6
 48
0.2
100
AcDbPoint
 10
1651.783342392802
 20
314.6745748225066
 30
0.0
  0
POINT
  5
37CA3
330
A
100
AcDbEntity
  8
Hawa6
 48
0.2
100
AcDbPoint
 10
1649.583329392802
 20
314.6745748225066
 30
0.0
  0
POINT
  5
37CA4
330
A
100
AcDbEntity
  8
Hawa6
 48
0.2
100
AcDbPoint
 10
1649.583329392802
 20
314.6745748225066
 30
0.0
  0
POINT
  5
37CA5
330
A
100
AcDbEntity
  8
Hawa6
 48
0.2
100
AcDbPoint
 10
1649.583329392802
 20
315.9745628225065
 30
0.0
  0
POINT
  5
37CA6
330
A
100
AcDbEntity
  8
Hawa6
 48
0.2
100
AcDbPoint
 10
1649.583337392802
 20
301.1745748225065
 30
0.0
  0
POINT
  5
37CA7
330
A
100
AcDbEntity
  8
Hawa6
 48
0.2
100
AcDbPoint
 10
1651.783326392802
 20
302.4745478225066
 30
0.0
  0
POINT
  5
37CA8
330
A
100
AcDbEntity
  8
Hawa6
 48
0.2
100
AcDbPoint
 10
1651.783319392803
 20
301.1745518225065
 30
0.0
  0
POINT
  5
37CA9
330
A
100
AcDbEntity
  8
Hawa6
 48
0.2
100
AcDbPoint
 10
1649.583253392802
 20
302.4745708225065
 30
0.0
  0
POINT
  5
37CAA
330
A
100
AcDbEntity
  8
Hawa6
 48
0.2
100
AcDbPoint
 10
1651.783342392802
 20
302.4745628225065
 30
0.0
  0
POINT
  5
37CAB
330
A
100
AcDbEntity
  8
Hawa6
 48
0.2
100
AcDbPoint
 10
1651.783342392802
 20
301.1745748225065
 30
0.0
  0
POINT
  5
37CAC
330
A
100
AcDbEntity
  8
Hawa6
 48
0.2
100
AcDbPoint
 10
1651.783342392802
 20
301.1745748225065
 30
0.0
  0
POINT
  5
37CAD
330
A
100
AcDbEntity
  8
Hawa6
 48
0.2
100
AcDbPoint
 10
1649.583329392802
 20
301.1745748225065
 30
0.0
  0
POINT
  5
37CAE
330
A
100
AcDbEntity
  8
Hawa6
 48
0.2
100
AcDbPoint
 10
1651.783342392802
 20
302.4745628225065
 30
0.0
  0
POINT
  5
37CAF
330
A
100
AcDbEntity
  8
Hawa6
 48
0.2
100
AcDbPoint
 10
1649.583329392802
 20
302.4745628225065
 30
0.0
  0
POINT
  5
37CB0
330
A
100
AcDbEntity
  8
Hawa6
 48
0.2
100
AcDbPoint
 10
1649.583329392802
 20
302.4745628225065
 30
0.0
  0
POINT
  5
37CB1
330
A
100
AcDbEntity
  8
Hawa6
 48
0.2
100
AcDbPoint
 10
1649.583329392802
 20
301.1745748225065
 30
0.0
  0
POINT
  5
37CB2
330
A
100
AcDbEntity
  8
Hawa6
 48
0.2
100
AcDbPoint
 10
1649.583322392802
 20
298.9745438225065
 30
0.0
  0
POINT
  5
37CB3
330
A
100
AcDbEntity
  8
Hawa6
 48
0.2
100
AcDbPoint
 10
1651.783334392802
 20
297.6745598225065
 30
0.0
  0
POINT
  5
37CB4
330
A
100
AcDbEntity
  8
Hawa6
 48
0.2
100
AcDbPoint
 10
1651.783334392802
 20
298.9745668225065
 30
0.0
  0
POINT
  5
37CB5
330
A
100
AcDbEntity
  8
Hawa6
 48
0.2
100
AcDbPoint
 10
1649.583299392802
 20
297.6745638225065
 30
0.0
  0
POINT
  5
37CB6
330
A
100
AcDbEntity
  8
Hawa6
 48
0.2
100
AcDbPoint
 10
1651.783342392802
 20
297.6745748225066
 30
0.0
  0
POINT
  5
37CB7
330
A
100
AcDbEntity
  8
Hawa6
 48
0.2
100
AcDbPoint
 10
1651.783342392802
 20
298.9745628225065
 30
0.0
  0
POINT
  5
37CB8
330
A
100
AcDbEntity
  8
Hawa6
 48
0.2
100
AcDbPoint
 10
1651.783342392802
 20
298.9745628225065
 30
0.0
  0
POINT
  5
37CB9
330
A
100
AcDbEntity
  8
Hawa6
 48
0.2
100
AcDbPoint
 10
1649.583329392802
 20
298.9745628225065
 30
0.0
  0
POINT
  5
37CBA
330
A
100
AcDbEntity
  8
Hawa6
 48
0.2
100
AcDbPoint
 10
1651.783342392802
 20
297.6745748225066
 30
0.0
  0
POINT
  5
37CBB
330
A
100
AcDbEntity
  8
Hawa6
 48
0.2
100
AcDbPoint
 10
1649.583329392802
 20
297.6745748225066
 30
0.0
  0
POINT
  5
37CBC
330
A
100
AcDbEntity
  8
Hawa6
 48
0.2
100
AcDbPoint
 10
1649.583329392802
 20
297.6745748225066
 30
0.0
  0
POINT
  5
37CBD
330
A
100
AcDbEntity
  8
Hawa6
 48
0.2
100
AcDbPoint
 10
1649.583329392802
 20
298.9745628225065
 30
0.0
  0
POINT
  5
37CBE
330
A
100
AcDbEntity
  8
Hawa6
 48
0.2
100
AcDbPoint
 10
1649.583337392802
 20
284.1745748225065
 30
0.0
  0
POINT
  5
37CBF
330
A
100
AcDbEntity
  8
Hawa6
 48
0.2
100
AcDbPoint
 10
1651.783326392802
 20
285.4745478225066
 30
0.0
  0
POINT
  5
37CC0
330
A
100
AcDbEntity
  8
Hawa6
 48
0.2
100
AcDbPoint
 10
1651.783319392803
 20
284.1745538225065
 30
0.0
  0
POINT
  5
37CC1
330
A
100
AcDbEntity
  8
Hawa6
 48
0.2
100
AcDbPoint
 10
1649.583253392802
 20
285.4745728225065
 30
0.0
  0
POINT
  5
37CC2
330
A
100
AcDbEntity
  8
Hawa6
 48
0.2
100
AcDbPoint
 10
1651.783342392802
 20
285.4745608225065
 30
0.0
  0
POINT
  5
37CC3
330
A
100
AcDbEntity
  8
Hawa6
 48
0.2
100
AcDbPoint
 10
1651.783342392802
 20
284.1745728225065
 30
0.0
  0
POINT
  5
37CC4
330
A
100
AcDbEntity
  8
Hawa6
 48
0.2
100
AcDbPoint
 10
1651.783342392802
 20
284.1745728225065
 30
0.0
  0
POINT
  5
37CC5
330
A
100
AcDbEntity
  8
Hawa6
 48
0.2
100
AcDbPoint
 10
1649.583329392802
 20
284.1745728225065
 30
0.0
  0
POINT
  5
37CC6
330
A
100
AcDbEntity
  8
Hawa6
 48
0.2
100
AcDbPoint
 10
1651.783342392802
 20
285.4745608225065
 30
0.0
  0
POINT
  5
37CC7
330
A
100
AcDbEntity
  8
Hawa6
 48
0.2
100
AcDbPoint
 10
1649.583329392802
 20
285.4745608225065
 30
0.0
  0
POINT
  5
37CC8
330
A
100
AcDbEntity
  8
Hawa6
 48
0.2
100
AcDbPoint
 10
1649.583329392802
 20
285.4745608225065
 30
0.0
  0
POINT
  5
37CC9
330
A
100
AcDbEntity
  8
Hawa6
 48
0.2
100
AcDbPoint
 10
1649.583329392802
 20
284.1745728225065
 30
0.0
  0
POINT
  5
37CCA
330
A
100
AcDbEntity
  8
Hawa6
 48
0.2
100
AcDbPoint
 10
1649.583322392802
 20
281.9745458225065
 30
0.0
  0
POINT
  5
37CCB
330
A
100
AcDbEntity
  8
Hawa6
 48
0.2
100
AcDbPoint
 10
1651.783334392802
 20
280.6745598225065
 30
0.0
  0
POINT
  5
37CCC
330
A
100
AcDbEntity
  8
Hawa6
 48
0.2
100
AcDbPoint
 10
1651.783334392802
 20
281.9745668225065
 30
0.0
  0
POINT
  5
37CCD
330
A
100
AcDbEntity
  8
Hawa6
 48
0.2
100
AcDbPoint
 10
1649.583299392802
 20
280.6745638225065
 30
0.0
  0
POINT
  5
37CCE
330
A
100
AcDbEntity
  8
Hawa6
 48
0.2
100
AcDbPoint
 10
1651.783342392802
 20
280.6745728225065
 30
0.0
  0
POINT
  5
37CCF
330
A
100
AcDbEntity
  8
Hawa6
 48
0.2
100
AcDbPoint
 10
1651.783342392802
 20
281.9745608225066
 30
0.0
  0
POINT
  5
37CD0
330
A
100
AcDbEntity
  8
Hawa6
 48
0.2
100
AcDbPoint
 10
1651.783342392802
 20
281.9745608225066
 30
0.0
  0
POINT
  5
37CD1
330
A
100
AcDbEntity
  8
Hawa6
 48
0.2
100
AcDbPoint
 10
1649.583329392802
 20
281.9745608225066
 30
0.0
  0
POINT
  5
37CD2
330
A
100
AcDbEntity
  8
Hawa6
 48
0.2
100
AcDbPoint
 10
1651.783342392802
 20
280.6745728225065
 30
0.0
  0
POINT
  5
37CD3
330
A
100
AcDbEntity
  8
Hawa6
 48
0.2
100
AcDbPoint
 10
1649.583329392802
 20
280.6745728225065
 30
0.0
  0
POINT
  5
37CD4
330
A
100
AcDbEntity
  8
Hawa6
 48
0.2
100
AcDbPoint
 10
1649.583329392802
 20
280.6745728225065
 30
0.0
  0
POINT
  5
37CD5
330
A
100
AcDbEntity
  8
Hawa6
 48
0.2
100
AcDbPoint
 10
1649.583329392802
 20
281.9745608225066
 30
0.0
  0
POINT
  5
37CE0
330
A
100
AcDbEntity
  8
Hawa6
 48
0.2
100
AcDbPoint
 10
1676.050412392802
 20
190.7754588225065
 30
0.0
  0
POINT
  5
37CE1
330
A
100
AcDbEntity
  8
Hawa6
 48
0.2
100
AcDbPoint
 10
1676.050412392802
 20
190.4845958225065
 30
0.0
  0
POINT
  5
37CE2
330
A
100
AcDbEntity
  8
Hawa6
 48
0.2
100
AcDbPoint
 10
1694.050412392802
 20
190.7754588225065
 30
0.0
  0
POINT
  5
37CE3
330
A
100
AcDbEntity
  8
Hawa6
 48
0.2
100
AcDbPoint
 10
1694.050412392802
 20
190.4845958225065
 30
0.0
  0
POINT
  5
37CE4
330
A
100
AcDbEntity
  8
Hawa1
 48
0.2
100
AcDbPoint
 10
1804.043458392803
 20
194.0008498225065
 30
0.0
  0
POINT
  5
37CE5
330
A
100
AcDbEntity
  8
Hawa1
 48
0.2
100
AcDbPoint
 10
1804.043458392803
 20
195.8338918225065
 30
0.0
  0
POINT
  5
37CE6
330
A
100
AcDbEntity
  8
Hawa1
 48
0.2
100
AcDbPoint
 10
1804.043458392803
 20
188.9183268225065
 30
0.0
  0
POINT
  5
37CE7
330
A
100
AcDbEntity
  8
Hawa1
 48
0.2
100
AcDbPoint
 10
1801.397439392802
 20
192.3760068225065
 30
0.0
  0
POINT
  5
37CE8
330
A
100
AcDbEntity
  8
Hawa1
 48
0.2
100
AcDbPoint
 10
1804.043458392803
 20
195.8338918225065
 30
0.0
  0
POINT
  5
37CE9
330
A
100
AcDbEntity
  8
Hawa1
 48
0.2
100
AcDbPoint
 10
1801.397439392802
 20
192.3760068225065
 30
0.0
  0
POINT
  5
37CEA
330
A
100
AcDbEntity
  8
Hawa1
 48
0.2
100
AcDbPoint
 10
1804.043412392802
 20
194.0008458225065
 30
0.0
  0
POINT
  5
37CEB
330
A
100
AcDbEntity
  8
Hawa1
 48
0.2
100
AcDbPoint
 10
1808.342416392802
 20
194.1172098225065
 30
0.0
  0
POINT
  5
37CEC
330
A
100
AcDbEntity
  8
Hawa1
 48
0.2
100
AcDbPoint
 10
1804.043458392803
 20
190.7513728225065
 30
0.0
  0
POINT
  5
37CED
330
A
100
AcDbEntity
  8
Hawa1
 48
0.2
100
AcDbPoint
 10
1804.043458392803
 20
188.9183268225065
 30
0.0
  0
POINT
  5
37CEE
330
A
100
AcDbEntity
  8
Hawa1
 48
0.2
100
AcDbPoint
 10
1804.043412392802
 20
190.7513808225065
 30
0.0
  0
POINT
  5
37CEF
330
A
100
AcDbEntity
  8
Hawa1
 48
0.2
100
AcDbPoint
 10
1808.342416392802
 20
190.6350168225065
 30
0.0
  0
POINT
  5
37CF0
330
A
100
AcDbEntity
  8
Hawa1
 48
0.2
100
AcDbPoint
 10
1741.140786392803
 20
217.5233758225065
 30
0.0
  0
POINT
  5
37CF1
330
A
100
AcDbEntity
  8
Hawa1
 48
0.2
100
AcDbPoint
 10
1741.140786392803
 20
215.6903298225066
 30
0.0
  0
POINT
  5
37CF2
330
A
100
AcDbEntity
  8
Hawa1
 48
0.2
100
AcDbPoint
 10
1741.140786392803
 20
222.6058918225065
 30
0.0
  0
POINT
  5
37CF3
330
A
100
AcDbEntity
  8
Hawa1
 48
0.2
100
AcDbPoint
 10
1738.494773392802
 20
219.1480138225065
 30
0.0
  0
POINT
  5
37CF4
330
A
100
AcDbEntity
  8
Hawa1
 48
0.2
100
AcDbPoint
 10
1741.140786392803
 20
220.7728498225066
 30
0.0
  0
POINT
  5
37CF5
330
A
100
AcDbEntity
  8
Hawa1
 48
0.2
100
AcDbPoint
 10
1741.140786392803
 20
222.6058918225065
 30
0.0
  0
POINT
  5
37CF6
330
A
100
AcDbEntity
  8
Hawa1
 48
0.2
100
AcDbPoint
 10
1741.140786392803
 20
215.6903298225066
 30
0.0
  0
POINT
  5
37CF7
330
A
100
AcDbEntity
  8
Hawa1
 48
0.2
100
AcDbPoint
 10
1738.494773392802
 20
219.1480138225065
 30
0.0
  0
POINT
  5
37CF8
330
A
100
AcDbEntity
  8
Hawa1
 48
0.2
100
AcDbPoint
 10
1741.140742392802
 20
220.7728498225066
 30
0.0
  0
POINT
  5
37CF9
330
A
100
AcDbEntity
  8
Hawa1
 48
0.2
100
AcDbPoint
 10
1745.439746392802
 20
220.8892088225065
 30
0.0
  0
POINT
  5
37CFA
330
A
100
AcDbEntity
  8
Hawa1
 48
0.2
100
AcDbPoint
 10
1741.140742392802
 20
217.5233798225065
 30
0.0
  0
POINT
  5
37CFB
330
A
100
AcDbEntity
  8
Hawa1
 48
0.2
100
AcDbPoint
 10
1745.439746392802
 20
217.4070158225065
 30
0.0
  0
POINT
  5
37CFC
330
A
100
AcDbEntity
  8
Hawa1
 48
0.2
100
AcDbPoint
 10
1712.960049392802
 20
217.5233758225065
 30
0.0
  0
POINT
  5
37CFD
330
A
100
AcDbEntity
  8
Hawa1
 48
0.2
100
AcDbPoint
 10
1712.960049392802
 20
215.6903298225066
 30
0.0
  0
POINT
  5
37CFE
330
A
100
AcDbEntity
  8
Hawa1
 48
0.2
100
AcDbPoint
 10
1712.960049392802
 20
215.6903298225066
 30
0.0
  0
POINT
  5
37CFF
330
A
100
AcDbEntity
  8
Hawa1
 48
0.2
100
AcDbPoint
 10
1715.606062392803
 20
219.1480138225065
 30
0.0
  0
POINT
  5
37D00
330
A
100
AcDbEntity
  8
Hawa1
 48
0.2
100
AcDbPoint
 10
1712.960049392802
 20
220.7728498225066
 30
0.0
  0
POINT
  5
37D01
330
A
100
AcDbEntity
  8
Hawa1
 48
0.2
100
AcDbPoint
 10
1712.960049392802
 20
222.6058918225065
 30
0.0
  0
POINT
  5
37D02
330
A
100
AcDbEntity
  8
Hawa1
 48
0.2
100
AcDbPoint
 10
1712.960049392802
 20
222.6058918225065
 30
0.0
  0
POINT
  5
37D03
330
A
100
AcDbEntity
  8
Hawa1
 48
0.2
100
AcDbPoint
 10
1715.606062392803
 20
219.1480138225065
 30
0.0
  0
POINT
  5
37D04
330
A
100
AcDbEntity
  8
Hawa1
 48
0.2
100
AcDbPoint
 10
1712.960094392802
 20
217.5233798225065
 30
0.0
  0
POINT
  5
37D05
330
A
100
AcDbEntity
  8
Hawa1
 48
0.2
100
AcDbPoint
 10
1708.661088392803
 20
217.4070158225065
 30
0.0
  0
POINT
  5
37D06
330
A
100
AcDbEntity
  8
Hawa1
 48
0.2
100
AcDbPoint
 10
1712.960094392802
 20
220.7728498225066
 30
0.0
  0
POINT
  5
37D07
330
A
100
AcDbEntity
  8
Hawa1
 48
0.2
100
AcDbPoint
 10
1708.661088392803
 20
220.8892088225065
 30
0.0
  0
POINT
  5
37D0E
330
A
100
AcDbEntity
  8
Hawa6
 48
0.2
100
AcDbPoint
 10
1701.050418392803
 20
211.1300688225065
 30
0.0
  0
POINT
  5
37D0F
330
A
100
AcDbEntity
  8
Hawa6
 48
0.2
100
AcDbPoint
 10
1694.050418392803
 20
211.1300688225065
 30
0.0
  0
POINT
  5
37D10
330
A
100
AcDbEntity
  8
Hawa6
 48
0.2
100
AcDbPoint
 10
1701.050418392803
 20
225.1300688225065
 30
0.0
  0
POINT
  5
37D14
330
A
100
AcDbEntity
  8
Hawa5
100
AcDbPoint
 10
1689.083329392802
 20
345.0745688225065
 30
0.0
  0
POINT
  5
37D15
330
A
100
AcDbEntity
  8
Hawa5
100
AcDbPoint
 10
1691.583329392803
 20
345.0745688225065
 30
0.0
  0
POINT
  5
37D16
330
A
100
AcDbEntity
  8
Hawa5
100
AcDbPoint
 10
1708.283342392802
 20
328.0745688225065
 30
0.0
  0
POINT
  5
37D17
330
A
100
AcDbEntity
  8
Hawa5
100
AcDbPoint
 10
1710.783342392802
 20
328.0745688225065
 30
0.0
  0
POINT
  5
37D18
330
A
100
AcDbEntity
  8
Hawa5
100
AcDbPoint
 10
1727.483293392802
 20
311.0745688225065
 30
0.0
  0
POINT
  5
37D19
330
A
100
AcDbEntity
  8
Hawa5
100
AcDbPoint
 10
1729.983293392803
 20
311.0745688225065
 30
0.0
  0
POINT
  5
37D1A
330
A
100
AcDbEntity
  8
Hawa5
100
AcDbPoint
 10
1746.683366392802
 20
294.0745688225065
 30
0.0
  0
POINT
  5
37D1B
330
A
100
AcDbEntity
  8
Hawa5
100
AcDbPoint
 10
1749.183366392802
 20
294.0745688225065
 30
0.0
  0
POINT
  5
37D1E
330
A
100
AcDbEntity
  8
Hawa5
100
AcDbPoint
 10
1648.283342392802
 20
277.0745668225065
 30
0.0
  0
POINT
  5
37D1F
330
A
100
AcDbEntity
  8
Hawa5
100
AcDbPoint
 10
1645.783342392802
 20
277.0745668225065
 30
0.0
  0
POINT
  5
37D20
330
A
100
AcDbEntity
  8
Hawa5
100
AcDbPoint
 10
1648.283342392802
 20
294.0745688225065
 30
0.0
  0
POINT
  5
37D21
330
A
100
AcDbEntity
  8
Hawa5
100
AcDbPoint
 10
1645.783342392802
 20
294.0745688225065
 30
0.0
  0
POINT
  5
37D22
330
A
100
AcDbEntity
  8
Hawa5
100
AcDbPoint
 10
1648.283342392802
 20
311.0745688225065
 30
0.0
  0
POINT
  5
37D23
330
A
100
AcDbEntity
  8
Hawa5
100
AcDbPoint
 10
1645.783342392802
 20
311.0745688225065
 30
0.0
  0
POINT
  5
37D24
330
A
100
AcDbEntity
  8
Hawa5
100
AcDbPoint
 10
1648.283342392802
 20
328.0745688225065
 30
0.0
  0
POINT
  5
37D25
330
A
100
AcDbEntity
  8
Hawa5
100
AcDbPoint
 10
1645.783342392802
 20
328.0745688225065
 30
0.0
  0
POINT
  5
37D26
330
A
100
AcDbEntity
  8
Hawa5
100
AcDbPoint
 10
1648.283342392802
 20
345.0745688225065
 30
0.0
  0
POINT
  5
37D27
330
A
100
AcDbEntity
  8
Hawa5
100
AcDbPoint
 10
1645.783342392802
 20
345.0745688225065
 30
0.0
  0
POINT
  5
37D2B
330
A
100
AcDbEntity
  8
Hawa5
100
AcDbPoint
 10
1749.183366392802
 20
294.0745688225065
 30
0.0
  0
POINT
  5
37D2D
330
A
100
AcDbEntity
  8
Hawa5
100
AcDbPoint
 10
1729.983293392803
 20
311.0745688225065
 30
0.0
  0
POINT
  5
37D2F
330
A
100
AcDbEntity
  8
Hawa5
100
AcDbPoint
 10
1710.783342392802
 20
328.0745688225065
 30
0.0
  0
POINT
  5
37D30
330
A
100
AcDbEntity
  8
Hawa5
100
AcDbPoint
 10
1691.583329392803
 20
345.0745688225065
 30
0.0
  0
POINT
  5
37D32
330
A
100
AcDbEntity
  8
Hawa5
100
AcDbPoint
 10
1645.783342392802
 20
289.0745668225065
 30
0.0
  0
POINT
  5
37D33
330
A
100
AcDbEntity
  8
Hawa5
100
AcDbPoint
 10
1645.783342392802
 20
277.0745668225065
 30
0.0
  0
POINT
  5
37D34
330
A
100
AcDbEntity
  8
Hawa5
100
AcDbPoint
 10
1645.783342392802
 20
306.0745688225065
 30
0.0
  0
POINT
  5
37D35
330
A
100
AcDbEntity
  8
Hawa5
100
AcDbPoint
 10
1645.783342392802
 20
294.0745688225065
 30
0.0
  0
POINT
  5
37D36
330
A
100
AcDbEntity
  8
Hawa5
100
AcDbPoint
 10
1645.783342392802
 20
323.0745688225066
 30
0.0
  0
POINT
  5
37D37
330
A
100
AcDbEntity
  8
Hawa5
100
AcDbPoint
 10
1645.783342392802
 20
311.0745688225065
 30
0.0
  0
POINT
  5
37D38
330
A
100
AcDbEntity
  8
Hawa5
100
AcDbPoint
 10
1645.783342392802
 20
340.0745688225065
 30
0.0
  0
POINT
  5
37D39
330
A
100
AcDbEntity
  8
Hawa5
100
AcDbPoint
 10
1645.783342392802
 20
328.0745688225065
 30
0.0
  0
POINT
  5
37D3A
330
A
100
AcDbEntity
  8
Hawa5
100
AcDbPoint
 10
1645.783342392802
 20
345.0745688225065
 30
0.0
  0
POINT
  5
37D3B
330
A
100
AcDbEntity
  8
Hawa5
100
AcDbPoint
 10
1645.783342392802
 20
357.0745688225065
 30
0.0
  0
POINT
  5
37D3D
330
A
100
AcDbEntity
  8
Hawa5
  6
PHANTOM
100
AcDbPoint
 10
1722.050418392802
 20
206.6300688225065
 30
0.0
  0
POINT
  5
37D42
330
A
100
AcDbEntity
  8
Hawa6
 48
0.2
100
AcDbPoint
 10
1672.050416392802
 20
200.6300688225065
 30
0.0
  0
POINT
  5
37D46
330
A
100
AcDbEntity
  8
Hawa6
 48
0.2
100
AcDbPoint
 10
1695.638940392802
 20
206.5415758225065
 30
0.0
  0
POINT
  5
37D47
330
A
100
AcDbEntity
  8
Hawa6
 48
0.2
100
AcDbPoint
 10
1698.518943392803
 20
203.6615748225065
 30
0.0
  0
POINT
  5
37D49
330
A
100
AcDbEntity
  8
Hawa6
 48
0.2
100
AcDbPoint
 10
1694.050418392803
 20
208.6300688225065
 30
0.0
  0
POINT
  5
37D4A
330
A
100
AcDbEntity
  8
Hawa6
 48
0.2
100
AcDbPoint
 10
1694.050418392803
 20
208.6300688225065
 30
0.0
  0
POINT
  5
37D4C
330
A
100
AcDbEntity
  8
Hawa6
 48
0.2
100
AcDbPoint
 10
1667.050416392802
 20
201.6300688225065
 30
0.0
  0
POINT
  5
37D51
330
A
100
AcDbEntity
  8
Hawa6
 48
0.2
100
AcDbPoint
 10
1672.050416392802
 20
201.6300688225065
 30
0.0
  0
POINT
  5
37D64
330
A
100
AcDbEntity
  8
Hawa6
 48
0.2
100
AcDbPoint
 10
1698.605531392803
 20
206.6852068225065
 30
0.0
  0
POINT
  5
37D65
330
A
100
AcDbEntity
  8
Hawa6
 48
0.2
100
AcDbPoint
 10
1695.549337392802
 20
203.6290128225065
 30
0.0
  0
POINT
  5
37D66
330
A
100
AcDbEntity
  8
Hawa6
 48
0.2
100
AcDbPoint
 10
1701.903058392803
 20
205.1300848225066
 30
0.0
  0
POINT
  5
37D67
330
A
100
AcDbEntity
  8
Hawa6
 48
0.2
100
AcDbPoint
 10
1691.617414392802
 20
205.1300848225066
 30
0.0
  0
POINT
  5
37D68
330
A
100
AcDbEntity
  8
Hawa6
 48
0.2
100
AcDbPoint
 10
1697.050397392802
 20
210.9240908225065
 30
0.0
  0
POINT
  5
37D69
330
A
100
AcDbEntity
  8
Hawa6
  6
DASHDOT
 48
0.2
100
AcDbPoint
 10
1697.050399392803
 20
199.0557128225065
 30
0.0
  0
POINT
  5
37D6A
330
A
100
AcDbEntity
  8
Hawa6
 48
0.2
100
AcDbPoint
 10
1676.050393392802
 20
219.4846338225065
 30
0.0
  0
POINT
  5
37D6B
330
A
100
AcDbEntity
  8
Hawa6
 48
0.2
100
AcDbPoint
 10
1676.050393392802
 20
219.7754968225065
 30
0.0
  0
POINT
  5
37D6E
330
A
100
AcDbEntity
  8
Hawa6
 48
0.2
100
AcDbPoint
 10
1668.197797392803
 20
205.1300768225065
 30
0.0
  0
POINT
  5
37D73
330
A
100
AcDbEntity
  8
Hawa5
  6
PHANTOM
100
AcDbPoint
 10
1638.432596392803
 20
232.6300668225065
 30
0.0
  0
POINT
  5
37D76
330
A
100
AcDbEntity
  8
Hawa6
 48
0.2
100
AcDbPoint
 10
1671.638944392802
 20
206.5415988225066
 30
0.0
  0
POINT
  5
37D77
330
A
100
AcDbEntity
  8
Hawa6
 48
0.2
100
AcDbPoint
 10
1674.518945392803
 20
203.6615978225065
 30
0.0
  0
POINT
  5
37D7D
330
A
100
AcDbEntity
  8
Hawa5
  6
PHANTOM
100
AcDbPoint
 10
1732.050418392802
 20
206.6300688225065
 30
0.0
  0
POINT
  5
37D86
330
A
100
AcDbEntity
  8
Hawa6
 48
0.2
100
AcDbPoint
 10
1674.605497392802
 20
206.6852068225065
 30
0.0
  0
POINT
  5
37D87
330
A
100
AcDbEntity
  8
Hawa6
 48
0.2
100
AcDbPoint
 10
1671.549299392802
 20
203.6290128225065
 30
0.0
  0
POINT
  5
37D88
330
A
100
AcDbEntity
  8
Hawa6
 48
0.2
100
AcDbPoint
 10
1767.961892392802
 20
232.4276918225065
 30
0.0
  0
POINT
  5
37D89
330
A
100
AcDbEntity
  8
Hawa6
 48
0.2
100
AcDbPoint
 10
1765.081891392803
 20
235.3076928225065
 30
0.0
  0
POINT
  5
37D95
330
A
100
AcDbEntity
  8
Hawa6
 48
0.2
100
AcDbPoint
 10
1667.050416392802
 20
201.6300688225065
 30
0.0
  0
POINT
  5
37DA8
330
A
100
AcDbEntity
  8
Hawa6
 48
0.2
100
AcDbPoint
 10
1764.995324392802
 20
232.2840378225066
 30
0.0
  0
POINT
  5
37DA9
330
A
100
AcDbEntity
  8
Hawa6
 48
0.2
100
AcDbPoint
 10
1768.051519392803
 20
235.3402358225066
 30
0.0
  0
POINT
  5
37DAA
330
A
100
AcDbEntity
  8
Hawa6
 48
0.2
100
AcDbPoint
 10
1761.697778392802
 20
233.8391808225065
 30
0.0
  0
POINT
  5
37DAB
330
A
100
AcDbEntity
  8
Hawa6
  6
DASHDOT
 48
0.2
100
AcDbPoint
 10
1771.983423392802
 20
233.8391828225065
 30
0.0
  0
POINT
  5
37DAD
330
A
100
AcDbEntity
  8
Hawa6
 48
0.2
100
AcDbPoint
 10
1766.550435392802
 20
239.9135528225065
 30
0.0
  0
POINT
  5
37DAE
330
A
100
AcDbEntity
  8
Hawa6
 48
0.2
100
AcDbPoint
 10
1787.550439392802
 20
219.4846338225065
 30
0.0
  0
POINT
  5
37DAF
330
A
100
AcDbEntity
  8
Hawa6
 48
0.2
100
AcDbPoint
 10
1787.550439392802
 20
219.7754968225065
 30
0.0
  0
POINT
  5
37DB0
330
A
100
AcDbEntity
  8
Hawa6
 48
0.2
100
AcDbPoint
 10
1769.550439392802
 20
219.4846378225065
 30
0.0
  0
POINT
  5
37DB1
330
A
100
AcDbEntity
  8
Hawa6
 48
0.2
100
AcDbPoint
 10
1769.550439392802
 20
219.7755008225065
 30
0.0
  0
POINT
  5
37DB2
330
A
100
AcDbEntity
  8
Hawa6
 48
0.2
100
AcDbPoint
 10
1795.403039392802
 20
233.8391888225065
 30
0.0
  0
POINT
  5
37DB3
330
A
100
AcDbEntity
  8
Hawa6
  6
DASHDOT
 48
0.2
100
AcDbPoint
 10
1785.117395392802
 20
233.8391868225065
 30
0.0
  0
POINT
  5
37DB4
330
A
100
AcDbEntity
  8
Hawa6
  6
DASHDOT
 48
0.2
100
AcDbPoint
 10
1790.550439392802
 20
239.6332238225065
 30
0.0
  0
POINT
  5
37DB6
330
A
100
AcDbEntity
  8
Hawa6
 48
0.2
100
AcDbPoint
 10
1788.995359392802
 20
232.2840378225066
 30
0.0
  0
POINT
  5
37DB7
330
A
100
AcDbEntity
  8
Hawa6
 48
0.2
100
AcDbPoint
 10
1792.051553392802
 20
235.3402338225065
 30
0.0
  0
POINT
  5
37DB8
330
A
100
AcDbEntity
  8
Hawa6
 48
0.2
100
AcDbPoint
 10
1791.961892392803
 20
232.4276688225065
 30
0.0
  0
POINT
  5
37DB9
330
A
100
AcDbEntity
  8
Hawa6
 48
0.2
100
AcDbPoint
 10
1789.081888392803
 20
235.3076698225065
 30
0.0
  0
POINT
  5
37DBF
330
A
100
AcDbEntity
  8
Hawa1
 48
0.2
100
AcDbPoint
 10
1687.245214392802
 20
289.0190308225065
 30
0.0
  0
POINT
  5
37DC1
330
A
100
AcDbEntity
  8
Hawa1
 48
0.2
100
AcDbPoint
 10
1687.245214392802
 20
289.0190308225065
 30
0.0
  0
POINT
  5
37DC5
330
A
100
AcDbEntity
  8
Hawa1
 48
0.2
100
AcDbPoint
 10
1687.245214392802
 20
306.0190308225065
 30
0.0
  0
POINT
  5
37DC7
330
A
100
AcDbEntity
  8
Hawa1
 48
0.2
100
AcDbPoint
 10
1687.245214392802
 20
306.0190308225065
 30
0.0
  0
POINT
  5
37DCB
330
A
100
AcDbEntity
  8
Hawa1
 48
0.2
100
AcDbPoint
 10
1687.245214392802
 20
340.0190348225065
 30
0.0
  0
POINT
  5
37DCF
330
A
100
AcDbEntity
  8
Hawa1
 48
0.2
100
AcDbPoint
 10
1687.245214392802
 20
340.0190348225065
 30
0.0
  0
POINT
  5
37DD0
330
A
100
AcDbEntity
  8
Hawa1
 48
0.2
100
AcDbPoint
 10
1752.227466392803
 20
384.6830968225065
 30
0.0
  0
POINT
  5
37DD2
330
A
100
AcDbEntity
  8
Hawa1
 48
0.2
100
AcDbPoint
 10
1752.227466392803
 20
384.6830968225065
 30
0.0
  0
POINT
  5
37DD3
330
A
100
AcDbEntity
  8
Hawa1
 48
0.2
100
AcDbPoint
 10
1746.104780392802
 20
384.6830968225065
 30
0.0
  0
POINT
  5
37DD4
330
A
100
AcDbEntity
  8
Hawa1
 48
0.2
100
AcDbPoint
 10
1746.104780392802
 20
384.6830968225065
 30
0.0
  0
POINT
  5
37DD6
330
A
100
AcDbEntity
  8
Hawa6
 48
0.2
100
AcDbPoint
 10
1690.183366392802
 20
318.1745748225065
 30
0.0
  0
POINT
  5
37DD7
330
A
100
AcDbEntity
  8
Hawa6
 48
0.2
100
AcDbPoint
 10
1690.183366392802
 20
319.4745628225065
 30
0.0
  0
POINT
  5
37E0A
330
A
100
AcDbEntity
  8
Hawa5
100
AcDbPoint
 10
1648.283342392802
 20
289.0745668225065
 30
0.0
  0
POINT
  5
37E0B
330
A
100
AcDbEntity
  8
Hawa5
100
AcDbPoint
 10
1648.283342392802
 20
277.0745668225065
 30
0.0
  0
POINT
  5
37E0D
330
A
100
AcDbEntity
  8
Hawa5
100
AcDbPoint
 10
1746.683366392802
 20
294.0745688225065
 30
0.0
  0
POINT
  5
37E36
330
A
100
AcDbEntity
  8
Hawa5
100
AcDbPoint
 10
1648.283342392802
 20
306.0745688225065
 30
0.0
  0
POINT
  5
37E37
330
A
100
AcDbEntity
  8
Hawa5
100
AcDbPoint
 10
1648.283342392802
 20
294.0745688225065
 30
0.0
  0
POINT
  5
37E39
330
A
100
AcDbEntity
  8
Hawa5
100
AcDbPoint
 10
1727.483293392802
 20
311.0745688225065
 30
0.0
  0
POINT
  5
37E5A
330
A
100
AcDbEntity
  8
Hawa5
100
AcDbPoint
 10
1648.283342392802
 20
323.0745688225066
 30
0.0
  0
POINT
  5
37E5B
330
A
100
AcDbEntity
  8
Hawa5
100
AcDbPoint
 10
1648.283342392802
 20
311.0745688225065
 30
0.0
  0
POINT
  5
37E61
330
A
100
AcDbEntity
  8
Hawa6
 48
0.2
100
AcDbPoint
 10
1707.483354392802
 20
334.5745688225065
 30
0.0
  0
POINT
  5
37E64
330
A
100
AcDbEntity
  8
Hawa6
 48
0.2
100
AcDbPoint
 10
1707.483354392802
 20
337.0745688225065
 30
0.0
  0
POINT
  5
37E65
330
A
100
AcDbEntity
  8
Hawa6
 48
0.2
100
AcDbPoint
 10
1707.483354392802
 20
334.5745688225065
 30
0.0
  0
POINT
  5
37E67
330
A
100
AcDbEntity
  8
Hawa6
 48
0.2
100
AcDbPoint
 10
1707.483354392802
 20
337.0745688225065
 30
0.0
  0
POINT
  5
37E69
330
A
100
AcDbEntity
  8
Hawa5
100
AcDbPoint
 10
1708.283342392802
 20
328.0745688225065
 30
0.0
  0
POINT
  5
37E6F
330
A
100
AcDbEntity
  8
Hawa5
100
AcDbPoint
 10
1649.083329392803
 20
334.5745688225065
 30
0.0
  0
POINT
  5
37E72
330
A
100
AcDbEntity
  8
Hawa5
100
AcDbPoint
 10
1649.083329392803
 20
337.0745688225065
 30
0.0
  0
POINT
  5
37E73
330
A
100
AcDbEntity
  8
Hawa5
100
AcDbPoint
 10
1649.083329392803
 20
334.5745688225065
 30
0.0
  0
POINT
  5
37E75
330
A
100
AcDbEntity
  8
Hawa5
100
AcDbPoint
 10
1649.083329392803
 20
337.0745688225065
 30
0.0
  0
POINT
  5
37E76
330
A
100
AcDbEntity
  8
Hawa5
100
AcDbPoint
 10
1648.283342392802
 20
340.0745688225065
 30
0.0
  0
POINT
  5
37E77
330
A
100
AcDbEntity
  8
Hawa5
100
AcDbPoint
 10
1648.283342392802
 20
328.0745688225065
 30
0.0
  0
POINT
  5
37E78
330
A
100
AcDbEntity
  8
Hawa5
100
AcDbPoint
 10
1689.083329392802
 20
345.0745688225065
 30
0.0
  0
POINT
  5
37E8A
330
A
100
AcDbEntity
  8
Hawa5
100
AcDbPoint
 10
1648.283342392802
 20
345.0745688225065
 30
0.0
  0
POINT
  5
37E8B
330
A
100
AcDbEntity
  8
Hawa5
100
AcDbPoint
 10
1648.283342392802
 20
357.0745688225065
 30
0.0
  0
POINT
  5
37E8C
330
A
100
AcDbEntity
  8
Hawa6
 48
0.2
100
AcDbPoint
 10
1752.183355392802
 20
342.5165478225065
 30
0.0
  0
POINT
  5
37E8D
330
A
100
AcDbEntity
  8
Hawa6
 48
0.2
100
AcDbPoint
 10
1746.183337392803
 20
345.5165548225065
 30
0.0
  0
POINT
  5
37E8E
330
A
100
AcDbEntity
  8
Hawa6
 48
0.2
100
AcDbPoint
 10
1746.183379392802
 20
342.5165548225065
 30
0.0
  0
POINT
  5
37E8F
330
A
100
AcDbEntity
  8
Hawa6
 48
0.2
100
AcDbPoint
 10
1752.183368392802
 20
345.5165478225065
 30
0.0
  0
POINT
  5
37E90
330
A
100
AcDbEntity
  8
Hawa6
 48
0.2
100
AcDbPoint
 10
1752.183366392802
 20
345.5165858225065
 30
0.0
  0
POINT
  5
37E91
330
A
100
AcDbEntity
  8
Hawa6
 48
0.2
100
AcDbPoint
 10
1746.183366392802
 20
345.5165858225065
 30
0.0
  0
POINT
  5
37E92
330
A
100
AcDbEntity
  8
Hawa6
 48
0.2
100
AcDbPoint
 10
1764.583288392802
 20
280.6746228225065
 30
0.0
  0
POINT
  5
37E93
330
A
100
AcDbEntity
  8
Hawa6
 48
0.2
100
AcDbPoint
 10
1762.383249392803
 20
281.9746238225065
 30
0.0
  0
POINT
  5
37E94
330
A
100
AcDbEntity
  8
Hawa6
 48
0.2
100
AcDbPoint
 10
1762.383214392803
 20
280.6744568225065
 30
0.0
  0
POINT
  5
37E95
330
A
100
AcDbEntity
  8
Hawa6
 48
0.2
100
AcDbPoint
 10
1764.583303392803
 20
281.9744908225065
 30
0.0
  0
POINT
  5
37E96
330
A
100
AcDbEntity
  8
Hawa6
 48
0.2
100
AcDbPoint
 10
1762.383439392802
 20
281.9745608225066
 30
0.0
  0
POINT
  5
37E97
330
A
100
AcDbEntity
  8
Hawa6
 48
0.2
100
AcDbPoint
 10
1762.383439392802
 20
280.6745728225065
 30
0.0
  0
POINT
  5
37E98
330
A
100
AcDbEntity
  8
Hawa6
 48
0.2
100
AcDbPoint
 10
1762.383439392802
 20
280.6745728225065
 30
0.0
  0
POINT
  5
37E99
330
A
100
AcDbEntity
  8
Hawa6
 48
0.2
100
AcDbPoint
 10
1764.583452392803
 20
280.6745728225065
 30
0.0
  0
POINT
  5
37E9A
330
A
100
AcDbEntity
  8
Hawa6
 48
0.2
100
AcDbPoint
 10
1762.383439392802
 20
281.9745608225066
 30
0.0
  0
POINT
  5
37E9B
330
A
100
AcDbEntity
  8
Hawa6
 48
0.2
100
AcDbPoint
 10
1764.583452392803
 20
281.9745608225066
 30
0.0
  0
POINT
  5
37E9C
330
A
100
AcDbEntity
  8
Hawa6
 48
0.2
100
AcDbPoint
 10
1764.583452392803
 20
281.9745608225066
 30
0.0
  0
POINT
  5
37E9D
330
A
100
AcDbEntity
  8
Hawa6
 48
0.2
100
AcDbPoint
 10
1764.583452392803
 20
280.6745728225065
 30
0.0
  0
POINT
  5
37E9E
330
A
100
AcDbEntity
  8
Hawa6
 48
0.2
100
AcDbPoint
 10
1752.183366392802
 20
342.5165858225065
 30
0.0
  0
POINT
  5
37E9F
330
A
100
AcDbEntity
  8
Hawa6
 48
0.2
100
AcDbPoint
 10
1746.183366392802
 20
342.5165858225065
 30
0.0
  0
POINT
  5
37EA0
330
A
100
AcDbEntity
  8
Hawa6
 48
0.2
100
AcDbPoint
 10
1752.183366392802
 20
342.5165858225065
 30
0.0
  0
POINT
  5
37EA1
330
A
100
AcDbEntity
  8
Hawa6
 48
0.2
100
AcDbPoint
 10
1752.183366392802
 20
345.5165858225065
 30
0.0
  0
POINT
  5
37EA2
330
A
100
AcDbEntity
  8
Hawa6
 48
0.2
100
AcDbPoint
 10
1746.183366392802
 20
342.5165858225065
 30
0.0
  0
POINT
  5
37EA3
330
A
100
AcDbEntity
  8
Hawa6
 48
0.2
100
AcDbPoint
 10
1746.183366392802
 20
345.5165858225065
 30
0.0
  0
POINT
  5
37EA4
330
A
100
AcDbEntity
  8
Hawa6
 48
0.2
100
AcDbPoint
 10
1706.983260392803
 20
284.1746248225065
 30
0.0
  0
POINT
  5
37EA5
330
A
100
AcDbEntity
  8
Hawa6
 48
0.2
100
AcDbPoint
 10
1704.783223392803
 20
285.4746278225065
 30
0.0
  0
POINT
  5
37EA6
330
A
100
AcDbEntity
  8
Hawa6
 48
0.2
100
AcDbPoint
 10
1704.783210392802
 20
284.1744778225065
 30
0.0
  0
POINT
  5
37EA7
330
A
100
AcDbEntity
  8
Hawa6
 48
0.2
100
AcDbPoint
 10
1706.983300392803
 20
285.4745118225066
 30
0.0
  0
POINT
  5
37EA8
330
A
100
AcDbEntity
  8
Hawa6
 48
0.2
100
AcDbPoint
 10
1704.783403392802
 20
285.4745608225065
 30
0.0
  0
POINT
  5
37EA9
330
A
100
AcDbEntity
  8
Hawa6
 48
0.2
100
AcDbPoint
 10
1704.783403392802
 20
284.1745728225065
 30
0.0
  0
POINT
  5
37EAA
330
A
100
AcDbEntity
  8
Hawa6
 48
0.2
100
AcDbPoint
 10
1704.783403392802
 20
284.1745728225065
 30
0.0
  0
POINT
  5
37EAB
330
A
100
AcDbEntity
  8
Hawa6
 48
0.2
100
AcDbPoint
 10
1706.983415392802
 20
284.1745728225065
 30
0.0
  0
POINT
  5
37EAC
330
A
100
AcDbEntity
  8
Hawa6
 48
0.2
100
AcDbPoint
 10
1704.783403392802
 20
285.4745608225065
 30
0.0
  0
POINT
  5
37EAD
330
A
100
AcDbEntity
  8
Hawa6
 48
0.2
100
AcDbPoint
 10
1706.983415392802
 20
285.4745608225065
 30
0.0
  0
POINT
  5
37EAE
330
A
100
AcDbEntity
  8
Hawa6
 48
0.2
100
AcDbPoint
 10
1706.983415392802
 20
285.4745608225065
 30
0.0
  0
POINT
  5
37EAF
330
A
100
AcDbEntity
  8
Hawa6
 48
0.2
100
AcDbPoint
 10
1706.983415392802
 20
284.1745728225065
 30
0.0
  0
POINT
  5
37EB0
330
A
100
AcDbEntity
  8
Hawa6
 48
0.2
100
AcDbPoint
 10
1745.383281392802
 20
301.1746208225066
 30
0.0
  0
POINT
  5
37EB1
330
A
100
AcDbEntity
  8
Hawa6
 48
0.2
100
AcDbPoint
 10
1743.183244392803
 20
302.4746238225065
 30
0.0
  0
POINT
  5
37EB2
330
A
100
AcDbEntity
  8
Hawa6
 48
0.2
100
AcDbPoint
 10
1743.183227392802
 20
301.1744718225065
 30
0.0
  0
POINT
  5
37EB3
330
A
100
AcDbEntity
  8
Hawa6
 48
0.2
100
AcDbPoint
 10
1745.383317392802
 20
302.4745058225065
 30
0.0
  0
POINT
  5
37EB4
330
A
100
AcDbEntity
  8
Hawa6
 48
0.2
100
AcDbPoint
 10
1743.183427392802
 20
302.4745628225065
 30
0.0
  0
POINT
  5
37EB5
330
A
100
AcDbEntity
  8
Hawa6
 48
0.2
100
AcDbPoint
 10
1743.183427392802
 20
301.1745748225065
 30
0.0
  0
POINT
  5
37EB6
330
A
100
AcDbEntity
  8
Hawa6
 48
0.2
100
AcDbPoint
 10
1743.183427392802
 20
301.1745748225065
 30
0.0
  0
POINT
  5
37EB7
330
A
100
AcDbEntity
  8
Hawa6
 48
0.2
100
AcDbPoint
 10
1745.383439392802
 20
301.1745748225065
 30
0.0
  0
POINT
  5
37EB8
330
A
100
AcDbEntity
  8
Hawa6
 48
0.2
100
AcDbPoint
 10
1743.183427392802
 20
302.4745628225065
 30
0.0
  0
POINT
  5
37EB9
330
A
100
AcDbEntity
  8
Hawa6
 48
0.2
100
AcDbPoint
 10
1745.383439392802
 20
302.4745628225065
 30
0.0
  0
POINT
  5
37EBA
330
A
100
AcDbEntity
  8
Hawa6
 48
0.2
100
AcDbPoint
 10
1745.383439392802
 20
302.4745628225065
 30
0.0
  0
POINT
  5
37EBB
330
A
100
AcDbEntity
  8
Hawa6
 48
0.2
100
AcDbPoint
 10
1745.383439392802
 20
301.1745748225065
 30
0.0
  0
POINT
  5
37EBC
330
A
100
AcDbEntity
  8
Hawa6
 48
0.2
100
AcDbPoint
 10
1706.983289392803
 20
301.1746058225065
 30
0.0
  0
POINT
  5
37EBD
330
A
100
AcDbEntity
  8
Hawa6
 48
0.2
100
AcDbPoint
 10
1704.783252392802
 20
302.4746088225065
 30
0.0
  0
POINT
  5
37EBE
330
A
100
AcDbEntity
  8
Hawa6
 48
0.2
100
AcDbPoint
 10
1704.783233392802
 20
301.1744878225065
 30
0.0
  0
POINT
  5
37EBF
330
A
100
AcDbEntity
  8
Hawa6
 48
0.2
100
AcDbPoint
 10
1706.983323392802
 20
302.4745208225065
 30
0.0
  0
POINT
  5
37EC0
330
A
100
AcDbEntity
  8
Hawa6
 48
0.2
100
AcDbPoint
 10
1704.783403392802
 20
302.4745628225065
 30
0.0
  0
POINT
  5
37EC1
330
A
100
AcDbEntity
  8
Hawa6
 48
0.2
100
AcDbPoint
 10
1704.783403392802
 20
301.1745748225065
 30
0.0
  0
POINT
  5
37EC2
330
A
100
AcDbEntity
  8
Hawa6
 48
0.2
100
AcDbPoint
 10
1704.783403392802
 20
301.1745748225065
 30
0.0
  0
POINT
  5
37EC3
330
A
100
AcDbEntity
  8
Hawa6
 48
0.2
100
AcDbPoint
 10
1706.983415392802
 20
301.1745748225065
 30
0.0
  0
POINT
  5
37EC4
330
A
100
AcDbEntity
  8
Hawa6
 48
0.2
100
AcDbPoint
 10
1704.783403392802
 20
302.4745628225065
 30
0.0
  0
POINT
  5
37EC5
330
A
100
AcDbEntity
  8
Hawa6
 48
0.2
100
AcDbPoint
 10
1706.983415392802
 20
302.4745628225065
 30
0.0
  0
POINT
  5
37EC6
330
A
100
AcDbEntity
  8
Hawa6
 48
0.2
100
AcDbPoint
 10
1706.983415392802
 20
302.4745628225065
 30
0.0
  0
POINT
  5
37EC7
330
A
100
AcDbEntity
  8
Hawa6
 48
0.2
100
AcDbPoint
 10
1706.983415392802
 20
301.1745748225065
 30
0.0
  0
POINT
  5
37EC8
330
A
100
AcDbEntity
  8
Hawa6
 48
0.2
100
AcDbPoint
 10
1687.783292392802
 20
297.6746288225065
 30
0.0
  0
POINT
  5
37EC9
330
A
100
AcDbEntity
  8
Hawa6
 48
0.2
100
AcDbPoint
 10
1685.583253392803
 20
298.9746278225065
 30
0.0
  0
POINT
  5
37ECA
330
A
100
AcDbEntity
  8
Hawa6
 48
0.2
100
AcDbPoint
 10
1685.583253392803
 20
297.6744988225065
 30
0.0
  0
POINT
  5
37ECB
330
A
100
AcDbEntity
  8
Hawa6
 48
0.2
100
AcDbPoint
 10
1687.783342392802
 20
298.9745328225065
 30
0.0
  0
POINT
  5
37ECC
330
A
100
AcDbEntity
  8
Hawa6
 48
0.2
100
AcDbPoint
 10
1685.583391392802
 20
298.9745628225065
 30
0.0
  0
POINT
  5
37ECD
330
A
100
AcDbEntity
  8
Hawa6
 48
0.2
100
AcDbPoint
 10
1685.583391392802
 20
297.6745748225066
 30
0.0
  0
POINT
  5
37ECE
330
A
100
AcDbEntity
  8
Hawa6
 48
0.2
100
AcDbPoint
 10
1685.583391392802
 20
297.6745748225066
 30
0.0
  0
POINT
  5
37ECF
330
A
100
AcDbEntity
  8
Hawa6
 48
0.2
100
AcDbPoint
 10
1687.783403392802
 20
297.6745748225066
 30
0.0
  0
POINT
  5
37ED0
330
A
100
AcDbEntity
  8
Hawa6
 48
0.2
100
AcDbPoint
 10
1685.583391392802
 20
298.9745628225065
 30
0.0
  0
POINT
  5
37ED1
330
A
100
AcDbEntity
  8
Hawa6
 48
0.2
100
AcDbPoint
 10
1687.783403392802
 20
298.9745628225065
 30
0.0
  0
POINT
  5
37ED2
330
A
100
AcDbEntity
  8
Hawa6
 48
0.2
100
AcDbPoint
 10
1687.783403392802
 20
298.9745628225065
 30
0.0
  0
POINT
  5
37ED3
330
A
100
AcDbEntity
  8
Hawa6
 48
0.2
100
AcDbPoint
 10
1687.783403392802
 20
297.6745748225066
 30
0.0
  0
POINT
  5
37ED4
330
A
100
AcDbEntity
  8
Hawa6
 48
0.2
100
AcDbPoint
 10
1687.783315392803
 20
280.6746168225065
 30
0.0
  0
POINT
  5
37ED5
330
A
100
AcDbEntity
  8
Hawa6
 48
0.2
100
AcDbPoint
 10
1685.583280392803
 20
281.9746178225065
 30
0.0
  0
POINT
  5
37ED6
330
A
100
AcDbEntity
  8
Hawa6
 48
0.2
100
AcDbPoint
 10
1685.583280392803
 20
280.6745198225065
 30
0.0
  0
POINT
  5
37ED7
330
A
100
AcDbEntity
  8
Hawa6
 48
0.2
100
AcDbPoint
 10
1687.783372392803
 20
281.9745538225065
 30
0.0
  0
POINT
  5
37ED8
330
A
100
AcDbEntity
  8
Hawa6
 48
0.2
100
AcDbPoint
 10
1685.583391392802
 20
281.9745608225066
 30
0.0
  0
POINT
  5
37ED9
330
A
100
AcDbEntity
  8
Hawa6
 48
0.2
100
AcDbPoint
 10
1685.583391392802
 20
280.6745728225065
 30
0.0
  0
POINT
  5
37EDA
330
A
100
AcDbEntity
  8
Hawa6
 48
0.2
100
AcDbPoint
 10
1685.583391392802
 20
280.6745728225065
 30
0.0
  0
POINT
  5
37EDB
330
A
100
AcDbEntity
  8
Hawa6
 48
0.2
100
AcDbPoint
 10
1687.783403392802
 20
280.6745728225065
 30
0.0
  0
POINT
  5
37EDC
330
A
100
AcDbEntity
  8
Hawa6
 48
0.2
100
AcDbPoint
 10
1685.583391392802
 20
281.9745608225066
 30
0.0
  0
POINT
  5
37EDD
330
A
100
AcDbEntity
  8
Hawa6
 48
0.2
100
AcDbPoint
 10
1687.783403392802
 20
281.9745608225066
 30
0.0
  0
POINT
  5
37EDE
330
A
100
AcDbEntity
  8
Hawa6
 48
0.2
100
AcDbPoint
 10
1687.783403392802
 20
281.9745608225066
 30
0.0
  0
POINT
  5
37EDF
330
A
100
AcDbEntity
  8
Hawa6
 48
0.2
100
AcDbPoint
 10
1687.783403392802
 20
280.6745728225065
 30
0.0
  0
POINT
  5
37EE0
330
A
100
AcDbEntity
  8
Hawa6
 48
0.2
100
AcDbPoint
 10
1726.183366392803
 20
314.6745908225065
 30
0.0
  0
POINT
  5
37EE1
330
A
100
AcDbEntity
  8
Hawa6
 48
0.2
100
AcDbPoint
 10
1723.983329392802
 20
315.9745938225066
 30
0.0
  0
POINT
  5
37EE2
330
A
100
AcDbEntity
  8
Hawa6
 48
0.2
100
AcDbPoint
 10
1723.983322392802
 20
314.6745258225065
 30
0.0
  0
POINT
  5
37EE3
330
A
100
AcDbEntity
  8
Hawa6
 48
0.2
100
AcDbPoint
 10
1726.183412392802
 20
315.9745588225066
 30
0.0
  0
POINT
  5
37EE4
330
A
100
AcDbEntity
  8
Hawa6
 48
0.2
100
AcDbPoint
 10
1723.983415392802
 20
315.9745628225065
 30
0.0
  0
POINT
  5
37EE5
330
A
100
AcDbEntity
  8
Hawa6
 48
0.2
100
AcDbPoint
 10
1723.983415392802
 20
314.6745748225066
 30
0.0
  0
POINT
  5
37EE6
330
A
100
AcDbEntity
  8
Hawa6
 48
0.2
100
AcDbPoint
 10
1723.983415392802
 20
314.6745748225066
 30
0.0
  0
POINT
  5
37EE7
330
A
100
AcDbEntity
  8
Hawa6
 48
0.2
100
AcDbPoint
 10
1726.183427392802
 20
314.6745748225066
 30
0.0
  0
POINT
  5
37EE8
330
A
100
AcDbEntity
  8
Hawa6
 48
0.2
100
AcDbPoint
 10
1723.983415392802
 20
315.9745628225065
 30
0.0
  0
POINT
  5
37EE9
330
A
100
AcDbEntity
  8
Hawa6
 48
0.2
100
AcDbPoint
 10
1726.183427392802
 20
315.9745628225065
 30
0.0
  0
POINT
  5
37EEA
330
A
100
AcDbEntity
  8
Hawa6
 48
0.2
100
AcDbPoint
 10
1726.183427392802
 20
315.9745628225065
 30
0.0
  0
POINT
  5
37EEB
330
A
100
AcDbEntity
  8
Hawa6
 48
0.2
100
AcDbPoint
 10
1726.183427392802
 20
314.6745748225066
 30
0.0
  0
POINT
  5
37EEC
330
A
100
AcDbEntity
  8
Hawa6
 48
0.2
100
AcDbPoint
 10
1687.783372392803
 20
314.6745748225066
 30
0.0
  0
POINT
  5
37EED
330
A
100
AcDbEntity
  8
Hawa6
 48
0.2
100
AcDbPoint
 10
1685.583337392802
 20
315.9745778225065
 30
0.0
  0
POINT
  5
37EEE
330
A
100
AcDbEntity
  8
Hawa6
 48
0.2
100
AcDbPoint
 10
1685.583329392802
 20
314.6745408225065
 30
0.0
  0
POINT
  5
37EEF
330
A
100
AcDbEntity
  8
Hawa6
 48
0.2
100
AcDbPoint
 10
1687.783418392802
 20
315.9745748225065
 30
0.0
  0
POINT
  5
37EF0
330
A
100
AcDbEntity
  8
Hawa6
 48
0.2
100
AcDbPoint
 10
1685.583391392802
 20
315.9745628225065
 30
0.0
  0
POINT
  5
37EF1
330
A
100
AcDbEntity
  8
Hawa6
 48
0.2
100
AcDbPoint
 10
1685.583391392802
 20
314.6745748225066
 30
0.0
  0
POINT
  5
37EF2
330
A
100
AcDbEntity
  8
Hawa6
 48
0.2
100
AcDbPoint
 10
1685.583391392802
 20
314.6745748225066
 30
0.0
  0
POINT
  5
37EF3
330
A
100
AcDbEntity
  8
Hawa6
 48
0.2
100
AcDbPoint
 10
1687.783403392802
 20
314.6745748225066
 30
0.0
  0
POINT
  5
37EF4
330
A
100
AcDbEntity
  8
Hawa6
 48
0.2
100
AcDbPoint
 10
1685.583391392802
 20
315.9745628225065
 30
0.0
  0
POINT
  5
37EF5
330
A
100
AcDbEntity
  8
Hawa6
 48
0.2
100
AcDbPoint
 10
1687.783403392802
 20
315.9745628225065
 30
0.0
  0
POINT
  5
37EF6
330
A
100
AcDbEntity
  8
Hawa6
 48
0.2
100
AcDbPoint
 10
1687.783403392802
 20
315.9745628225065
 30
0.0
  0
POINT
  5
37EF7
330
A
100
AcDbEntity
  8
Hawa6
 48
0.2
100
AcDbPoint
 10
1687.783403392802
 20
314.6745748225066
 30
0.0
  0
POINT
  5
37EF8
330
A
100
AcDbEntity
  8
Hawa6
 48
0.2
100
AcDbPoint
 10
1706.983415392802
 20
335.1745598225065
 30
0.0
  0
POINT
  5
37EF9
330
A
100
AcDbEntity
  8
Hawa6
 48
0.2
100
AcDbPoint
 10
1704.783378392803
 20
336.4745628225065
 30
0.0
  0
POINT
  5
37EFA
330
A
100
AcDbEntity
  8
Hawa6
 48
0.2
100
AcDbPoint
 10
1704.783342392802
 20
335.1745298225065
 30
0.0
  0
POINT
  5
37EFB
330
A
100
AcDbEntity
  8
Hawa6
 48
0.2
100
AcDbPoint
 10
1706.983432392803
 20
336.4745628225065
 30
0.0
  0
POINT
  5
37EFC
330
A
100
AcDbEntity
  8
Hawa6
 48
0.2
100
AcDbPoint
 10
1704.783403392802
 20
336.4745628225065
 30
0.0
  0
POINT
  5
37EFD
330
A
100
AcDbEntity
  8
Hawa6
 48
0.2
100
AcDbPoint
 10
1704.783403392802
 20
335.1745748225066
 30
0.0
  0
POINT
  5
37EFE
330
A
100
AcDbEntity
  8
Hawa6
 48
0.2
100
AcDbPoint
 10
1704.783403392802
 20
335.1745748225066
 30
0.0
  0
POINT
  5
37EFF
330
A
100
AcDbEntity
  8
Hawa6
 48
0.2
100
AcDbPoint
 10
1706.983415392802
 20
335.1745748225066
 30
0.0
  0
POINT
  5
37F00
330
A
100
AcDbEntity
  8
Hawa6
 48
0.2
100
AcDbPoint
 10
1704.783403392802
 20
336.4745628225065
 30
0.0
  0
POINT
  5
37F01
330
A
100
AcDbEntity
  8
Hawa6
 48
0.2
100
AcDbPoint
 10
1706.983415392802
 20
336.4745628225065
 30
0.0
  0
POINT
  5
37F02
330
A
100
AcDbEntity
  8
Hawa6
 48
0.2
100
AcDbPoint
 10
1706.983415392802
 20
336.4745628225065
 30
0.0
  0
POINT
  5
37F03
330
A
100
AcDbEntity
  8
Hawa6
 48
0.2
100
AcDbPoint
 10
1706.983415392802
 20
335.1745748225066
 30
0.0
  0
POINT
  5
37F06
330
A
100
AcDbEntity
  8
Hawa6
 48
0.2
100
AcDbPoint
 10
1687.783403392802
 20
352.1745748225066
 30
0.0
  0
POINT
  5
37F07
330
A
100
AcDbEntity
  8
Hawa6
 48
0.2
100
AcDbPoint
 10
1685.583391392802
 20
353.4745628225065
 30
0.0
  0
POINT
  5
37F08
330
A
100
AcDbEntity
  8
Hawa6
 48
0.2
100
AcDbPoint
 10
1685.583368392802
 20
352.1745448225065
 30
0.0
  0
POINT
  5
37F09
330
A
100
AcDbEntity
  8
Hawa6
 48
0.2
100
AcDbPoint
 10
1687.783460392802
 20
353.4745778225065
 30
0.0
  0
POINT
  5
37F0A
330
A
100
AcDbEntity
  8
Hawa6
 48
0.2
100
AcDbPoint
 10
1685.583391392802
 20
353.4745628225065
 30
0.0
  0
POINT
  5
37F0B
330
A
100
AcDbEntity
  8
Hawa6
 48
0.2
100
AcDbPoint
 10
1685.583391392802
 20
352.1745748225066
 30
0.0
  0
POINT
  5
37F0C
330
A
100
AcDbEntity
  8
Hawa6
 48
0.2
100
AcDbPoint
 10
1685.583391392802
 20
352.1745748225066
 30
0.0
  0
POINT
  5
37F0D
330
A
100
AcDbEntity
  8
Hawa6
 48
0.2
100
AcDbPoint
 10
1687.783403392802
 20
352.1745748225066
 30
0.0
  0
POINT
  5
37F0E
330
A
100
AcDbEntity
  8
Hawa6
 48
0.2
100
AcDbPoint
 10
1685.583391392802
 20
353.4745628225065
 30
0.0
  0
POINT
  5
37F0F
330
A
100
AcDbEntity
  8
Hawa6
 48
0.2
100
AcDbPoint
 10
1687.783403392802
 20
353.4745628225065
 30
0.0
  0
POINT
  5
37F10
330
A
100
AcDbEntity
  8
Hawa6
 48
0.2
100
AcDbPoint
 10
1687.783403392802
 20
353.4745628225065
 30
0.0
  0
POINT
  5
37F11
330
A
100
AcDbEntity
  8
Hawa6
 48
0.2
100
AcDbPoint
 10
1687.783403392802
 20
352.1745748225066
 30
0.0
  0
POINT
  5
37F12
330
A
100
AcDbEntity
  8
Hawa6
 48
0.2
100
AcDbPoint
 10
1687.783422392802
 20
349.9745628225065
 30
0.0
  0
POINT
  5
37F13
330
A
100
AcDbEntity
  8
Hawa6
 48
0.2
100
AcDbPoint
 10
1685.583383392802
 20
348.6745598225065
 30
0.0
  0
POINT
  5
37F14
330
A
100
AcDbEntity
  8
Hawa6
 48
0.2
100
AcDbPoint
 10
1685.583383392802
 20
349.9745248225065
 30
0.0
  0
POINT
  5
37F15
330
A
100
AcDbEntity
  8
Hawa6
 48
0.2
100
AcDbPoint
 10
1687.783445392803
 20
348.6745068225066
 30
0.0
  0
POINT
  5
37F16
330
A
100
AcDbEntity
  8
Hawa6
 48
0.2
100
AcDbPoint
 10
1685.583391392802
 20
348.6745748225065
 30
0.0
  0
POINT
  5
37F17
330
A
100
AcDbEntity
  8
Hawa6
 48
0.2
100
AcDbPoint
 10
1685.583391392802
 20
349.9745628225065
 30
0.0
  0
POINT
  5
37F18
330
A
100
AcDbEntity
  8
Hawa6
 48
0.2
100
AcDbPoint
 10
1685.583391392802
 20
349.9745628225065
 30
0.0
  0
POINT
  5
37F19
330
A
100
AcDbEntity
  8
Hawa6
 48
0.2
100
AcDbPoint
 10
1687.783403392802
 20
349.9745628225065
 30
0.0
  0
POINT
  5
37F1A
330
A
100
AcDbEntity
  8
Hawa6
 48
0.2
100
AcDbPoint
 10
1685.583391392802
 20
348.6745748225065
 30
0.0
  0
POINT
  5
37F1B
330
A
100
AcDbEntity
  8
Hawa6
 48
0.2
100
AcDbPoint
 10
1687.783403392802
 20
348.6745748225065
 30
0.0
  0
POINT
  5
37F1C
330
A
100
AcDbEntity
  8
Hawa6
 48
0.2
100
AcDbPoint
 10
1687.783403392802
 20
348.6745748225065
 30
0.0
  0
POINT
  5
37F1D
330
A
100
AcDbEntity
  8
Hawa6
 48
0.2
100
AcDbPoint
 10
1687.783403392802
 20
349.9745628225065
 30
0.0
  0
POINT
  5
37F1E
330
A
100
AcDbEntity
  8
Hawa6
 48
0.2
100
AcDbPoint
 10
1649.583360392802
 20
352.1745828225065
 30
0.0
  0
POINT
  5
37F1F
330
A
100
AcDbEntity
  8
Hawa6
 48
0.2
100
AcDbPoint
 10
1651.783342392802
 20
353.4745558225065
 30
0.0
  0
POINT
  5
37F20
330
A
100
AcDbEntity
  8
Hawa6
 48
0.2
100
AcDbPoint
 10
1651.783326392802
 20
352.1745598225065
 30
0.0
  0
POINT
  5
37F21
330
A
100
AcDbEntity
  8
Hawa6
 48
0.2
100
AcDbPoint
 10
1649.583268392802
 20
353.4745778225065
 30
0.0
  0
POINT
  5
37F22
330
A
100
AcDbEntity
  8
Hawa6
 48
0.2
100
AcDbPoint
 10
1651.783349392802
 20
353.4745778225065
 30
0.0
  0
POINT
  5
37F23
330
A
100
AcDbEntity
  8
Hawa6
 48
0.2
100
AcDbPoint
 10
1651.783349392802
 20
352.1745908225065
 30
0.0
  0
POINT
  5
37F24
330
A
100
AcDbEntity
  8
Hawa6
 48
0.2
100
AcDbPoint
 10
1651.783349392802
 20
352.1745908225065
 30
0.0
  0
POINT
  5
37F25
330
A
100
AcDbEntity
  8
Hawa6
 48
0.2
100
AcDbPoint
 10
1649.583337392802
 20
352.1745908225065
 30
0.0
  0
POINT
  5
37F26
330
A
100
AcDbEntity
  8
Hawa6
 48
0.2
100
AcDbPoint
 10
1651.783349392802
 20
353.4745778225065
 30
0.0
  0
POINT
  5
37F27
330
A
100
AcDbEntity
  8
Hawa6
 48
0.2
100
AcDbPoint
 10
1649.583337392802
 20
353.4745778225065
 30
0.0
  0
POINT
  5
37F28
330
A
100
AcDbEntity
  8
Hawa6
 48
0.2
100
AcDbPoint
 10
1649.583337392802
 20
353.4745778225065
 30
0.0
  0
POINT
  5
37F29
330
A
100
AcDbEntity
  8
Hawa6
 48
0.2
100
AcDbPoint
 10
1649.583337392802
 20
352.1745908225065
 30
0.0
  0
POINT
  5
37F2A
330
A
100
AcDbEntity
  8
Hawa6
 48
0.2
100
AcDbPoint
 10
1726.383231392803
 20
285.4745518225065
 30
0.0
  0
POINT
  5
37F2B
330
A
100
AcDbEntity
  8
Hawa6
 48
0.2
100
AcDbPoint
 10
1728.583268392803
 20
284.1745508225065
 30
0.0
  0
POINT
  5
37F2C
330
A
100
AcDbEntity
  8
Hawa6
 48
0.2
100
AcDbPoint
 10
1728.583255392803
 20
285.4745558225065
 30
0.0
  0
POINT
  5
37F2D
330
A
100
AcDbEntity
  8
Hawa6
 48
0.2
100
AcDbPoint
 10
1726.383218392802
 20
284.1745518225065
 30
0.0
  0
POINT
  5
37F2E
330
A
100
AcDbEntity
  8
Hawa6
 48
0.2
100
AcDbPoint
 10
1728.583391392803
 20
284.1745728225065
 30
0.0
  0
POINT
  5
37F2F
330
A
100
AcDbEntity
  8
Hawa6
 48
0.2
100
AcDbPoint
 10
1728.583391392803
 20
285.4745608225065
 30
0.0
  0
POINT
  5
37F30
330
A
100
AcDbEntity
  8
Hawa6
 48
0.2
100
AcDbPoint
 10
1728.583391392803
 20
285.4745608225065
 30
0.0
  0
POINT
  5
37F31
330
A
100
AcDbEntity
  8
Hawa6
 48
0.2
100
AcDbPoint
 10
1726.383379392802
 20
285.4745608225065
 30
0.0
  0
POINT
  5
37F32
330
A
100
AcDbEntity
  8
Hawa6
 48
0.2
100
AcDbPoint
 10
1728.583391392803
 20
284.1745728225065
 30
0.0
  0
POINT
  5
37F33
330
A
100
AcDbEntity
  8
Hawa6
 48
0.2
100
AcDbPoint
 10
1726.383379392802
 20
284.1745728225065
 30
0.0
  0
POINT
  5
37F34
330
A
100
AcDbEntity
  8
Hawa6
 48
0.2
100
AcDbPoint
 10
1726.383379392802
 20
284.1745728225065
 30
0.0
  0
POINT
  5
37F35
330
A
100
AcDbEntity
  8
Hawa6
 48
0.2
100
AcDbPoint
 10
1726.383379392802
 20
285.4745608225065
 30
0.0
  0
POINT
  5
37F36
330
A
100
AcDbEntity
  8
Hawa6
 48
0.2
100
AcDbPoint
 10
1649.583329392802
 20
349.9745398225065
 30
0.0
  0
POINT
  5
37F37
330
A
100
AcDbEntity
  8
Hawa6
 48
0.2
100
AcDbPoint
 10
1651.783342392802
 20
348.6745518225065
 30
0.0
  0
POINT
  5
37F38
330
A
100
AcDbEntity
  8
Hawa6
 48
0.2
100
AcDbPoint
 10
1651.783349392802
 20
349.9745628225065
 30
0.0
  0
POINT
  5
37F39
330
A
100
AcDbEntity
  8
Hawa6
 48
0.2
100
AcDbPoint
 10
1649.583314392802
 20
348.6745598225065
 30
0.0
  0
POINT
  5
37F3A
330
A
100
AcDbEntity
  8
Hawa6
 48
0.2
100
AcDbPoint
 10
1651.783342392802
 20
348.6745748225065
 30
0.0
  0
POINT
  5
37F3B
330
A
100
AcDbEntity
  8
Hawa6
 48
0.2
100
AcDbPoint
 10
1651.783342392802
 20
349.9745628225065
 30
0.0
  0
POINT
  5
37F3C
330
A
100
AcDbEntity
  8
Hawa6
 48
0.2
100
AcDbPoint
 10
1651.783342392802
 20
348.6745748225065
 30
0.0
  0
POINT
  5
37F3D
330
A
100
AcDbEntity
  8
Hawa6
 48
0.2
100
AcDbPoint
 10
1649.583329392802
 20
348.6745748225065
 30
0.0
  0
POINT
  5
37F3E
330
A
100
AcDbEntity
  8
Hawa6
 48
0.2
100
AcDbPoint
 10
1651.783342392802
 20
349.9745628225065
 30
0.0
  0
POINT
  5
37F3F
330
A
100
AcDbEntity
  8
Hawa6
 48
0.2
100
AcDbPoint
 10
1649.583329392802
 20
349.9745628225065
 30
0.0
  0
POINT
  5
37F40
330
A
100
AcDbEntity
  8
Hawa6
 48
0.2
100
AcDbPoint
 10
1649.583329392802
 20
348.6745748225065
 30
0.0
  0
POINT
  5
37F41
330
A
100
AcDbEntity
  8
Hawa6
 48
0.2
100
AcDbPoint
 10
1649.583329392802
 20
349.9745628225065
 30
0.0
  0
POINT
  5
37F42
330
A
100
AcDbEntity
  8
Hawa6
 48
0.2
100
AcDbPoint
 10
1709.383378392803
 20
297.6745748225066
 30
0.0
  0
POINT
  5
37F43
330
A
100
AcDbEntity
  8
Hawa6
 48
0.2
100
AcDbPoint
 10
1707.183366392802
 20
297.6745748225066
 30
0.0
  0
POINT
  5
37F44
330
A
100
AcDbEntity
  8
Hawa6
 48
0.2
100
AcDbPoint
 10
1707.183366392802
 20
297.6745748225066
 30
0.0
  0
POINT
  5
37F45
330
A
100
AcDbEntity
  8
Hawa6
 48
0.2
100
AcDbPoint
 10
1707.183366392802
 20
298.9745628225065
 30
0.0
  0
POINT
  5
37F46
330
A
100
AcDbEntity
  8
Hawa6
 48
0.2
100
AcDbPoint
 10
1707.983253392803
 20
302.4745518225066
 30
0.0
  0
POINT
  5
37F47
330
A
100
AcDbEntity
  8
Hawa6
 48
0.2
100
AcDbPoint
 10
1710.183290392802
 20
301.1745488225065
 30
0.0
  0
POINT
  5
37F48
330
A
100
AcDbEntity
  8
Hawa6
 48
0.2
100
AcDbPoint
 10
1710.183325392802
 20
302.4745778225065
 30
0.0
  0
POINT
  5
37F49
330
A
100
AcDbEntity
  8
Hawa6
 48
0.2
100
AcDbPoint
 10
1707.983287392802
 20
301.1745748225065
 30
0.0
  0
POINT
  5
37F4A
330
A
100
AcDbEntity
  8
Hawa6
 48
0.2
100
AcDbPoint
 10
1710.183366392802
 20
301.1745748225065
 30
0.0
  0
POINT
  5
37F4B
330
A
100
AcDbEntity
  8
Hawa6
 48
0.2
100
AcDbPoint
 10
1710.183366392802
 20
302.4745628225065
 30
0.0
  0
POINT
  5
37F4C
330
A
100
AcDbEntity
  8
Hawa6
 48
0.2
100
AcDbPoint
 10
1709.383378392803
 20
297.6745748225066
 30
0.0
  0
POINT
  5
37F4D
330
A
100
AcDbEntity
  8
Hawa6
 48
0.2
100
AcDbPoint
 10
1709.383378392803
 20
298.9745628225065
 30
0.0
  0
POINT
  5
37F4E
330
A
100
AcDbEntity
  8
Hawa6
 48
0.2
100
AcDbPoint
 10
1709.383378392803
 20
298.9745628225065
 30
0.0
  0
POINT
  5
37F4F
330
A
100
AcDbEntity
  8
Hawa6
 48
0.2
100
AcDbPoint
 10
1707.183366392802
 20
298.9745628225065
 30
0.0
  0
POINT
  5
37F50
330
A
100
AcDbEntity
  8
Hawa6
 48
0.2
100
AcDbPoint
 10
1709.383275392802
 20
281.9745668225065
 30
0.0
  0
POINT
  5
37F51
330
A
100
AcDbEntity
  8
Hawa6
 48
0.2
100
AcDbPoint
 10
1707.183236392802
 20
280.6745658225065
 30
0.0
  0
POINT
  5
37F52
330
A
100
AcDbEntity
  8
Hawa6
 48
0.2
100
AcDbPoint
 10
1709.383378392803
 20
280.6745728225065
 30
0.0
  0
POINT
  5
37F53
330
A
100
AcDbEntity
  8
Hawa6
 48
0.2
100
AcDbPoint
 10
1709.383378392803
 20
281.9745608225066
 30
0.0
  0
POINT
  5
37F54
330
A
100
AcDbEntity
  8
Hawa6
 48
0.2
100
AcDbPoint
 10
1707.183263392803
 20
298.9745558225065
 30
0.0
  0
POINT
  5
37F55
330
A
100
AcDbEntity
  8
Hawa6
 48
0.2
100
AcDbPoint
 10
1709.383300392802
 20
297.6745518225065
 30
0.0
  0
POINT
  5
37F56
330
A
100
AcDbEntity
  8
Hawa6
 48
0.2
100
AcDbPoint
 10
1710.183366392802
 20
302.4745628225065
 30
0.0
  0
POINT
  5
37F57
330
A
100
AcDbEntity
  8
Hawa6
 48
0.2
100
AcDbPoint
 10
1707.983354392802
 20
302.4745628225065
 30
0.0
  0
POINT
  5
37F58
330
A
100
AcDbEntity
  8
Hawa6
 48
0.2
100
AcDbPoint
 10
1709.383378392803
 20
280.6745728225065
 30
0.0
  0
POINT
  5
37F59
330
A
100
AcDbEntity
  8
Hawa6
 48
0.2
100
AcDbPoint
 10
1707.183366392802
 20
280.6745728225065
 30
0.0
  0
POINT
  5
37F5A
330
A
100
AcDbEntity
  8
Hawa6
 48
0.2
100
AcDbPoint
 10
1707.183366392802
 20
280.6745728225065
 30
0.0
  0
POINT
  5
37F5B
330
A
100
AcDbEntity
  8
Hawa6
 48
0.2
100
AcDbPoint
 10
1707.183366392802
 20
281.9745608225066
 30
0.0
  0
POINT
  5
37F5C
330
A
100
AcDbEntity
  8
Hawa6
 48
0.2
100
AcDbPoint
 10
1709.383298392802
 20
298.9745778225065
 30
0.0
  0
POINT
  5
37F5D
330
A
100
AcDbEntity
  8
Hawa6
 48
0.2
100
AcDbPoint
 10
1707.183261392802
 20
297.6745748225066
 30
0.0
  0
POINT
  5
37F5E
330
A
100
AcDbEntity
  8
Hawa6
 48
0.2
100
AcDbPoint
 10
1709.383378392803
 20
281.9745608225066
 30
0.0
  0
POINT
  5
37F5F
330
A
100
AcDbEntity
  8
Hawa6
 48
0.2
100
AcDbPoint
 10
1707.183366392802
 20
281.9745608225066
 30
0.0
  0
POINT
  5
37F60
330
A
100
AcDbEntity
  8
Hawa6
 48
0.2
100
AcDbPoint
 10
1690.983323392802
 20
315.9745558225065
 30
0.0
  0
POINT
  5
37F61
330
A
100
AcDbEntity
  8
Hawa6
 48
0.2
100
AcDbPoint
 10
1688.783284392803
 20
314.6745518225065
 30
0.0
  0
POINT
  5
37F62
330
A
100
AcDbEntity
  8
Hawa6
 48
0.2
100
AcDbPoint
 10
1690.983354392803
 20
314.6745748225066
 30
0.0
  0
POINT
  5
37F63
330
A
100
AcDbEntity
  8
Hawa6
 48
0.2
100
AcDbPoint
 10
1690.983354392803
 20
315.9745628225065
 30
0.0
  0
POINT
  5
37F64
330
A
100
AcDbEntity
  8
Hawa6
 48
0.2
100
AcDbPoint
 10
1690.983354392803
 20
315.9745628225065
 30
0.0
  0
POINT
  5
37F65
330
A
100
AcDbEntity
  8
Hawa6
 48
0.2
100
AcDbPoint
 10
1688.783342392802
 20
315.9745628225065
 30
0.0
  0
POINT
  5
37F66
330
A
100
AcDbEntity
  8
Hawa6
 48
0.2
100
AcDbPoint
 10
1690.983354392803
 20
314.6745748225066
 30
0.0
  0
POINT
  5
37F67
330
A
100
AcDbEntity
  8
Hawa6
 48
0.2
100
AcDbPoint
 10
1688.783342392802
 20
314.6745748225066
 30
0.0
  0
POINT
  5
37F68
330
A
100
AcDbEntity
  8
Hawa6
 48
0.2
100
AcDbPoint
 10
1688.783342392802
 20
314.6745748225066
 30
0.0
  0
POINT
  5
37F69
330
A
100
AcDbEntity
  8
Hawa6
 48
0.2
100
AcDbPoint
 10
1688.783342392802
 20
315.9745628225065
 30
0.0
  0
POINT
  5
37F6A
330
A
100
AcDbEntity
  8
Hawa6
 48
0.2
100
AcDbPoint
 10
1688.783284392803
 20
315.9745518225065
 30
0.0
  0
POINT
  5
37F6B
330
A
100
AcDbEntity
  8
Hawa6
 48
0.2
100
AcDbPoint
 10
1690.983323392802
 20
314.6745488225065
 30
0.0
  0
POINT
  5
37F6C
330
A
100
AcDbEntity
  8
Hawa6
 48
0.2
100
AcDbPoint
 10
1707.183235392802
 20
281.9745748225065
 30
0.0
  0
POINT
  5
37F6D
330
A
100
AcDbEntity
  8
Hawa6
 48
0.2
100
AcDbPoint
 10
1709.383272392803
 20
280.6745718225065
 30
0.0
  0
POINT
  5
37F6E
330
A
100
AcDbEntity
  8
Hawa6
 48
0.2
100
AcDbPoint
 10
1687.983327392802
 20
319.4745478225065
 30
0.0
  0
POINT
  5
37F6F
330
A
100
AcDbEntity
  8
Hawa6
 48
0.2
100
AcDbPoint
 10
1690.183362392803
 20
318.1745448225065
 30
0.0
  0
POINT
  5
37F70
330
A
100
AcDbEntity
  8
Hawa6
 48
0.2
100
AcDbPoint
 10
1690.183332392803
 20
319.4745518225065
 30
0.0
  0
POINT
  5
37F71
330
A
100
AcDbEntity
  8
Hawa6
 48
0.2
100
AcDbPoint
 10
1687.983297392802
 20
318.1745518225065
 30
0.0
  0
POINT
  5
37F72
330
A
100
AcDbEntity
  8
Hawa6
 48
0.2
100
AcDbPoint
 10
1690.183366392802
 20
319.4745628225065
 30
0.0
  0
POINT
  5
37F73
330
A
100
AcDbEntity
  8
Hawa6
 48
0.2
100
AcDbPoint
 10
1687.983354392802
 20
319.4745628225065
 30
0.0
  0
POINT
  5
37F74
330
A
100
AcDbEntity
  8
Hawa6
 48
0.2
100
AcDbPoint
 10
1690.183366392802
 20
318.1745748225065
 30
0.0
  0
POINT
  5
37F75
330
A
100
AcDbEntity
  8
Hawa6
 48
0.2
100
AcDbPoint
 10
1687.983354392802
 20
318.1745748225065
 30
0.0
  0
POINT
  5
37F76
330
A
100
AcDbEntity
  8
Hawa6
 48
0.2
100
AcDbPoint
 10
1687.983354392802
 20
318.1745748225065
 30
0.0
  0
POINT
  5
37F77
330
A
100
AcDbEntity
  8
Hawa6
 48
0.2
100
AcDbPoint
 10
1687.983354392802
 20
319.4745628225065
 30
0.0
  0
POINT
  5
37F78
330
A
100
AcDbEntity
  8
Hawa6
 48
0.2
100
AcDbPoint
 10
1764.583211392803
 20
284.1745828225065
 30
0.0
  0
POINT
  5
37F79
330
A
100
AcDbEntity
  8
Hawa6
 48
0.2
100
AcDbPoint
 10
1762.383172392803
 20
285.4745858225065
 30
0.0
  0
POINT
  5
37F7A
330
A
100
AcDbEntity
  8
Hawa6
 48
0.2
100
AcDbPoint
 10
1762.383085392803
 20
284.1744038225065
 30
0.0
  0
POINT
  5
37F7B
330
A
100
AcDbEntity
  8
Hawa6
 48
0.2
100
AcDbPoint
 10
1764.583177392802
 20
285.4744388225065
 30
0.0
  0
POINT
  5
37F7C
330
A
100
AcDbEntity
  8
Hawa6
 48
0.2
100
AcDbPoint
 10
1762.383439392802
 20
285.4745608225065
 30
0.0
  0
POINT
  5
37F7D
330
A
100
AcDbEntity
  8
Hawa6
 48
0.2
100
AcDbPoint
 10
1762.383439392802
 20
284.1745728225065
 30
0.0
  0
POINT
  5
37F7E
330
A
100
AcDbEntity
  8
Hawa6
 48
0.2
100
AcDbPoint
 10
1762.383439392802
 20
284.1745728225065
 30
0.0
  0
POINT
  5
37F7F
330
A
100
AcDbEntity
  8
Hawa6
 48
0.2
100
AcDbPoint
 10
1764.583452392803
 20
284.1745728225065
 30
0.0
  0
POINT
  5
37F80
330
A
100
AcDbEntity
  8
Hawa6
 48
0.2
100
AcDbPoint
 10
1762.383439392802
 20
285.4745608225065
 30
0.0
  0
POINT
  5
37F81
330
A
100
AcDbEntity
  8
Hawa6
 48
0.2
100
AcDbPoint
 10
1764.583452392803
 20
285.4745608225065
 30
0.0
  0
POINT
  5
37F82
330
A
100
AcDbEntity
  8
Hawa6
 48
0.2
100
AcDbPoint
 10
1764.583452392803
 20
285.4745608225065
 30
0.0
  0
POINT
  5
37F83
330
A
100
AcDbEntity
  8
Hawa6
 48
0.2
100
AcDbPoint
 10
1764.583452392803
 20
284.1745728225065
 30
0.0
  0
POINT
  5
37F84
330
A
100
AcDbEntity
  8
Hawa6
 48
0.2
100
AcDbPoint
 10
1726.183170392802
 20
318.1745908225065
 30
0.0
  0
POINT
  5
37F85
330
A
100
AcDbEntity
  8
Hawa6
 48
0.2
100
AcDbPoint
 10
1723.983133392803
 20
319.4745898225066
 30
0.0
  0
POINT
  5
37F86
330
A
100
AcDbEntity
  8
Hawa6
 48
0.2
100
AcDbPoint
 10
1723.983089392802
 20
318.1744108225065
 30
0.0
  0
POINT
  5
37F87
330
A
100
AcDbEntity
  8
Hawa6
 48
0.2
100
AcDbPoint
 10
1726.183178392802
 20
319.4744448225065
 30
0.0
  0
POINT
  5
37F88
330
A
100
AcDbEntity
  8
Hawa6
 48
0.2
100
AcDbPoint
 10
1723.983415392802
 20
319.4745628225065
 30
0.0
  0
POINT
  5
37F89
330
A
100
AcDbEntity
  8
Hawa6
 48
0.2
100
AcDbPoint
 10
1723.983415392802
 20
318.1745748225065
 30
0.0
  0
POINT
  5
37F8A
330
A
100
AcDbEntity
  8
Hawa6
 48
0.2
100
AcDbPoint
 10
1723.983415392802
 20
318.1745748225065
 30
0.0
  0
POINT
  5
37F8B
330
A
100
AcDbEntity
  8
Hawa6
 48
0.2
100
AcDbPoint
 10
1726.183427392802
 20
318.1745748225065
 30
0.0
  0
POINT
  5
37F8C
330
A
100
AcDbEntity
  8
Hawa6
 48
0.2
100
AcDbPoint
 10
1723.983415392802
 20
319.4745628225065
 30
0.0
  0
POINT
  5
37F8D
330
A
100
AcDbEntity
  8
Hawa6
 48
0.2
100
AcDbPoint
 10
1726.183427392802
 20
319.4745628225065
 30
0.0
  0
POINT
  5
37F8E
330
A
100
AcDbEntity
  8
Hawa6
 48
0.2
100
AcDbPoint
 10
1726.183427392802
 20
319.4745628225065
 30
0.0
  0
POINT
  5
37F8F
330
A
100
AcDbEntity
  8
Hawa6
 48
0.2
100
AcDbPoint
 10
1726.183427392802
 20
318.1745748225065
 30
0.0
  0
POINT
  5
37F90
330
A
100
AcDbEntity
  8
Hawa6
 48
0.2
100
AcDbPoint
 10
1686.983159392802
 20
318.1746138225066
 30
0.0
  0
POINT
  5
37F91
330
A
100
AcDbEntity
  8
Hawa6
 48
0.2
100
AcDbPoint
 10
1684.783120392802
 20
319.4746168225065
 30
0.0
  0
POINT
  5
37F92
330
A
100
AcDbEntity
  8
Hawa6
 48
0.2
100
AcDbPoint
 10
1684.783071392802
 20
318.1743958225065
 30
0.0
  0
POINT
  5
37F93
330
A
100
AcDbEntity
  8
Hawa6
 48
0.2
100
AcDbPoint
 10
1686.983159392802
 20
319.4744298225065
 30
0.0
  0
POINT
  5
37F94
330
A
100
AcDbEntity
  8
Hawa6
 48
0.2
100
AcDbPoint
 10
1684.783403392802
 20
319.4745628225065
 30
0.0
  0
POINT
  5
37F95
330
A
100
AcDbEntity
  8
Hawa6
 48
0.2
100
AcDbPoint
 10
1684.783403392802
 20
318.1745748225065
 30
0.0
  0
POINT
  5
37F96
330
A
100
AcDbEntity
  8
Hawa6
 48
0.2
100
AcDbPoint
 10
1684.783403392802
 20
318.1745748225065
 30
0.0
  0
POINT
  5
37F97
330
A
100
AcDbEntity
  8
Hawa6
 48
0.2
100
AcDbPoint
 10
1686.983415392802
 20
318.1745748225065
 30
0.0
  0
POINT
  5
37F98
330
A
100
AcDbEntity
  8
Hawa6
 48
0.2
100
AcDbPoint
 10
1684.783403392802
 20
319.4745628225065
 30
0.0
  0
POINT
  5
37F99
330
A
100
AcDbEntity
  8
Hawa6
 48
0.2
100
AcDbPoint
 10
1686.983415392802
 20
319.4745628225065
 30
0.0
  0
POINT
  5
37F9A
330
A
100
AcDbEntity
  8
Hawa6
 48
0.2
100
AcDbPoint
 10
1686.983415392802
 20
319.4745628225065
 30
0.0
  0
POINT
  5
37F9B
330
A
100
AcDbEntity
  8
Hawa6
 48
0.2
100
AcDbPoint
 10
1686.983415392802
 20
318.1745748225065
 30
0.0
  0
POINT
  5
37F9C
330
A
100
AcDbEntity
  8
Hawa6
 48
0.2
100
AcDbPoint
 10
1687.783162392802
 20
331.6746288225065
 30
0.0
  0
POINT
  5
37F9D
330
A
100
AcDbEntity
  8
Hawa6
 48
0.2
100
AcDbPoint
 10
1685.583123392802
 20
332.9746318225065
 30
0.0
  0
POINT
  5
37F9E
330
A
100
AcDbEntity
  8
Hawa6
 48
0.2
100
AcDbPoint
 10
1685.583082392803
 20
331.6744078225065
 30
0.0
  0
POINT
  5
37F9F
330
A
100
AcDbEntity
  8
Hawa6
 48
0.2
100
AcDbPoint
 10
1687.783174392802
 20
332.9744408225065
 30
0.0
  0
POINT
  5
37FA0
330
A
100
AcDbEntity
  8
Hawa6
 48
0.2
100
AcDbPoint
 10
1685.583391392802
 20
332.9745628225065
 30
0.0
  0
POINT
  5
37FA1
330
A
100
AcDbEntity
  8
Hawa6
 48
0.2
100
AcDbPoint
 10
1685.583391392802
 20
331.6745748225065
 30
0.0
  0
POINT
  5
37FA2
330
A
100
AcDbEntity
  8
Hawa6
 48
0.2
100
AcDbPoint
 10
1685.583391392802
 20
331.6745748225065
 30
0.0
  0
POINT
  5
37FA3
330
A
100
AcDbEntity
  8
Hawa6
 48
0.2
100
AcDbPoint
 10
1687.783403392802
 20
331.6745748225065
 30
0.0
  0
POINT
  5
37FA4
330
A
100
AcDbEntity
  8
Hawa6
 48
0.2
100
AcDbPoint
 10
1685.583391392802
 20
332.9745628225065
 30
0.0
  0
POINT
  5
37FA5
330
A
100
AcDbEntity
  8
Hawa6
 48
0.2
100
AcDbPoint
 10
1687.783403392802
 20
332.9745628225065
 30
0.0
  0
POINT
  5
37FA6
330
A
100
AcDbEntity
  8
Hawa6
 48
0.2
100
AcDbPoint
 10
1687.783403392802
 20
332.9745628225065
 30
0.0
  0
POINT
  5
37FA7
330
A
100
AcDbEntity
  8
Hawa6
 48
0.2
100
AcDbPoint
 10
1687.783403392802
 20
331.6745748225065
 30
0.0
  0
POINT
  5
37FA8
330
A
100
AcDbEntity
  8
Hawa6
 48
0.2
100
AcDbPoint
 10
1745.383195392802
 20
297.6746328225065
 30
0.0
  0
POINT
  5
37FA9
330
A
100
AcDbEntity
  8
Hawa6
 48
0.2
100
AcDbPoint
 10
1743.183158392803
 20
298.9746358225065
 30
0.0
  0
POINT
  5
37FAA
330
A
100
AcDbEntity
  8
Hawa6
 48
0.2
100
AcDbPoint
 10
1743.183137392803
 20
297.6744228225065
 30
0.0
  0
POINT
  5
37FAB
330
A
100
AcDbEntity
  8
Hawa6
 48
0.2
100
AcDbPoint
 10
1745.383228392802
 20
298.9744558225065
 30
0.0
  0
POINT
  5
37FAC
330
A
100
AcDbEntity
  8
Hawa6
 48
0.2
100
AcDbPoint
 10
1707.983354392802
 20
301.1745748225065
 30
0.0
  0
POINT
  5
37FAD
330
A
100
AcDbEntity
  8
Hawa6
 48
0.2
100
AcDbPoint
 10
1707.983354392802
 20
302.4745628225065
 30
0.0
  0
POINT
  5
37FAE
330
A
100
AcDbEntity
  8
Hawa6
 48
0.2
100
AcDbPoint
 10
1710.183366392802
 20
301.1745748225065
 30
0.0
  0
POINT
  5
37FAF
330
A
100
AcDbEntity
  8
Hawa6
 48
0.2
100
AcDbPoint
 10
1707.983354392802
 20
301.1745748225065
 30
0.0
  0
POINT
  5
37FB0
330
A
100
AcDbEntity
  8
Hawa6
 48
0.2
100
AcDbPoint
 10
1743.183427392802
 20
298.9745628225065
 30
0.0
  0
POINT
  5
37FB1
330
A
100
AcDbEntity
  8
Hawa6
 48
0.2
100
AcDbPoint
 10
1743.183427392802
 20
297.6745748225066
 30
0.0
  0
POINT
  5
37FB2
330
A
100
AcDbEntity
  8
Hawa6
 48
0.2
100
AcDbPoint
 10
1743.183427392802
 20
297.6745748225066
 30
0.0
  0
POINT
  5
37FB3
330
A
100
AcDbEntity
  8
Hawa6
 48
0.2
100
AcDbPoint
 10
1745.383439392802
 20
297.6745748225066
 30
0.0
  0
POINT
  5
37FB4
330
A
100
AcDbEntity
  8
Hawa6
 48
0.2
100
AcDbPoint
 10
1743.183427392802
 20
298.9745628225065
 30
0.0
  0
POINT
  5
37FB5
330
A
100
AcDbEntity
  8
Hawa6
 48
0.2
100
AcDbPoint
 10
1745.383439392802
 20
298.9745628225065
 30
0.0
  0
POINT
  5
37FB6
330
A
100
AcDbEntity
  8
Hawa6
 48
0.2
100
AcDbPoint
 10
1745.383439392802
 20
298.9745628225065
 30
0.0
  0
POINT
  5
37FB7
330
A
100
AcDbEntity
  8
Hawa6
 48
0.2
100
AcDbPoint
 10
1745.383439392802
 20
297.6745748225066
 30
0.0
  0
DIMENSION
  5
37FB8
330
A
100
AcDbEntity
  8
Hawa1
 48
0.2
100
AcDbDimension
  2
*D1
 10
1657.196681580966
 20
205.1301704092298
 30
0.0
 11
1657.196590612969
 21
194.2033731622417
 31
0.0
 70
   160
  1
\A1;3.5 {\fTechnicLite|b0|i0|c2|p0;[\H0.7x;\S1/8;"\H1.429x;]}
 71
     5
 42
3.500020552070196
  3
HAWA-Strich
100
AcDbAlignedDimension
 13
1667.050418392802
 23
201.6300678225065
 33
0.0
 14
1668.197798392802
 24
205.1300788225065
 34
0.0
 50
89.99952300000151
100
AcDbRotatedDimension
1001
ACAD
1000
DSTYLE
1002
{
1070
   271
1070
     0
1070
   279
1070
     0
1002
}
  0
DIMENSION
  5
37FBA
330
A
100
AcDbEntity
  8
Hawa1
 48
0.2
100
AcDbDimension
  2
*D2
 10
1667.051248918582
 20
251.6302925896159
 30
0.0
 11
1680.550417392804
 21
251.6300678225067
 31
0.0
 70
   160
  1
<>
 71
     5
 42
26.99956908482295
  3
HAWA-Strich
100
AcDbAlignedDimension
 13
1694.050418392803
 23
227.6300668225065
 33
0.0
 14
1667.050416392802
 24
201.6300688225065
 34
0.0
 50
179.9990459999996
100
AcDbRotatedDimension
1001
ACAD
1000
DSTYLE
1002
{
1070
   271
1070
     0
1070
   279
1070
     0
1002
}
  0
DIMENSION
  5
37FBB
330
A
100
AcDbEntity
  8
Hawa1
 48
0.2
100
AcDbDimension
  2
*D3
 10
1667.051015811143
 20
237.6302166664955
 30
0.0
 11
1676.050416392802
 21
237.6300668225065
 31
0.0
 70
   160
 71
     5
 42
17.99994172096126
  3
HAWA-Strich
100
AcDbAlignedDimension
 13
1685.050416392802
 23
205.1300688225065
 33
0.0
 14
1667.050416392802
 24
201.6300688225065
 34
0.0
 50
179.9990459999996
100
AcDbRotatedDimension
1001
ACAD
1000
DSTYLE
1002
{
1070
   271
1070
     0
1070
   279
1070
     0
1002
}
  0
DIMENSION
  5
38527
330
A
100
AcDbEntity
  8
Hawa1
 48
0.2
100
AcDbDimension
  2
*D10
 10
1648.930059458729
 20
208.6300688225065
 30
0.0
 11
1648.929968490732
 21
197.7032715755184
 31
0.0
 70
   160
  1
\A1;3.5 {\fTechnicLite|b0|i0|c2|p0;[\H0.7x;\S1/8;"\H1.429x;]}
 71
     5
 42
3.500020552070168
  3
HAWA-Strich
100
AcDbAlignedDimension
 13
1658.783796270566
 23
205.1299662357833
 33
0.0
 14
1659.931176270566
 24
208.6299772357832
 34
0.0
 50
89.99952300000151
100
AcDbRotatedDimension
1001
ACAD
1000
DSTYLE
1002
{
1070
   271
1070
     0
1070
   279
1070
     0
1002
}
  0
DIMENSION
  5
3856D
330
A
100
AcDbEntity
  8
Hawa1
 48
0.2
100
AcDbDimension
  2
*D11
 10
1707.391096166668
 20
163.0447361848894
 30
0.0
 11
1718.24667040219
 21
163.0450976850877
 31
0.0
 70
   160
  1
\A1;27 {\fTechnicLite|b0|i0|c2|p0;[1 \H0.7x;\S1/16;"\H1.429x;]}
 71
     5
 42
1.079718668417626
  3
HAWA-Strich
100
AcDbAlignedDimension
 13
1708.471201392802
 23
151.4367218225065
 33
0.0
 14
1707.391325392802
 24
156.1612508225065
 34
0.0
 50
180.0019080000009
100
AcDbRotatedDimension
1001
ACAD
1000
DSTYLE
1002
{
1070
   271
1070
     0
1070
   279
1070
     0
1002
}
  0
DIMENSION
  5
38587
330
A
100
AcDbEntity
  8
Hawa1
 48
0.2
100
AcDbDimension
  2
*D12
 10
1776.209655618937
 20
163.0447361848894
 30
0.0
 11
1765.354081383415
 21
163.0450976850877
 31
0.0
 70
   160
  1
\A1;27 {\fTechnicLite|b0|i0|c2|p0;[1 \H0.7x;\S1/16;"\H1.429x;]}
 71
     5
 42
1.079718668417854
  3
HAWA-Strich
100
AcDbAlignedDimension
 13
1775.129550392803
 23
151.4367218225065
 33
0.0
 14
1776.209426392802
 24
156.1612508225065
 34
0.0
 50
359.9980919999991
100
AcDbRotatedDimension
1001
ACAD
1000
DSTYLE
1002
{
1070
   271
1070
     0
1070
   279
1070
     0
1002
}
  0
VIEWPORT
  5
5B0B
102
{ACAD_XDICTIONARY
360
38698
102
}
330
B
100
AcDbEntity
 67
     1
  8
0
 62
     0
100
AcDbViewport
 10
0.0
 20
0.0
 30
0.0
 40
1000.0
 41
1000.0
 68
     1
 69
     1
 12
0.0
 22
0.0
 13
0.0
 23
0.0
 14
1.0
 24
1.0
 15
1.0
 25
1.0
 16
0.0
 26
0.0
 36
1.0
 17
0.0
 27
0.0
 37
0.0
 42
50.0
 43
0.0
 44
0.0
 45
1000.0
 50
0.0
 51
0.0
 72
   100
 90
    32800
  1

281
     0
 71
     1
 74
     0
110
0.0
120
0.0
130
0.0
111
1.0
121
0.0
131
0.0
112
0.0
122
1.0
132
0.0
 79
     0
146
0.0
  0
ENDSEC
  0
SECTION
  2
OBJECTS
  0
DICTIONARY
  5
19
330
0
100
AcDbDictionary
281
     1
  3
ACAD_COLOR
350
5C52
  3
ACAD_GROUP
350
1A
  3
ACAD_LAYOUT
350
5C53
  3
ACAD_MATERIAL
350
5C51
  3
ACAD_MLINESTYLE
350
1B
  3
ACAD_PLOTSETTINGS
350
5C54
  3
ACAD_PLOTSTYLENAME
350
5C4F
  3
ACDBHEADERROUNDTRIPXREC
350
38695
  3
AcDbVariableDictionary
350
C323
  3
DWGPROPS
350
38694
  0
DICTIONARY
  5
38698
330
5B0B
100
AcDbDictionary
280
     1
281
     1
  3
ACAD_XREC_ROUNDTRIP
360
38699
  0
DICTIONARY
  5
5C52
102
{ACAD_REACTORS
330
19
102
}
330
19
100
AcDbDictionary
281
     1
  0
DICTIONARY
  5
1A
102
{ACAD_REACTORS
330
19
102
}
330
19
100
AcDbDictionary
281
     1
  3
*A1
350
A88A
  3
*A10
350
C929
  3
*A11
350
2B420
  3
*A12
350
24A10
  3
*A13
350
1DA16
  3
*A14
350
249B8
  3
*A15
350
22D36
  3
*A16
350
1DD43
  3
*A17
350
249BB
  3
*A18
350
36A98
  3
*A19
350
36A99
  3
*A2
350
2D0BF
  3
*A20
350
27D79
  3
*A21
350
2CF6A
  3
*A22
350
2CFDA
  3
*A23
350
25EFC
  3
*A24
350
1DCF6
  3
*A25
350
D552
  3
*A26
350
2D0BC
  3
*A27
350
1DCB6
  3
*A28
350
1E3BE
  3
*A29
350
ACC8
  3
*A3
350
334B4
  3
*A30
350
25E96
  3
*A31
350
31F7E
  3
*A32
350
C884
  3
*A33
350
25E93
  3
*A34
350
25FEB
  3
*A35
350
25FEC
  3
*A36
350
2B41E
  3
*A37
350
2B41F
  3
*A38
350
27BF6
  3
*A4
350
FE80
  3
*A5
350
3350C
  3
*A6
350
3350F
  3
*A7
350
24A8C
  3
*A8
350
24AC3
  3
*A9
350
33538
  0
DICTIONARY
  5
5C53
102
{ACAD_REACTORS
330
19
102
}
330
19
100
AcDbDictionary
281
     1
  3
Layout1
350
5C56
  3
Model
350
5C55
  0
DICTIONARY
  5
5C51
102
{ACAD_REACTORS
330
19
102
}
330
19
100
AcDbDictionary
281
     1
  0
DICTIONARY
  5
1B
102
{ACAD_REACTORS
330
19
102
}
330
19
100
AcDbDictionary
281
     1
  3
STANDARD
350
1C
  0
DICTIONARY
  5
5C54
102
{ACAD_REACTORS
330
19
102
}
330
19
100
AcDbDictionary
281
     1
  0
ACDBDICTIONARYWDFLT
  5
5C4F
102
{ACAD_REACTORS
330
19
102
}
330
19
100
AcDbDictionary
281
     1
  3
Normal
350
5C50
100
AcDbDictionaryWithDefault
340
5C50
  0
DICTIONARY
  5
38695
102
{ACAD_REACTORS
330
19
102
}
330
19
100
AcDbDictionary
281
     1
  3
COLORDICT
350
38697
  3
MATERIALDICT
350
38696
  0
DICTIONARY
  5
C323
102
{ACAD_REACTORS
330
19
102
}
330
19
100
AcDbDictionary
281
     1
  3
DIMASSOC
350
C324
  3
PROJECTNAME
350
C325
  0
XRECORD
  5
38694
102
{ACAD_REACTORS
330
19
102
}
330
19
100
AcDbXrecord
280
     1
  1
DWGPROPS COOKIE
  2

  3

  4

  6

  7

  8

  9

300
=
301
=
302
=
303
=
304
=
305
=
306
=
307
=
308
=
309
=
 40
1.366425231481481
 41
2305814.08384272
 42
2453766.62213191
  1

 90
        0
  0
XRECORD
  5
38699
102
{ACAD_REACTORS
330
38698
102
}
330
38698
100
AcDbXrecord
280
     1
102
SHADEPLOT
 70
     0
  0
GROUP
  5
A88A
102
{ACAD_REACTORS
330
1A
102
}
330
1A
100
AcDbGroup
300

 70
     1
 71
     1
  0
GROUP
  5
C929
102
{ACAD_REACTORS
330
1A
102
}
330
1A
100
AcDbGroup
300

 70
     1
 71
     1
  0
GROUP
  5
2B420
102
{ACAD_REACTORS
330
1A
102
}
330
1A
100
AcDbGroup
300

 70
     1
 71
     1
  0
GROUP
  5
24A10
102
{ACAD_REACTORS
330
1A
102
}
330
1A
100
AcDbGroup
300

 70
     1
 71
     1
  0
GROUP
  5
1DA16
102
{ACAD_REACTORS
330
1A
102
}
330
1A
100
AcDbGroup
300

 70
     1
 71
     1
  0
GROUP
  5
249B8
102
{ACAD_REACTORS
330
1A
102
}
330
1A
100
AcDbGroup
300

 70
     1
 71
     1
  0
GROUP
  5
22D36
102
{ACAD_REACTORS
330
1A
102
}
330
1A
100
AcDbGroup
300

 70
     1
 71
     1
  0
GROUP
  5
1DD43
102
{ACAD_REACTORS
330
1A
102
}
330
1A
100
AcDbGroup
300

 70
     1
 71
     1
  0
GROUP
  5
249BB
102
{ACAD_REACTORS
330
1A
102
}
330
1A
100
AcDbGroup
300

 70
     1
 71
     1
  0
GROUP
  5
36A98
102
{ACAD_REACTORS
330
1A
102
}
330
1A
100
AcDbGroup
300

 70
     1
 71
     1
  0
GROUP
  5
36A99
102
{ACAD_REACTORS
330
1A
102
}
330
1A
100
AcDbGroup
300

 70
     1
 71
     1
  0
GROUP
  5
2D0BF
102
{ACAD_REACTORS
330
1A
102
}
330
1A
100
AcDbGroup
300

 70
     1
 71
     1
  0
GROUP
  5
27D79
102
{ACAD_REACTORS
330
1A
102
}
330
1A
100
AcDbGroup
300

 70
     1
 71
     1
  0
GROUP
  5
2CF6A
102
{ACAD_REACTORS
330
1A
102
}
330
1A
100
AcDbGroup
300

 70
     1
 71
     1
  0
GROUP
  5
2CFDA
102
{ACAD_REACTORS
330
1A
102
}
330
1A
100
AcDbGroup
300

 70
     1
 71
     1
  0
GROUP
  5
25EFC
102
{ACAD_REACTORS
330
1A
102
}
330
1A
100
AcDbGroup
300

 70
     1
 71
     1
  0
GROUP
  5
1DCF6
102
{ACAD_REACTORS
330
1A
102
}
330
1A
100
AcDbGroup
300

 70
     1
 71
     1
  0
GROUP
  5
D552
102
{ACAD_REACTORS
330
1A
102
}
330
1A
100
AcDbGroup
300

 70
     1
 71
     1
  0
GROUP
  5
2D0BC
102
{ACAD_REACTORS
330
1A
102
}
330
1A
100
AcDbGroup
300

 70
     1
 71
     1
  0
GROUP
  5
1DCB6
102
{ACAD_REACTORS
330
1A
102
}
330
1A
100
AcDbGroup
300

 70
     1
 71
     1
  0
GROUP
  5
1E3BE
102
{ACAD_REACTORS
330
1A
102
}
330
1A
100
AcDbGroup
300

 70
     1
 71
     1
  0
GROUP
  5
ACC8
102
{ACAD_REACTORS
330
1A
102
}
330
1A
100
AcDbGroup
300

 70
     1
 71
     1
  0
GROUP
  5
334B4
102
{ACAD_REACTORS
330
1A
102
}
330
1A
100
AcDbGroup
300

 70
     1
 71
     1
  0
GROUP
  5
25E96
102
{ACAD_REACTORS
330
1A
102
}
330
1A
100
AcDbGroup
300

 70
     1
 71
     1
  0
GROUP
  5
31F7E
102
{ACAD_REACTORS
330
1A
102
}
330
1A
100
AcDbGroup
300

 70
     1
 71
     1
  0
GROUP
  5
C884
102
{ACAD_REACTORS
330
1A
102
}
330
1A
100
AcDbGroup
300

 70
     1
 71
     1
  0
GROUP
  5
25E93
102
{ACAD_REACTORS
330
1A
102
}
330
1A
100
AcDbGroup
300

 70
     1
 71
     1
  0
GROUP
  5
25FEB
102
{ACAD_REACTORS
330
1A
102
}
330
1A
100
AcDbGroup
300

 70
     1
 71
     1
  0
GROUP
  5
25FEC
102
{ACAD_REACTORS
330
1A
102
}
330
1A
100
AcDbGroup
300

 70
     1
 71
     1
  0
GROUP
  5
2B41E
102
{ACAD_REACTORS
330
1A
102
}
330
1A
100
AcDbGroup
300

 70
     1
 71
     1
  0
GROUP
  5
2B41F
102
{ACAD_REACTORS
330
1A
102
}
330
1A
100
AcDbGroup
300

 70
     1
 71
     1
  0
GROUP
  5
27BF6
102
{ACAD_REACTORS
330
1A
102
}
330
1A
100
AcDbGroup
300

 70
     1
 71
     1
  0
GROUP
  5
FE80
102
{ACAD_REACTORS
330
1A
102
}
330
1A
100
AcDbGroup
300

 70
     1
 71
     1
  0
GROUP
  5
3350C
102
{ACAD_REACTORS
330
1A
102
}
330
1A
100
AcDbGroup
300

 70
     1
 71
     1
  0
GROUP
  5
3350F
102
{ACAD_REACTORS
330
1A
102
}
330
1A
100
AcDbGroup
300

 70
     1
 71
     1
  0
GROUP
  5
24A8C
102
{ACAD_REACTORS
330
1A
102
}
330
1A
100
AcDbGroup
300

 70
     1
 71
     1
  0
GROUP
  5
24AC3
102
{ACAD_REACTORS
330
1A
102
}
330
1A
100
AcDbGroup
300

 70
     1
 71
     1
  0
GROUP
  5
33538
102
{ACAD_REACTORS
330
1A
102
}
330
1A
100
AcDbGroup
300

 70
     1
 71
     1
  0
LAYOUT
  5
5C56
102
{ACAD_XDICTIONARY
360
3869C
102
}
102
{ACAD_REACTORS
330
5C53
102
}
330
5C53
100
AcDbPlotSettings
  1

  2
\\SRV203\prt101
  4

  6

 40
0.0
 41
0.0
 42
0.0
 43
0.0
 44
0.0
 45
0.0
 46
0.0
 47
0.0
 48
0.0
 49
0.0
140
0.0
141
0.0
142
1.0
143
1.0
 70
   688
 72
     0
 73
     0
 74
     5
  7

 75
    16
147
1.0
148
0.0
149
0.0
100
AcDbLayout
  1
Layout1
 70
     1
 71
     1
 10
0.0
 20
0.0
 11
420.0
 21
297.0
 12
0.0
 22
0.0
 32
0.0
 14
0.0
 24
0.0
 34
0.0
 15
221.361404
 25
334.895752
 35
2.0
146
0.0
 13
0.0
 23
0.0
 33
0.0
 16
1.0
 26
0.0
 36
0.0
 17
0.0
 27
1.0
 37
0.0
 76
     0
330
B
331
5B0B
  0
LAYOUT
  5
5C55
102
{ACAD_XDICTIONARY
360
3869A
102
}
102
{ACAD_REACTORS
330
5C53
102
}
330
5C53
100
AcDbPlotSettings
  1

  2
\\srv203\prt133
  4
A3
  6

 40
4.233333110809326
 41
4.233341693878172
 42
4.23333740234375
 43
4.23333740234375
 44
296.9259948730469
 45
419.9466552734373
 46
48.86
 47
65.25
 48
1120.693266833723
 49
193.7616332678444
140
1401.671216000002
141
384.494278816783
142
1.0
143
1.0
 70
 11956
 72
     1
 73
     1
 74
     4
  7
monochrome.ctb
 75
    16
147
1.0
148
-1120.693266833723
149
-193.7616332678444
100
AcDbLayout
  1
Model
 70
     1
 71
     0
 10
0.0
 20
0.0
 11
12.0
 21
9.0
 12
0.0
 22
0.0
 32
0.0
 14
0.0
 24
0.0
 34
0.0
 15
0.0
 25
0.0
 35
0.0
146
0.0
 13
0.0
 23
0.0
 33
0.0
 16
1.0
 26
0.0
 36
0.0
 17
0.0
 27
1.0
 37
0.0
 76
     0
330
A
  0
MLINESTYLE
  5
1C
102
{ACAD_REACTORS
330
1B
102
}
330
1B
100
AcDbMlineStyle
  2
STANDARD
 70
     0
  3

 62
     0
 51
90.0
 52
90.0
 71
     2
 49
0.5
 62
   256
  6
BYLAYER
 49
-0.5
 62
   256
  6
BYLAYER
  0
ACDBPLACEHOLDER
  5
5C50
102
{ACAD_REACTORS
330
5C4F
102
}
330
5C4F
  0
XRECORD
  5
38697
102
{ACAD_REACTORS
330
38695
102
}
330
38695
100
AcDbXrecord
280
     1
340
5C52
  0
XRECORD
  5
38696
102
{ACAD_REACTORS
330
38695
102
}
330
38695
100
AcDbXrecord
280
     1
340
5C51
  0
DICTIONARYVAR
  5
C324
102
{ACAD_REACTORS
330
C323
102
}
330
C323
100
DictionaryVariables
280
     0
  1
1
  0
DICTIONARYVAR
  5
C325
102
{ACAD_REACTORS
330
C323
102
}
330
C323
100
DictionaryVariables
280
     0
  1

  0
DICTIONARY
  5
3869C
330
5C56
100
AcDbDictionary
280
     1
281
     1
  3
ACAD_XREC_ROUNDTRIP
360
3869D
  0
DICTIONARY
  5
3869A
330
5C55
100
AcDbDictionary
280
     1
281
     1
  3
ACAD_XREC_ROUNDTRIP
360
3869B
  0
XRECORD
  5
3869D
102
{ACAD_REACTORS
330
3869C
102
}
330
3869C
100
AcDbXrecord
280
     1
102
SHADEPLOT
 70
     0
102
SHADEPLOTRESLEVEL
 70
     2
102
SHADEPLOTCUSTOMDPI
 70
   300
  0
XRECORD
  5
3869B
102
{ACAD_REACTORS
330
3869A
102
}
330
3869A
100
AcDbXrecord
280
     1
102
SHADEPLOT
 70
     0
102
SHADEPLOTRESLEVEL
 70
     2
102
SHADEPLOTCUSTOMDPI
 70
   300
  0
ENDSEC
  0
EOF
