  0
SECTION
  2
HEADER
  9
$ACADVER
  1
AC1014
  9
$ACADMAINTVER
 70
           0
  9
$DWGCODEPAGE
  3
ANSI_1252
  9
$INSBASE
 10
0.0
 20
0.0
 30
0.0
  9
$EXTMIN
 10
1.000000000000E+20
 20
1.000000000000E+20
 30
1.000000000000E+20
  9
$EXTMAX
 10
-1.000000000000E+20
 20
-1.000000000000E+20
 30
-1.000000000000E+20
  9
$LIMMIN
 10
0.0
 20
0.0
  9
$LIMMAX
 10
0.0
 20
0.0
  9
$ORTHOMODE
 70
           0
  9
$REGENMODE
 70
           1
  9
$FILLMODE
 70
           1
  9
$QTEXTMODE
 70
           0
  9
$MIRRTEXT
 70
           1
  9
$DRAGMODE
 70
           2
  9
$LTSCALE
 40
1.0
  9
$OSMODE
 70
           0
  9
$ATTMODE
 70
           1
  9
$TEXTSIZE
 40
0.2
  9
$TRACEWID
 40
0.05
  9
$TEXTSTYLE
  7
STANDARD
  9
$CLAYER
  8
0
  9
$CELTYPE
  6
CONTINUOUS
  9
$CECOLOR
 62
         256
  9
$CELTSCALE
 40
1.0
  9
$DELOBJ
 70
           1
  9
$DISPSILH
 70
           0
  9
$DIMSCALE
 40
1.0
  9
$DIMASZ
 40
0.18
  9
$DIMEXO
 40
0.0625
  9
$DIMDLI
 40
0.38
  9
$DIMRND
 40
0.0
  9
$DIMDLE
 40
0.0
  9
$DIMEXE
 40
0.18
  9
$DIMTP
 40
0.0
  9
$DIMTM
 40
0.0
  9
$DIMTXT
 40
0.18
  9
$DIMCEN
 40
0.09
  9
$DIMTSZ
 40
0.0
  9
$DIMTOL
 70
           0
  9
$DIMLIM
 70
           0
  9
$DIMTIH
 70
           1
  9
$DIMTOH
 70
           1
  9
$DIMSE1
 70
           0
  9
$DIMSE2
 70
           0
  9
$DIMTAD
 70
           0
  9
$DIMZIN
 70
           0
  9
$DIMBLK
  1

  9
$DIMASO
 70
           1
  9
$DIMSHO
 70
           1
  9
$DIMPOST
  1

  9
$DIMAPOST
  1

  9
$DIMALT
 70
           0
  9
$DIMALTD
 70
           2
  9
$DIMALTF
 40
25.4
  9
$DIMLFAC
 40
1.0
  9
$DIMTOFL
 70
           0
  9
$DIMTVP
 40
0.0
  9
$DIMTIX
 70
           0
  9
$DIMSOXD
 70
           0
  9
$DIMSAH
 70
           0
  9
$DIMBLK1
  1

  9
$DIMBLK2
  1

  9
$DIMSTYLE
  2
STANDARD
  9
$DIMCLRD
 70
           0
  9
$DIMCLRE
 70
           0
  9
$DIMCLRT
 70
           0
  9
$DIMTFAC
 40
1.0
  9
$DIMGAP
 40
0.09
  9
$DIMJUST
 70
           0
  9
$DIMSD1
 70
           0
  9
$DIMSD2
 70
           0
  9
$DIMTOLJ
 70
           1
  9
$DIMTZIN
 70
           0
  9
$DIMALTZ
 70
           0
  9
$DIMALTTZ
 70
           0
  9
$DIMFIT
 70
           3
  9
$DIMUPT
 70
           0
  9
$DIMUNIT
 70
           2
  9
$DIMDEC
 70
           4
  9
$DIMTDEC
 70
           4
  9
$DIMALTU
 70
           2
  9
$DIMALTTD
 70
           2
  9
$DIMTXSTY
  7
STANDARD
  9
$DIMAUNIT
 70
           0
  9
$LUNITS
 70
           2
  9
$LUPREC
 70
           4
  9
$SKETCHINC
 40
0.1
  9
$FILLETRAD
 40
0.0
  9
$AUNITS
 70
           0
  9
$AUPREC
 70
           0
  9
$MENU
  1
acad
  9
$ELEVATION
 40
0.0
  9
$PELEVATION
 40
0.0
  9
$THICKNESS
 40
0.0
  9
$LIMCHECK
 70
           0
  9
$BLIPMODE
 70
           1
  9
$CHAMFERA
 40
0.0
  9
$CHAMFERB
 40
0.0
  9
$CHAMFERC
 40
0.0
  9
$CHAMFERD
 40
0.0
  9
$SKPOLY
 70
           0
  9
$TDCREATE
 40
0.000000000
  9
$TDUPDATE
 40
0.000000000
  9
$TDINDWG
 40
0.0000000000
  9
$TDUSRTIMER
 40
0.0000000000
  9
$USRTIMER
 70
           1
  9
$ANGBASE
 50
0.0
  9
$ANGDIR
 70
           0
  9
$PDMODE
 70
           0
  9
$PDSIZE
 40
0.0
  9
$PLINEWID
 40
0.0
  9
$COORDS
 70
           0
  9
$SPLFRAME
 70
           0
  9
$SPLINETYPE
 70
           6
  9
$SPLINESEGS
 70
           8
  9
$ATTDIA
 70
           0
  9
$ATTREQ
 70
           1
  9
$HANDLING
 70
           1
  9
$HANDSEED
  5
4AC
  9
$SURFTAB1
 70
           6
  9
$SURFTAB2
 70
           6
  9
$SURFTYPE
 70
           6
  9
$SURFU
 70
           6
  9
$SURFV
 70
           6
  9
$UCSNAME
  2

  9
$UCSORG
 10
0.0
 20
0.0
 30
0.0
  9
$UCSXDIR
 10
1.0
 20
0.0
 30
0.0
  9
$UCSYDIR
 10
0.0
 20
1.0
 30
0.0
  9
$PUCSNAME
  2

  9
$PUCSORG
 10
0.0
 20
0.0
 30
0.0
  9
$PUCSXDIR
 10
1.0
 20
0.0
 30
0.0
  9
$PUCSYDIR
 10
0.0
 20
1.0
 30
0.0
  9
$USERI1
 70
           0
  9
$USERI2
 70
           0
  9
$USERI3
 70
           0
  9
$USERI4
 70
           0
  9
$USERI5
 70
           0
  9
$USERR1
 40
0.0
  9
$USERR2
 40
0.0
  9
$USERR3
 40
0.0
  9
$USERR4
 40
0.0
  9
$USERR5
 40
0.0
  9
$WORLDVIEW
 70
           1
  9
$SHADEDGE
 70
           3
  9
$SHADEDIF
 70
          70
  9
$TILEMODE
 70
           1
  9
$MAXACTVP
 70
          16
  9
$PINSBASE
 10
0.0
 20
0.0
 30
0.0
  9
$PLIMCHECK
 70
           0
  9
$PEXTMIN
 10
1.000000000000E+20
 20
1.000000000000E+20
 30
1.000000000000E+20
  9
$PEXTMAX
 10
-1.000000000000E+20
 20
-1.000000000000E+20
 30
-1.000000000000E+20
  9
$PLIMMIN
 10
0.0
 20
0.0
  9
$PLIMMAX
 10
12.0
 20
9.0
  9
$UNITMODE
 70
           0
  9
$VISRETAIN
 70
           0
  9
$PLINEGEN
 70
           1
  9
$PSLTSCALE
 70
           0
  9
$TREEDEPTH
 70
        3020
  9
$PICKSTYLE
 70
           1
  9
$CMLSTYLE
  2
STANDARD
  9
$CMLJUST
 70
           0
  9
$CMLSCALE
 40
1.0
  9
$PROXYGRAPHICS
 70
           0
  9
$MEASUREMENT
 70
           1
  0
ENDSEC
  0
SECTION
  2
CLASSES
  0
CLASS
  1
LWPOLYLINE
  2
AcDbPolyline
  3
"AutoCAD"
 90
        0
280
           0
281
           1
  0
CLASS
  1
IMAGE
  2
AcDbRasterImage
  3
ISM
 90
      127
280
           0
281
           1
  0
CLASS
  1
OLE2FRAME
  2
AcDbOle2Frame
  3
""
 90
        0
280
           0
281
           1
  0
CLASS
  1
HATCH
  2
AcDbHatch
  3
"ACAD_SEDONA"
 90
        0
280
           0
281
           1
  0
CLASS
  1
DICTIONARYVAR
  2
AcDbDictionaryVar
  3
"AutoCAD"
 90
        0
280
           0
281
           0
  0
CLASS
  1
RASTERVARIABLES
  2
AcDbRasterVariables
  3
ISM
 90
        0
280
           0
281
           0
  0
CLASS
  1
IMAGEDEF
  2
AcDbRasterImageDef
  3
ISM
 90
        0
280
           0
281
           0
  0
CLASS
  1
IMAGEDEF_REACTOR
  2
AcDbRasterImageDefReactor
  3
ISM
 90
        1
280
           0
281
           0
  0
CLASS
  1
IDBUFFER
  2
AcDbIdBuffer
  3
"Acad"
 90
        0
280
           0
281
           0
  0
CLASS
  1
SPATIAL_FILTER
  2
AcDbSpatialFilter
  3
"Acad"
 90
        0
280
           0
281
           0
  0
CLASS
  1
XRECORD
  2
AcDbXrecord
  3
"<Built In>"
 90
        0
280
           0
281
           0
  0
CLASS
  1
SORTENTSTABLE
  2
AcDbSortentsTable
  3
"AutoCAD"
 90
        0
280
           0
281
           0
  0
CLASS
  1
LAYER_INDEX
  2
AcDbLayerIndex
  3
"Acad"
 90
        0
280
           0
281
           0
  0
CLASS
  1
SPATIAL_INDEX
  2
AcDbSpatialIndex
  3
"Acad"
 90
        0
280
           0
281
           0
  0
CLASS
  1
OBJECT_PTR
  2
CAseDLPNTableRecord
  3
"ASE-LPNTableRecord"
 90
        1
280
           0
281
           0
  0
CLASS
  1
LAYOUT
  2
AcDbLayout
  3
"AutoCAD 2000"
 90
        1
280
           0
281
           0
  0
CLASS
  1
PLOTSETTINGS
  2
AcDbPlotSettings
  3
"AutoCAD 2000"
 90
        1
280
           0
281
           0
  0
CLASS
  1
ACDBDICTIONARYWDFLT
  2
AcDbDictionaryWithDefault
  3
"AutoCAD 2000"
 90
        1
280
           0
281
           0
  0
CLASS
  1
ACDBPLACEHOLDER
  2
AcDbPlaceHolder
  3
"AutoCAD 2000"
 90
        1
280
           0
281
           0
  0
CLASS
  1
VBA_PROJECT
  2
AcDbVbaProject
  3
"acadvba"
 90
        1
280
           0
281
           0
  0
CLASS
  1
WIPEOUT
  2
AcDbWipeout
  3
WipeOut|AutoCAD Express Tool|expresstools@autodesk.com
 90
      127
280
           0
281
           1
  0
CLASS
  1
WIPEOUTVARIABLES
  2
AcDbWipeoutVariables
  3
WipeOut|AutoCAD Express Tool|expresstools@autodesk.com
 90
        0
280
           0
281
           0
  0
CLASS
  1
RTEXT
  2
RText
  3
RText|AutoCAD Express Tool|expresstools@autodesk.com
 90
        0
280
           0
281
           1
  0
CLASS
  1
ARCALIGNEDTEXT
  2
AcDbArcAlignedText
  3
ATEXT|AutoCAD Express Tool|expresstools@autodesk.com
 90
        0
280
           0
281
           1
  0
ENDSEC
  0
SECTION
  2
TABLES
  0
TABLE
  2
VPORT
  5
7
100
AcDbSymbolTable
 70
           1
  0
VPORT
  5
15
100
AcDbSymbolTableRecord
100
AcDbViewportTableRecord
  2
*ACTIVE
 70
           0
 10
0.0
 20
0.0
 11
1.0
 21
1.0
 12
6.591288
 22
4.579184
 13
0.0
 23
0.0
 14
1.0
 24
1.0
 15
0.0
 25
0.0
 16
0.0
 26
0.0
 36
1.0
 17
0.0
 27
0.0
 37
0.0
 40
9.158369
 41
0.688564
 42
50.0
 43
0.0
 44
0.0
 50
0.0
 51
0.0
 71
           0
 72
         100
 73
           1
 74
           1
 75
           0
 76
           0
 77
           0
 78
           0
  0
ENDTAB
  0
TABLE
  2
LTYPE
  5
4
100
AcDbSymbolTable
 70
          10
  0
LTYPE
  5
11
100
AcDbSymbolTableRecord
100
AcDbLinetypeTableRecord
  2
BYBLOCK
 70
          64
  3

 72
          65
 73
           0
 40
0.0
  0
LTYPE
  5
12
100
AcDbSymbolTableRecord
100
AcDbLinetypeTableRecord
  2
BYLAYER
 70
          64
  3

 72
          65
 73
           0
 40
0.0
  0
LTYPE
  5
13
100
AcDbSymbolTableRecord
100
AcDbLinetypeTableRecord
  2
CONTINUOUS
 70
          64
  3
Solid line
 72
          65
 73
           0
 40
0.0
  0
LTYPE
  5
1D
100
AcDbSymbolTableRecord
100
AcDbLinetypeTableRecord
  2
DASHED
 70
          64
  3
Dashed
 72
          65
 73
           2
 40
15.0
 49
12.0
 74
           0
 49
-3.0
 74
           0
  0
LTYPE
  5
1E
100
AcDbSymbolTableRecord
100
AcDbLinetypeTableRecord
  2
DOTTED
 70
          64
  3
Dotted
 72
          65
 73
           2
 40
3.5
 49
0.5
 74
           0
 49
-3.0
 74
           0
  0
LTYPE
  5
1F
100
AcDbSymbolTableRecord
100
AcDbLinetypeTableRecord
  2
DOT_CENTER
 70
          64
  3
Dot_Center
 72
          65
 73
           4
 40
2.0
 49
1.25
 74
           0
 49
-0.25
 74
           0
 49
0.25
 74
           0
 49
-0.25
 74
           0
  0
LTYPE
  5
20
100
AcDbSymbolTableRecord
100
AcDbLinetypeTableRecord
  2
LONG_DASHED
 70
          64
  3
Long_Dashed
 72
          65
 73
           2
 40
2.0
 49
1.5
 74
           0
 49
-0.5
 74
           0
  0
LTYPE
  5
21
100
AcDbSymbolTableRecord
100
AcDbLinetypeTableRecord
  2
DASH_CENTER
 70
          64
  3
Dash_Center
 72
          65
 73
           4
 40
36.0
 49
24.0
 74
           0
 49
-3.0
 74
           0
 49
6.0
 74
           0
 49
-3.0
 74
           0
  0
LTYPE
  5
22
100
AcDbSymbolTableRecord
100
AcDbLinetypeTableRecord
  2
PHANTOM
 70
          64
  3
Phantom
 72
          65
 73
           6
 40
2.5
 49
1.25
 74
           0
 49
-0.25
 74
           0
 49
0.25
 74
           0
 49
-0.25
 74
           0
 49
0.25
 74
           0
 49
-0.25
 74
           0
  0
LTYPE
  5
23
100
AcDbSymbolTableRecord
100
AcDbLinetypeTableRecord
  2
CENTER_DASH_DASH
 70
          64
  3
Center_Dash_Dash
 72
          65
 73
           6
 40
22.0
 49
12.0
 74
           0
 49
-3.0
 74
           0
 49
0.5
 74
           0
 49
-3.0
 74
           0
 49
0.5
 74
           0
 49
-3.0
 74
           0
  0
ENDTAB
  0
TABLE
  2
LAYER
  5
2
100
AcDbSymbolTable
 70
           2
  0
LAYER
  5
14
100
AcDbSymbolTableRecord
100
AcDbLayerTableRecord
  2
0
 70
           0
 62
           7
  6
CONTINUOUS
  0
LAYER
  5
24
100
AcDbSymbolTableRecord
100
AcDbLayerTableRecord
  2
1
 70
           0
 62
           7
  6
CONTINUOUS
  0
ENDTAB
  0
TABLE
  2
STYLE
  5
3
100
AcDbSymbolTable
 70
           9
  0
STYLE
  5
17
100
AcDbSymbolTableRecord
100
AcDbTextStyleTableRecord
  2
STANDARD
 70
           0
 40
0.0
 41
1.0
 50
0.0
 71
           0
 42
0.0
  3
txt
  4

  0
STYLE
  5
10C
100
AcDbSymbolTableRecord
100
AcDbTextStyleTableRecord
  2
CONVERTER_1
 70
           0
 40
0.0
 41
0.9
 50
7.0
 71
           0
 42
0.0
  3
txt.shx
  4

  0
STYLE
  5
111
100
AcDbSymbolTableRecord
100
AcDbTextStyleTableRecord
  2
CONVERTER_2
 70
           0
 40
0.0
 41
0.9
 50
0.0
 71
           0
 42
0.0
  3
txt.shx
  4

  0
STYLE
  5
124
100
AcDbSymbolTableRecord
100
AcDbTextStyleTableRecord
  2
CONVERTER_3
 70
           0
 40
0.0
 41
0.72
 50
7.0
 71
           0
 42
0.0
  3
txt.shx
  4

  0
STYLE
  5
144
100
AcDbSymbolTableRecord
100
AcDbTextStyleTableRecord
  2
CONVERTER_4
 70
           0
 40
0.0
 41
1.017
 50
0.0
 71
           0
 42
0.0
  3
txt.shx
  4

  0
STYLE
  5
159
100
AcDbSymbolTableRecord
100
AcDbTextStyleTableRecord
  2
CONVERTER_5
 70
           0
 40
0.0
 41
1.17
 50
0.0
 71
           0
 42
0.0
  3
txt.shx
  4

  0
STYLE
  5
15B
100
AcDbSymbolTableRecord
100
AcDbTextStyleTableRecord
  2
CONVERTER_6
 70
           0
 40
0.0
 41
0.63
 50
0.0
 71
           0
 42
0.0
  3
txt.shx
  4

  0
STYLE
  5
312
100
AcDbSymbolTableRecord
100
AcDbTextStyleTableRecord
  2
CONVERTER_7
 70
           0
 40
0.0
 41
0.72
 50
0.0
 71
           0
 42
0.0
  3
txt.shx
  4

  0
STYLE
  5
31B
100
AcDbSymbolTableRecord
100
AcDbTextStyleTableRecord
  2
CONVERTER_8
 70
           0
 40
0.0
 41
0.856
 50
0.0
 71
           0
 42
0.0
  3
txt.shx
  4

  0
ENDTAB
  0
TABLE
  2
VIEW
  5
5
100
AcDbSymbolTable
 70
           0
  0
ENDTAB
  0
TABLE
  2
UCS
  5
6
100
AcDbSymbolTable
 70
           0
  0
ENDTAB
  0
TABLE
  2
APPID
  5
8
100
AcDbSymbolTable
 70
           1
  0
APPID
  5
16
100
AcDbSymbolTableRecord
100
AcDbRegAppTableRecord
  2
ACAD
 70
           0
  0
ENDTAB
  0
TABLE
  2
DIMSTYLE
  5
9
100
AcDbSymbolTable
 70
          31
  0
DIMSTYLE
105
18
100
AcDbSymbolTableRecord
100
AcDbDimStyleTableRecord
  2
STANDARD
 70
           0
  3

  4

  5

  6

  7

 40
1.0
 41
0.18
 42
0.0625
 43
0.38
 44
0.18
 45
0.0
 46
0.0
 47
0.0
 48
0.0
 71
           0
 72
           0
 73
           1
 74
           1
 75
           0
 76
           0
 77
           0
 78
           0
140
0.18
141
0.09
142
0.0
143
25.4
144
1.0
145
0.0
146
1.0
147
0.09
170
           0
171
           2
172
           0
173
           0
174
           0
175
           0
176
           0
177
           0
178
           0
270
           2
271
           4
272
           4
273
           2
274
           2
275
           0
280
           0
281
           0
282
           0
283
           1
284
           0
285
           0
286
           0
287
           0
288
           0
340
17
  0
DIMSTYLE
105
32F
100
AcDbSymbolTableRecord
100
AcDbDimStyleTableRecord
  2
ME10_DIM_0
 70
           0
  3

  4

  5

  6

  7

 40
1.0
 41
10.0
 42
0.0
 43
0.38
 44
2.5
 45
0.0
 46
0.0
 47
0.0
 48
0.0
 71
           0
 72
           0
 73
           0
 74
           0
 75
           0
 76
           0
 77
           1
 78
           8
140
6.25
141
0.09
142
0.0
143
25.4
144
1.0
145
0.0
146
1.0
147
0.625
170
           0
171
           2
172
           0
173
           1
174
           0
175
           0
176
           2
177
           2
178
           3
270
           2
271
           3
272
           4
273
           2
274
           2
275
           0
280
           0
281
           0
282
           0
283
           1
284
           0
285
           0
286
           0
287
           3
288
           0
340
17
  0
DIMSTYLE
105
33C
100
AcDbSymbolTableRecord
100
AcDbDimStyleTableRecord
  2
ME10_DIM_1
 70
           0
  3

  4

  5

  6

  7

 40
1.0
 41
10.0
 42
0.0
 43
0.38
 44
2.5
 45
0.0
 46
0.0
 47
0.0
 48
0.0
 71
           0
 72
           0
 73
           0
 74
           0
 75
           0
 76
           0
 77
           1
 78
           8
140
6.25
141
0.09
142
0.0
143
25.4
144
1.0
145
0.0
146
1.0
147
0.625
170
           0
171
           2
172
           0
173
           1
174
           0
175
           0
176
           2
177
           2
178
           3
270
           2
271
           3
272
           4
273
           2
274
           2
275
           0
280
           0
281
           0
282
           0
283
           1
284
           0
285
           0
286
           0
287
           3
288
           0
340
17
  0
DIMSTYLE
105
348
100
AcDbSymbolTableRecord
100
AcDbDimStyleTableRecord
  2
ME10_DIM_2
 70
           0
  3

  4

  5

  6

  7

 40
1.0
 41
10.0
 42
0.0
 43
0.38
 44
2.5
 45
0.0
 46
0.0
 47
0.0
 48
0.0
 71
           0
 72
           0
 73
           0
 74
           0
 75
           0
 76
           0
 77
           1
 78
           8
140
6.25
141
0.09
142
0.0
143
25.4
144
1.0
145
0.0
146
1.0
147
0.625
170
           0
171
           2
172
           0
173
           1
174
           0
175
           0
176
           2
177
           2
178
           3
270
           2
271
           3
272
           4
273
           2
274
           2
275
           0
280
           0
281
           0
282
           0
283
           1
284
           0
285
           0
286
           0
287
           3
288
           0
340
17
  0
DIMSTYLE
105
354
100
AcDbSymbolTableRecord
100
AcDbDimStyleTableRecord
  2
ME10_DIM_3
 70
           0
  3

  4

  5

  6

  7

 40
1.0
 41
10.0
 42
0.0
 43
0.38
 44
2.5
 45
0.0
 46
0.0
 47
0.0
 48
0.0
 71
           0
 72
           0
 73
           0
 74
           0
 75
           0
 76
           0
 77
           1
 78
           8
140
6.25
141
0.09
142
0.0
143
25.4
144
1.0
145
0.0
146
1.0
147
0.625
170
           0
171
           2
172
           0
173
           1
174
           0
175
           0
176
           2
177
           2
178
           3
270
           2
271
           3
272
           4
273
           2
274
           2
275
           0
280
           0
281
           0
282
           0
283
           1
284
           0
285
           0
286
           0
287
           3
288
           0
340
17
  0
DIMSTYLE
105
362
100
AcDbSymbolTableRecord
100
AcDbDimStyleTableRecord
  2
ME10_DIM_4
 70
           0
  3

  4

  5

  6

  7

 40
1.0
 41
8.75
 42
0.0
 43
0.38
 44
2.5
 45
0.0
 46
0.0
 47
0.0
 48
0.0
 71
           0
 72
           0
 73
           0
 74
           0
 75
           0
 76
           0
 77
           1
 78
           8
140
6.25
141
0.09
142
0.0
143
25.4
144
1.0
145
0.0
146
1.0
147
0.625
170
           0
171
           2
172
           0
173
           1
174
           0
175
           0
176
           2
177
           2
178
           3
270
           2
271
           2
272
           4
273
           2
274
           2
275
           0
280
           0
281
           0
282
           0
283
           1
284
           0
285
           0
286
           0
287
           3
288
           0
340
17
  0
DIMSTYLE
105
36F
100
AcDbSymbolTableRecord
100
AcDbDimStyleTableRecord
  2
ME10_DIM_5
 70
           0
  3
*<>
  4

  5

  6

  7

 40
1.0
 41
8.75
 42
0.0
 43
0.38
 44
2.5
 45
0.0
 46
0.0
 47
0.0
 48
0.0
 71
           0
 72
           0
 73
           0
 74
           0
 75
           0
 76
           0
 77
           1
 78
           8
140
6.25
141
0.09
142
0.0
143
25.4
144
1.0
145
0.0
146
1.0
147
0.625
170
           0
171
           2
172
           0
173
           1
174
           0
175
           0
176
           2
177
           2
178
           3
270
           2
271
           2
272
           4
273
           2
274
           2
275
           0
280
           0
281
           0
282
           0
283
           1
284
           0
285
           0
286
           0
287
           3
288
           0
340
17
  0
DIMSTYLE
105
37C
100
AcDbSymbolTableRecord
100
AcDbDimStyleTableRecord
  2
ME10_DIM_6
 70
           0
  3

  4

  5

  6

  7

 40
1.0
 41
8.75
 42
0.0
 43
0.38
 44
2.5
 45
0.0
 46
0.0
 47
0.0
 48
0.0
 71
           0
 72
           0
 73
           0
 74
           0
 75
           0
 76
           0
 77
           1
 78
           8
140
6.25
141
0.09
142
0.0
143
25.4
144
1.0
145
0.0
146
1.0
147
0.625
170
           0
171
           2
172
           0
173
           1
174
           0
175
           0
176
           2
177
           2
178
           3
270
           2
271
           2
272
           4
273
           2
274
           2
275
           0
280
           0
281
           0
282
           0
283
           1
284
           0
285
           0
286
           0
287
           3
288
           0
340
17
  0
DIMSTYLE
105
387
100
AcDbSymbolTableRecord
100
AcDbDimStyleTableRecord
  2
ME10_DIM_7
 70
           0
  3

  4

  5

  6

  7

 40
1.0
 41
8.75
 42
0.0
 43
0.38
 44
2.5
 45
0.0
 46
0.0
 47
0.0
 48
0.0
 71
           0
 72
           0
 73
           0
 74
           0
 75
           0
 76
           0
 77
           1
 78
           8
140
6.25
141
0.09
142
0.0
143
25.4
144
1.0
145
0.0
146
1.0
147
0.625
170
           0
171
           2
172
           0
173
           1
174
           0
175
           0
176
           2
177
           2
178
           3
270
           2
271
           2
272
           4
273
           2
274
           2
275
           0
280
           0
281
           0
282
           0
283
           1
284
           0
285
           0
286
           0
287
           3
288
           0
340
17
  0
DIMSTYLE
105
394
100
AcDbSymbolTableRecord
100
AcDbDimStyleTableRecord
  2
ME10_DIM_8
 70
           0
  3

  4

  5

  6

  7

 40
1.0
 41
8.75
 42
0.0
 43
0.38
 44
2.5
 45
0.0
 46
0.0
 47
0.0
 48
0.0
 71
           0
 72
           0
 73
           0
 74
           0
 75
           0
 76
           0
 77
           1
 78
           8
140
6.25
141
0.09
142
0.0
143
25.4
144
1.0
145
0.0
146
1.0
147
0.625
170
           0
171
           2
172
           0
173
           1
174
           0
175
           0
176
           2
177
           2
178
           3
270
           2
271
           2
272
           4
273
           2
274
           2
275
           0
280
           0
281
           0
282
           0
283
           1
284
           0
285
           0
286
           0
287
           3
288
           0
340
17
  0
DIMSTYLE
105
3A0
100
AcDbSymbolTableRecord
100
AcDbDimStyleTableRecord
  2
ME10_DIM_9
 70
           0
  3

  4

  5

  6

  7

 40
1.0
 41
8.75
 42
0.0
 43
0.38
 44
2.5
 45
0.0
 46
0.0
 47
0.0
 48
0.0
 71
           0
 72
           0
 73
           0
 74
           0
 75
           0
 76
           0
 77
           1
 78
           8
140
6.25
141
0.09
142
0.0
143
25.4
144
1.0
145
0.0
146
1.0
147
0.625
170
           0
171
           2
172
           0
173
           1
174
           0
175
           0
176
           2
177
           2
178
           3
270
           2
271
           2
272
           4
273
           2
274
           2
275
           0
280
           0
281
           0
282
           0
283
           1
284
           0
285
           0
286
           0
287
           3
288
           0
340
17
  0
DIMSTYLE
105
3AD
100
AcDbSymbolTableRecord
100
AcDbDimStyleTableRecord
  2
ME10_DIM_10
 70
           0
  3

  4

  5

  6

  7

 40
1.0
 41
8.75
 42
0.0
 43
0.38
 44
2.5
 45
0.0
 46
0.0
 47
0.0
 48
0.0
 71
           0
 72
           0
 73
           0
 74
           0
 75
           0
 76
           0
 77
           1
 78
           8
140
6.25
141
0.09
142
0.0
143
25.4
144
1.0
145
0.0
146
1.0
147
0.625
170
           0
171
           2
172
           0
173
           1
174
           0
175
           0
176
           2
177
           2
178
           3
270
           2
271
           2
272
           4
273
           2
274
           2
275
           0
280
           0
281
           0
282
           0
283
           1
284
           0
285
           0
286
           0
287
           3
288
           0
340
17
  0
DIMSTYLE
105
3B8
100
AcDbSymbolTableRecord
100
AcDbDimStyleTableRecord
  2
ME10_DIM_11
 70
           0
  3

  4

  5

  6

  7

 40
1.0
 41
8.75
 42
0.0
 43
0.38
 44
2.5
 45
0.0
 46
0.0
 47
0.0
 48
0.0
 71
           0
 72
           0
 73
           0
 74
           0
 75
           0
 76
           0
 77
           1
 78
           8
140
6.25
141
0.09
142
0.0
143
25.4
144
1.0
145
0.0
146
1.0
147
0.625
170
           0
171
           2
172
           0
173
           1
174
           0
175
           0
176
           2
177
           2
178
           3
270
           2
271
           2
272
           4
273
           2
274
           2
275
           0
280
           0
281
           0
282
           0
283
           1
284
           0
285
           0
286
           0
287
           3
288
           0
340
17
  0
DIMSTYLE
105
3C5
100
AcDbSymbolTableRecord
100
AcDbDimStyleTableRecord
  2
ME10_DIM_12
 70
           0
  3
ø<>
  4

  5

  6

  7

 40
1.0
 41
8.75
 42
0.0
 43
0.38
 44
2.5
 45
0.0
 46
0.0
 47
0.0
 48
0.0
 71
           0
 72
           0
 73
           0
 74
           0
 75
           0
 76
           0
 77
           1
 78
           8
140
6.25
141
0.09
142
0.0
143
25.4
144
1.0
145
0.0
146
1.0
147
0.625
170
           0
171
           2
172
           0
173
           1
174
           0
175
           0
176
           2
177
           2
178
           3
270
           2
271
           2
272
           4
273
           2
274
           2
275
           0
280
           0
281
           0
282
           0
283
           1
284
           0
285
           0
286
           0
287
           3
288
           0
340
17
  0
DIMSTYLE
105
3D1
100
AcDbSymbolTableRecord
100
AcDbDimStyleTableRecord
  2
ME10_DIM_13
 70
           0
  3

  4

  5

  6

  7

 40
1.0
 41
10.0
 42
0.0
 43
0.38
 44
2.5
 45
0.0
 46
0.0
 47
0.0
 48
0.0
 71
           0
 72
           0
 73
           0
 74
           0
 75
           0
 76
           0
 77
           1
 78
           8
140
6.25
141
0.09
142
0.0
143
25.4
144
1.0
145
0.0
146
1.0
147
0.625
170
           0
171
           2
172
           0
173
           1
174
           0
175
           0
176
           2
177
           2
178
           3
270
           2
271
           3
272
           4
273
           2
274
           2
275
           0
280
           0
281
           0
282
           0
283
           1
284
           0
285
           0
286
           0
287
           3
288
           0
340
17
  0
DIMSTYLE
105
3DD
100
AcDbSymbolTableRecord
100
AcDbDimStyleTableRecord
  2
ME10_DIM_14
 70
           0
  3

  4

  5

  6

  7

 40
1.0
 41
10.0
 42
0.0
 43
0.38
 44
2.5
 45
0.0
 46
0.0
 47
0.0
 48
0.0
 71
           0
 72
           0
 73
           0
 74
           0
 75
           0
 76
           0
 77
           1
 78
           8
140
6.25
141
0.09
142
0.0
143
25.4
144
1.0
145
0.0
146
1.0
147
0.625
170
           0
171
           2
172
           0
173
           1
174
           0
175
           0
176
           2
177
           2
178
           3
270
           2
271
           3
272
           4
273
           2
274
           2
275
           0
280
           0
281
           0
282
           0
283
           1
284
           0
285
           0
286
           0
287
           3
288
           0
340
17
  0
DIMSTYLE
105
3EA
100
AcDbSymbolTableRecord
100
AcDbDimStyleTableRecord
  2
ME10_DIM_15
 70
           0
  3

  4

  5

  6

  7

 40
1.0
 41
10.0
 42
0.0
 43
0.38
 44
2.5
 45
0.0
 46
0.0
 47
0.0
 48
0.0
 71
           0
 72
           0
 73
           0
 74
           0
 75
           0
 76
           0
 77
           1
 78
           8
140
6.25
141
0.09
142
0.0
143
25.4
144
1.0
145
0.0
146
1.0
147
0.625
170
           0
171
           2
172
           0
173
           1
174
           0
175
           0
176
           2
177
           2
178
           3
270
           2
271
           3
272
           4
273
           2
274
           2
275
           0
280
           0
281
           0
282
           0
283
           1
284
           0
285
           0
286
           0
287
           3
288
           0
340
17
  0
DIMSTYLE
105
3F7
100
AcDbSymbolTableRecord
100
AcDbDimStyleTableRecord
  2
ME10_DIM_16
 70
           0
  3

  4

  5

  6

  7

 40
1.0
 41
10.0
 42
0.0
 43
0.38
 44
2.5
 45
0.0
 46
0.0
 47
0.0
 48
0.0
 71
           0
 72
           0
 73
           0
 74
           0
 75
           0
 76
           0
 77
           1
 78
           8
140
6.25
141
0.09
142
0.0
143
25.4
144
1.0
145
0.0
146
1.0
147
0.625
170
           0
171
           2
172
           0
173
           1
174
           0
175
           0
176
           2
177
           2
178
           3
270
           2
271
           3
272
           4
273
           2
274
           2
275
           0
280
           0
281
           0
282
           0
283
           1
284
           0
285
           0
286
           0
287
           3
288
           0
340
17
  0
DIMSTYLE
105
406
100
AcDbSymbolTableRecord
100
AcDbDimStyleTableRecord
  2
ME10_DIM_17
 70
           0
  3

  4

  5

  6

  7

 40
1.0
 41
8.75
 42
0.0
 43
0.38
 44
2.5
 45
0.0
 46
0.0
 47
0.0
 48
0.0
 71
           0
 72
           0
 73
           0
 74
           0
 75
           0
 76
           0
 77
           1
 78
           8
140
6.25
141
0.09
142
0.0
143
25.4
144
1.0
145
0.0
146
1.0
147
0.625
170
           0
171
           2
172
           0
173
           1
174
           0
175
           0
176
           2
177
           2
178
           3
270
           2
271
           2
272
           4
273
           2
274
           2
275
           0
280
           0
281
           0
282
           0
283
           1
284
           0
285
           0
286
           0
287
           3
288
           0
340
17
  0
DIMSTYLE
105
413
100
AcDbSymbolTableRecord
100
AcDbDimStyleTableRecord
  2
ME10_DIM_18
 70
           0
  3

  4

  5

  6

  7

 40
1.0
 41
10.0
 42
0.0
 43
0.38
 44
2.5
 45
0.0
 46
0.0
 47
0.0
 48
0.0
 71
           0
 72
           0
 73
           0
 74
           0
 75
           0
 76
           0
 77
           1
 78
           8
140
6.25
141
0.09
142
0.0
143
25.4
144
1.0
145
0.0
146
1.0
147
0.625
170
           0
171
           2
172
           0
173
           1
174
           0
175
           0
176
           2
177
           2
178
           3
270
           2
271
           3
272
           4
273
           2
274
           2
275
           0
280
           0
281
           0
282
           0
283
           1
284
           0
285
           0
286
           0
287
           3
288
           0
340
17
  0
DIMSTYLE
105
41E
100
AcDbSymbolTableRecord
100
AcDbDimStyleTableRecord
  2
ME10_DIM_19
 70
           0
  3

  4

  5

  6

  7

 40
1.0
 41
10.0
 42
0.0
 43
0.38
 44
2.5
 45
0.0
 46
0.0
 47
0.0
 48
0.0
 71
           0
 72
           0
 73
           0
 74
           0
 75
           0
 76
           0
 77
           1
 78
           8
140
6.25
141
0.09
142
0.0
143
25.4
144
1.0
145
0.0
146
1.0
147
0.625
170
           0
171
           2
172
           0
173
           1
174
           0
175
           0
176
           2
177
           2
178
           3
270
           2
271
           3
272
           4
273
           2
274
           2
275
           0
280
           0
281
           0
282
           0
283
           1
284
           0
285
           0
286
           0
287
           3
288
           0
340
17
  0
DIMSTYLE
105
42D
100
AcDbSymbolTableRecord
100
AcDbDimStyleTableRecord
  2
ME10_DIM_20
 70
           0
  3

  4

  5

  6

  7

 40
1.0
 41
8.75
 42
0.0
 43
0.38
 44
2.5
 45
0.0
 46
0.0
 47
0.0
 48
0.0
 71
           0
 72
           0
 73
           0
 74
           0
 75
           0
 76
           0
 77
           1
 78
           8
140
6.25
141
0.09
142
0.0
143
25.4
144
1.0
145
0.0
146
1.0
147
0.625
170
           0
171
           2
172
           0
173
           1
174
           0
175
           0
176
           2
177
           2
178
           3
270
           2
271
           2
272
           4
273
           2
274
           2
275
           0
280
           0
281
           0
282
           0
283
           1
284
           0
285
           0
286
           0
287
           3
288
           0
340
17
  0
DIMSTYLE
105
43A
100
AcDbSymbolTableRecord
100
AcDbDimStyleTableRecord
  2
ME10_DIM_21
 70
           0
  3

  4

  5

  6

  7

 40
1.0
 41
8.75
 42
0.0
 43
0.38
 44
2.5
 45
0.0
 46
0.0
 47
0.0
 48
0.0
 71
           0
 72
           0
 73
           0
 74
           0
 75
           0
 76
           0
 77
           1
 78
           8
140
6.25
141
0.09
142
0.0
143
25.4
144
1.0
145
0.0
146
1.0
147
0.625
170
           0
171
           2
172
           0
173
           1
174
           0
175
           0
176
           2
177
           2
178
           3
270
           2
271
           2
272
           4
273
           2
274
           2
275
           0
280
           0
281
           0
282
           0
283
           1
284
           0
285
           0
286
           0
287
           3
288
           0
340
17
  0
DIMSTYLE
105
449
100
AcDbSymbolTableRecord
100
AcDbDimStyleTableRecord
  2
ME10_DIM_22
 70
           0
  3

  4

  5

  6

  7

 40
1.0
 41
8.75
 42
0.0
 43
0.38
 44
2.5
 45
0.0
 46
0.0
 47
0.0
 48
0.0
 71
           0
 72
           0
 73
           0
 74
           0
 75
           0
 76
           0
 77
           1
 78
           8
140
6.25
141
0.09
142
0.0
143
25.4
144
1.0
145
0.0
146
1.0
147
0.625
170
           0
171
           2
172
           0
173
           1
174
           0
175
           0
176
           2
177
           2
178
           3
270
           2
271
           2
272
           4
273
           2
274
           2
275
           0
280
           0
281
           0
282
           0
283
           1
284
           0
285
           0
286
           0
287
           3
288
           0
340
17
  0
DIMSTYLE
105
454
100
AcDbSymbolTableRecord
100
AcDbDimStyleTableRecord
  2
ME10_DIM_23
 70
           0
  3

  4

  5

  6

  7

 40
1.0
 41
8.75
 42
0.0
 43
0.38
 44
2.5
 45
0.0
 46
0.0
 47
0.0
 48
0.0
 71
           0
 72
           0
 73
           0
 74
           0
 75
           0
 76
           0
 77
           1
 78
           8
140
6.25
141
0.09
142
0.0
143
25.4
144
1.0
145
0.0
146
1.0
147
0.625
170
           0
171
           2
172
           0
173
           1
174
           0
175
           0
176
           2
177
           2
178
           3
270
           2
271
           2
272
           4
273
           2
274
           2
275
           0
280
           0
281
           0
282
           0
283
           1
284
           0
285
           0
286
           0
287
           3
288
           0
340
17
  0
DIMSTYLE
105
45F
100
AcDbSymbolTableRecord
100
AcDbDimStyleTableRecord
  2
ME10_DIM_24
 70
           0
  3

  4

  5

  6

  7

 40
1.0
 41
10.0
 42
0.0
 43
0.38
 44
2.5
 45
0.0
 46
0.0
 47
0.0
 48
0.0
 71
           0
 72
           0
 73
           0
 74
           0
 75
           0
 76
           0
 77
           1
 78
           8
140
6.25
141
0.09
142
0.0
143
25.4
144
1.0
145
0.0
146
1.0
147
0.625
170
           0
171
           2
172
           0
173
           1
174
           0
175
           0
176
           2
177
           2
178
           3
270
           2
271
           3
272
           4
273
           2
274
           2
275
           0
280
           0
281
           0
282
           0
283
           1
284
           0
285
           0
286
           0
287
           3
288
           0
340
17
  0
DIMSTYLE
105
46B
100
AcDbSymbolTableRecord
100
AcDbDimStyleTableRecord
  2
ME10_DIM_25
 70
           0
  3

  4

  5

  6

  7

 40
1.0
 41
10.0
 42
0.0
 43
0.38
 44
2.5
 45
0.0
 46
0.0
 47
0.0
 48
0.0
 71
           0
 72
           0
 73
           0
 74
           0
 75
           0
 76
           0
 77
           1
 78
           8
140
6.25
141
0.09
142
0.0
143
25.4
144
1.0
145
0.0
146
1.0
147
0.625
170
           0
171
           2
172
           0
173
           1
174
           0
175
           0
176
           2
177
           2
178
           3
270
           2
271
           3
272
           4
273
           2
274
           2
275
           0
280
           0
281
           0
282
           0
283
           1
284
           0
285
           0
286
           0
287
           3
288
           0
340
17
  0
DIMSTYLE
105
476
100
AcDbSymbolTableRecord
100
AcDbDimStyleTableRecord
  2
ME10_DIM_26
 70
           0
  3

  4

  5

  6

  7

 40
1.0
 41
10.0
 42
0.0
 43
0.38
 44
2.5
 45
0.0
 46
0.0
 47
0.0
 48
0.0
 71
           0
 72
           0
 73
           0
 74
           0
 75
           0
 76
           0
 77
           1
 78
           8
140
6.25
141
0.09
142
0.0
143
25.4
144
1.0
145
0.0
146
1.0
147
0.625
170
           0
171
           2
172
           0
173
           1
174
           0
175
           0
176
           2
177
           2
178
           3
270
           2
271
           3
272
           4
273
           2
274
           2
275
           0
280
           0
281
           0
282
           0
283
           1
284
           0
285
           0
286
           0
287
           3
288
           0
340
17
  0
DIMSTYLE
105
483
100
AcDbSymbolTableRecord
100
AcDbDimStyleTableRecord
  2
ME10_DIM_27
 70
           0
  3

  4

  5

  6

  7

 40
1.0
 41
8.75
 42
0.0
 43
0.38
 44
2.5
 45
0.0
 46
0.0
 47
0.0
 48
0.0
 71
           0
 72
           0
 73
           0
 74
           0
 75
           0
 76
           0
 77
           1
 78
           8
140
6.25
141
0.09
142
0.0
143
25.4
144
1.0
145
0.0
146
1.0
147
0.625
170
           0
171
           2
172
           0
173
           1
174
           0
175
           0
176
           2
177
           2
178
           3
270
           2
271
           2
272
           4
273
           2
274
           2
275
           0
280
           0
281
           0
282
           0
283
           1
284
           0
285
           0
286
           0
287
           3
288
           0
340
17
  0
DIMSTYLE
105
48E
100
AcDbSymbolTableRecord
100
AcDbDimStyleTableRecord
  2
ME10_DIM_28
 70
           0
  3

  4

  5

  6

  7

 40
1.0
 41
8.75
 42
0.0
 43
0.38
 44
2.5
 45
0.0
 46
0.0
 47
0.0
 48
0.0
 71
           0
 72
           0
 73
           0
 74
           0
 75
           0
 76
           0
 77
           1
 78
           8
140
6.25
141
0.09
142
0.0
143
25.4
144
1.0
145
0.0
146
1.0
147
0.625
170
           0
171
           2
172
           0
173
           1
174
           0
175
           0
176
           2
177
           2
178
           3
270
           2
271
           2
272
           4
273
           2
274
           2
275
           0
280
           0
281
           0
282
           0
283
           1
284
           0
285
           0
286
           0
287
           3
288
           0
340
17
  0
DIMSTYLE
105
49B
100
AcDbSymbolTableRecord
100
AcDbDimStyleTableRecord
  2
ME10_DIM_29
 70
           0
  3

  4

  5

  6

  7

 40
1.0
 41
8.75
 42
0.0
 43
0.38
 44
2.5
 45
0.0
 46
0.0
 47
0.0
 48
0.0
 71
           0
 72
           0
 73
           0
 74
           0
 75
           0
 76
           0
 77
           1
 78
           8
140
6.25
141
0.09
142
0.0
143
25.4
144
1.0
145
0.0
146
1.0
147
0.625
170
           0
171
           2
172
           0
173
           1
174
           0
175
           0
176
           2
177
           2
178
           3
270
           2
271
           2
272
           4
273
           2
274
           2
275
           0
280
           0
281
           0
282
           0
283
           1
284
           0
285
           0
286
           0
287
           3
288
           0
340
17
  0
ENDTAB
  0
TABLE
  2
BLOCK_RECORD
  5
1
100
AcDbSymbolTable
 70
          32
  0
BLOCK_RECORD
  5
A
100
AcDbSymbolTableRecord
100
AcDbBlockTableRecord
  2
*MODEL_SPACE
  0
BLOCK_RECORD
  5
B
100
AcDbSymbolTableRecord
100
AcDbBlockTableRecord
  2
*PAPER_SPACE
  0
BLOCK_RECORD
  5
25
100
AcDbSymbolTableRecord
100
AcDbBlockTableRecord
  2
WILKA_A4_K
  0
BLOCK_RECORD
  5
325
100
AcDbSymbolTableRecord
100
AcDbBlockTableRecord
  2
*D1
  0
BLOCK_RECORD
  5
331
100
AcDbSymbolTableRecord
100
AcDbBlockTableRecord
  2
*D2
  0
BLOCK_RECORD
  5
33E
100
AcDbSymbolTableRecord
100
AcDbBlockTableRecord
  2
*D3
  0
BLOCK_RECORD
  5
34A
100
AcDbSymbolTableRecord
100
AcDbBlockTableRecord
  2
*D4
  0
BLOCK_RECORD
  5
356
100
AcDbSymbolTableRecord
100
AcDbBlockTableRecord
  2
*D5
  0
BLOCK_RECORD
  5
364
100
AcDbSymbolTableRecord
100
AcDbBlockTableRecord
  2
*D6
  0
BLOCK_RECORD
  5
371
100
AcDbSymbolTableRecord
100
AcDbBlockTableRecord
  2
*D7
  0
BLOCK_RECORD
  5
37E
100
AcDbSymbolTableRecord
100
AcDbBlockTableRecord
  2
*D8
  0
BLOCK_RECORD
  5
389
100
AcDbSymbolTableRecord
100
AcDbBlockTableRecord
  2
*D9
  0
BLOCK_RECORD
  5
396
100
AcDbSymbolTableRecord
100
AcDbBlockTableRecord
  2
*D10
  0
BLOCK_RECORD
  5
3A2
100
AcDbSymbolTableRecord
100
AcDbBlockTableRecord
  2
*D11
  0
BLOCK_RECORD
  5
3AF
100
AcDbSymbolTableRecord
100
AcDbBlockTableRecord
  2
*D12
  0
BLOCK_RECORD
  5
3BA
100
AcDbSymbolTableRecord
100
AcDbBlockTableRecord
  2
*D13
  0
BLOCK_RECORD
  5
3C7
100
AcDbSymbolTableRecord
100
AcDbBlockTableRecord
  2
*D14
  0
BLOCK_RECORD
  5
3D3
100
AcDbSymbolTableRecord
100
AcDbBlockTableRecord
  2
*D15
  0
BLOCK_RECORD
  5
3DF
100
AcDbSymbolTableRecord
100
AcDbBlockTableRecord
  2
*D16
  0
BLOCK_RECORD
  5
3EC
100
AcDbSymbolTableRecord
100
AcDbBlockTableRecord
  2
*D17
  0
BLOCK_RECORD
  5
3F9
100
AcDbSymbolTableRecord
100
AcDbBlockTableRecord
  2
*D18
  0
BLOCK_RECORD
  5
408
100
AcDbSymbolTableRecord
100
AcDbBlockTableRecord
  2
*D19
  0
BLOCK_RECORD
  5
415
100
AcDbSymbolTableRecord
100
AcDbBlockTableRecord
  2
*D20
  0
BLOCK_RECORD
  5
420
100
AcDbSymbolTableRecord
100
AcDbBlockTableRecord
  2
*D21
  0
BLOCK_RECORD
  5
42F
100
AcDbSymbolTableRecord
100
AcDbBlockTableRecord
  2
*D22
  0
BLOCK_RECORD
  5
43C
100
AcDbSymbolTableRecord
100
AcDbBlockTableRecord
  2
*D23
  0
BLOCK_RECORD
  5
44B
100
AcDbSymbolTableRecord
100
AcDbBlockTableRecord
  2
*D24
  0
BLOCK_RECORD
  5
456
100
AcDbSymbolTableRecord
100
AcDbBlockTableRecord
  2
*D25
  0
BLOCK_RECORD
  5
461
100
AcDbSymbolTableRecord
100
AcDbBlockTableRecord
  2
*D26
  0
BLOCK_RECORD
  5
46D
100
AcDbSymbolTableRecord
100
AcDbBlockTableRecord
  2
*D27
  0
BLOCK_RECORD
  5
478
100
AcDbSymbolTableRecord
100
AcDbBlockTableRecord
  2
*D28
  0
BLOCK_RECORD
  5
485
100
AcDbSymbolTableRecord
100
AcDbBlockTableRecord
  2
*D29
  0
BLOCK_RECORD
  5
490
100
AcDbSymbolTableRecord
100
AcDbBlockTableRecord
  2
*D30
  0
BLOCK_RECORD
  5
49D
100
AcDbSymbolTableRecord
100
AcDbBlockTableRecord
  2
*D31
  0
ENDTAB
  0
ENDSEC
  0
SECTION
  2
BLOCKS
  0
BLOCK
  5
D
100
AcDbEntity
  8
0
100
AcDbBlockBegin
  2
*MODEL_SPACE
 70
           0
 10
0.0
 20
0.0
 30
0.0
  3
*MODEL_SPACE
  1

  0
ENDBLK
  5
E
100
AcDbEntity
  8
0
100
AcDbBlockEnd
  0
BLOCK
  5
F
100
AcDbEntity
 67
           1
  8
0
100
AcDbBlockBegin
  2
*PAPER_SPACE
 70
           0
 10
0.0
 20
0.0
 30
0.0
  3
*PAPER_SPACE
  1

  0
ENDBLK
  5
10
100
AcDbEntity
 67
           1
  8
0
100
AcDbBlockEnd
  0
BLOCK
  5
26
100
AcDbEntity
  8
0
100
AcDbBlockBegin
  2
WILKA_A4_K
 70
           0
 10
31.025329586614
 20
6.512788742603
 30
0.0
  3
WILKA_A4_K
  1

  0
HATCH
  5
15D
100
AcDbEntity
  8
0
  6
CONTINUOUS
 62
           2
100
AcDbHatch
 10
0.0
 20
0.0
 30
0.0
210
0.0
220
0.0
230
1.0
  2
USER
 70
           0
 71
           1
 91
        7
 92
        1
 93
        4
 72
           1
 10
98.921378632936097
 20
-89.524767239831192
 11
128.92137863293621
 21
-89.524767239831192
 72
           1
 10
98.921378632936097
 20
-97.524767239831192
 11
98.921378632936097
 21
-89.524767239831192
 72
           1
 10
128.92137863293621
 20
-97.524767239831192
 11
98.921378632936097
 21
-97.524767239831192
 72
           1
 10
128.92137863293621
 20
-89.524767239831192
 11
128.92137863293621
 21
-97.524767239831192
 97
        4
330
AB
330
AE
330
AD
330
AC
 92
       16
 93
        1
 72
           2
 10
125.33737863293609
 20
-92.007767239831196
 40
0.9200000000000017
 50
-180.0
 51
180.0
 73
           1
 97
        1
330
10A
 92
       16
 93
       11
 72
           1
 10
118.92637863293621
 20
-96.153767239831197
 11
116.6473786329361
 21
-93.514767239831258
 72
           1
 10
116.6473786329361
 20
-93.514767239831258
 11
116.6473786329361
 21
-96.153767239831197
 72
           1
 10
115.91737863293611
 20
-96.153767239831197
 11
116.6473786329361
 21
-96.153767239831197
 72
           1
 10
115.91737863293611
 20
-91.087767239831265
 11
115.91737863293611
 21
-96.153767239831197
 72
           1
 10
115.91737863293611
 20
-91.087767239831265
 11
116.6473786329361
 21
-91.087767239831265
 72
           1
 10
116.6473786329361
 20
-91.087767239831265
 11
116.6473786329361
 21
-93.099767239831209
 72
           1
 10
118.7733786329363
 20
-91.087767239831265
 11
116.6473786329361
 21
-93.099767239831209
 72
           1
 10
118.7733786329363
 20
-91.087767239831265
 11
119.5863786329361
 21
-91.087767239831265
 72
           1
 10
119.5863786329361
 20
-91.087767239831265
 11
117.5113786329361
 21
-93.315767239831217
 72
           1
 10
117.5113786329361
 20
-93.315767239831217
 11
119.8323786329364
 21
-96.153767239831197
 72
           1
 10
118.92637863293621
 20
-96.153767239831197
 11
119.8323786329364
 21
-96.153767239831197
 97
       11
330
8A
330
8C
330
A0
330
9F
330
97
330
8D
330
8B
330
98
330
AF
330
B0
330
A5
 92
       16
 93
       13
 72
           1
 10
107.7103786329363
 20
-94.943767239831217
 11
106.41437863293631
 21
-91.087767239831265
 72
           1
 10
105.5923786329361
 20
-91.087767239831265
 11
106.41437863293631
 21
-91.087767239831265
 72
           1
 10
104.2873786329362
 20
-94.943767239831217
 11
105.5923786329361
 21
-91.087767239831265
 72
           1
 10
103.0343786329364
 20
-91.087767239831265
 11
104.2873786329362
 21
-94.943767239831217
 72
           1
 10
102.3383786329361
 20
-91.087767239831265
 11
103.0343786329364
 21
-91.087767239831265
 72
           1
 10
103.80737863293621
 20
-96.153767239831197
 11
102.3383786329361
 21
-91.087767239831265
 72
           1
 10
103.80737863293621
 20
-96.153767239831197
 11
104.74537863293619
 21
-96.153767239831197
 72
           1
 10
104.74537863293619
 20
-96.153767239831197
 11
105.98337863293629
 21
-92.044767239831231
 72
           1
 10
105.98337863293629
 20
-92.044767239831231
 11
107.2383786329364
 21
-96.153767239831197
 72
           1
 10
107.2383786329364
 20
-96.153767239831197
 11
108.1603786329363
 21
-96.153767239831197
 72
           1
 10
108.1603786329363
 20
-96.153767239831197
 11
109.6533786329362
 21
-91.087767239831265
 72
           1
 10
108.945378632936
 20
-91.087767239831265
 11
109.6533786329362
 21
-91.087767239831265
 72
           1
 10
108.945378632936
 20
-91.087767239831265
 11
107.7103786329363
 21
-94.943767239831217
 97
       13
330
8E
330
93
330
90
330
91
330
92
330
A3
330
A1
330
B1
330
B2
330
A2
330
A4
330
94
330
8F
 92
       16
 93
        4
 72
           1
 10
110.4033786329363
 20
-91.087767239831265
 11
111.10837863293619
 21
-91.087767239831265
 72
           1
 10
111.10837863293619
 20
-96.153767239831197
 11
111.10837863293619
 21
-91.087767239831265
 72
           1
 10
110.4033786329363
 20
-96.153767239831197
 11
111.10837863293619
 21
-96.153767239831197
 72
           1
 10
110.4033786329363
 20
-91.087767239831265
 11
110.4033786329363
 21
-96.153767239831197
 97
        4
330
95
330
9C
330
9B
330
9A
 92
       16
 93
        6
 72
           1
 10
112.14937863293621
 20
-91.087767239831265
 11
112.877378632936
 21
-91.087767239831265
 72
           1
 10
112.877378632936
 20
-95.545767239831207
 11
112.877378632936
 21
-91.087767239831265
 72
           1
 10
115.2993786329364
 20
-95.545767239831207
 11
112.877378632936
 21
-95.545767239831207
 72
           1
 10
115.2993786329364
 20
-96.153767239831197
 11
115.2993786329364
 21
-95.545767239831207
 72
           1
 10
112.14937863293621
 20
-96.153767239831197
 11
115.2993786329364
 21
-96.153767239831197
 72
           1
 10
112.14937863293621
 20
-91.087767239831265
 11
112.14937863293621
 21
-96.153767239831197
 97
        6
330
96
330
B5
330
B4
330
B3
330
9E
330
9D
 92
       16
 93
        8
 72
           1
 10
122.2263786329363
 20
-91.087767239831265
 11
123.0173786329362
 21
-91.087767239831265
 72
           1
 10
125.0823786329362
 20
-96.153767239831197
 11
123.0173786329362
 21
-91.087767239831265
 72
           1
 10
124.41737863293611
 20
-96.153767239831197
 11
125.0823786329362
 21
-96.153767239831197
 72
           1
 10
124.41737863293611
 20
-96.153767239831197
 11
124.3083786329364
 21
-96.153767239831197
 72
           1
 10
122.6193786329364
 20
-92.044767239831231
 11
124.3083786329364
 21
-96.153767239831197
 72
           1
 10
120.92037863293601
 20
-96.153767239831197
 11
122.6193786329364
 21
-92.044767239831231
 72
           1
 10
120.1983786329364
 20
-96.153767239831197
 11
120.92037863293601
 21
-96.153767239831197
 72
           1
 10
122.2263786329363
 20
-91.087767239831265
 11
120.1983786329364
 21
-96.153767239831197
 97
        8
330
99
330
A9
330
A7
330
A8
330
B7
330
B6
330
A6
330
AA
 75
           1
 76
           0
 52
45.0
 41
0.03
 77
           0
 78
           1
 53
45.0
 43
0.0
 44
0.0
 45
-0.0212132034355964
 46
0.0212132034355964
 79
           0
 98
        1
 10
0.0
 20
0.0
  0
TEXT
  5
15C
100
AcDbEntity
  8
1
 62
           2
100
AcDbText
 10
-24.785213685517
 20
-65.182938716435
 40
2.2
  1
ISO 8015 / ISO 2768-mK
 41
0.63
  7
CONVERTER_6
100
AcDbText
  0
MTEXT
  5
15A
100
AcDbEntity
  8
1
 62
           2
100
AcDbMText
 10
-54.367841716969
 20
-129.180180007983
 30
0.0
 40
1.0
 41
0.0
 71
           4
 72
           1
  3
Das Urheberrecht an diesen Zeichnungen und sämtlichen Beilagen\Pverbleibt uns. Ohne unsere Genehmigung dürfen sie nicht kopiert\Poder vervielfältigt, auch nicht dritten Personen mitgeteilt oder\Pzugänglich gemacht werden. Widerrechtliche Benutzung ha
  1
t zivil-\Pund strafrechtliche Folgen\PWILKA SCHLIESSTECHNIK GMBH
  7
CONVERTER_5
 11
0.0
 21
1.0
 31
0.0
  0
TEXT
  5
158
100
AcDbEntity
  8
1
 62
           2
100
AcDbText
 10
-47.153737271797
 20
-63.047246728619
 40
1.8
  1
Allgemeintoleranzen
 41
0.72
  7
CONVERTER_3
100
AcDbText
  0
MTEXT
  5
157
100
AcDbEntity
  8
1
 62
           3
100
AcDbMText
 10
51.649364554825
 20
-85.737805414225
 30
0.0
 40
1.5
 41
0.0
 71
           7
 72
           1
  1
Buch-\Pstabe
  7
CONVERTER_1
  0
TEXT
  5
156
100
AcDbEntity
  8
1
 62
           3
100
AcDbText
 10
52.072479904508
 20
-103.488501750888
 40
2.0
  1
Halbteil
 41
0.9
  7
CONVERTER_1
100
AcDbText
  0
TEXT
  5
155
100
AcDbEntity
  8
1
 62
           3
100
AcDbText
 10
52.072479904508
 20
-99.589796028817
 40
2.0
  1
Rohteil
 41
0.9
  7
CONVERTER_1
100
AcDbText
  0
TEXT
  5
154
100
AcDbEntity
  8
1
 62
           3
100
AcDbText
 10
4.930530666441
 20
-103.609697128828
 40
2.0
  1
Ersetzt durch:
 41
0.9
  7
CONVERTER_1
100
AcDbText
  0
TEXT
  5
153
100
AcDbEntity
  8
1
 62
           3
100
AcDbText
 10
4.930530666441
 20
-99.18805014124
 40
2.0
  1
Ersatz für:
 41
0.9
  7
CONVERTER_1
100
AcDbText
  0
TEXT
  5
152
100
AcDbEntity
  8
1
 62
           3
100
AcDbText
 10
4.930530666441
 20
-93.868427828192
 40
2.0
  1
gepr.
 41
0.9
  7
CONVERTER_1
100
AcDbText
  0
TEXT
  5
151
100
AcDbEntity
  8
1
 62
           3
100
AcDbText
 10
4.930530666441
 20
-89.371071889146
 40
2.0
  1
gez.
 41
0.9
  7
CONVERTER_1
100
AcDbText
  0
TEXT
  5
150
100
AcDbEntity
  8
1
 62
           3
100
AcDbText
 10
4.930530666441
 20
-73.194846992588
 40
2.0
  1
Maßstab
 41
0.9
  7
CONVERTER_1
100
AcDbText
  0
TEXT
  5
14F
100
AcDbEntity
  8
1
 62
           3
100
AcDbText
 10
4.930530666441
 20
-63.205386653502
 40
2.0
  1
Datum der Pause
 41
0.9
  7
CONVERTER_1
100
AcDbText
  0
TEXT
  5
14E
100
AcDbEntity
  8
1
 62
           3
100
AcDbText
 10
4.930530666441
 20
-107.622729473161
 40
2.0
  1
Benennung
 41
0.9
  7
CONVERTER_1
100
AcDbText
  0
TEXT
  5
14D
100
AcDbEntity
  8
1
 62
           3
100
AcDbText
 10
93.224568914499
 20
-120.055024608896
 40
2.0
  1
Zeichnungs Nr.
 41
0.9
  7
CONVERTER_1
100
AcDbText
  0
TEXT
  5
14C
100
AcDbEntity
  8
1
 62
           3
100
AcDbText
 10
93.224568914499
 20
-107.927091669145
 40
2.0
  1
Modell Nr.
 41
0.9
  7
CONVERTER_1
100
AcDbText
  0
TEXT
  5
14B
100
AcDbEntity
  8
1
 62
           3
100
AcDbText
 10
51.824899422118
 20
-89.061977883697
 40
2.0
  1
Werkstoff
 41
0.9
  7
CONVERTER_1
100
AcDbText
  0
TEXT
  5
14A
100
AcDbEntity
  8
1
 62
           3
100
AcDbText
 10
80.151953110684
 20
-84.987737294334
 40
2.0
  1
Änderung
 41
0.9
  7
CONVERTER_1
100
AcDbText
  0
TEXT
  5
149
100
AcDbEntity
  8
1
 62
           3
100
AcDbText
 10
112.297424399411
 20
-84.987737294334
 40
2.0
  1
Datum
 41
0.9
  7
CONVERTER_1
100
AcDbText
  0
TEXT
  5
148
100
AcDbEntity
  8
1
 62
           3
100
AcDbText
 10
16.90231389381
 20
-84.987737294334
 40
2.0
  1
Datum
 41
0.9
  7
CONVERTER_1
100
AcDbText
  0
TEXT
  5
147
100
AcDbEntity
  8
1
 62
           3
100
AcDbText
 10
35.594792953252
 20
-84.987737294334
 40
2.0
  1
Name
 41
0.9
  7
CONVERTER_1
100
AcDbText
  0
TEXT
  5
146
100
AcDbEntity
  8
1
 62
           3
100
AcDbText
 10
124.51526171902
 20
-84.987737294334
 40
2.0
  1
Name
 41
0.9
  7
CONVERTER_1
100
AcDbText
  0
TEXT
  5
145
100
AcDbEntity
  8
1
 62
           2
100
AcDbText
 10
98.921378632936
 20
-100.447767239831
 40
2.04
  1
SCHLIESSTECHNIK
 41
1.017
  7
CONVERTER_4
100
AcDbText
  0
MTEXT
  5
143
100
AcDbEntity
  8
1
 62
           2
100
AcDbMText
 10
-46.981744465918
 20
-110.33520835862
 30
0.0
 40
1.5
 41
0.0
 71
           7
 72
           1
  1
Toleranz-\Pklasse:
  7
CONVERTER_1
  0
TEXT
  5
142
100
AcDbEntity
  8
1
 62
           2
100
AcDbText
 10
-46.832687181522
 20
-118.172660185648
 40
1.5
  1
fein (f)
 41
0.72
  7
CONVERTER_3
100
AcDbText
  0
TEXT
  5
141
100
AcDbEntity
  8
1
 62
           2
100
AcDbText
 10
-46.832687181522
 20
-121.492719376795
 40
1.5
  1
mittel (m)
 41
0.72
  7
CONVERTER_3
100
AcDbText
  0
TEXT
  5
140
100
AcDbEntity
  8
1
 62
           2
100
AcDbText
 10
-46.832687181522
 20
-125.012778567941
 40
1.5
  1
grob (c)
 41
0.72
  7
CONVERTER_3
100
AcDbText
  0
MTEXT
  5
13F
100
AcDbEntity
  8
1
 62
           2
100
AcDbMText
 10
-32.440784757517
 20
-114.575962180493
 30
0.0
 40
1.5
 41
0.0
 71
           7
 72
           1
  1
0,5\Pbis\P3
  7
CONVERTER_1
  0
MTEXT
  5
13E
100
AcDbEntity
  8
1
 62
           2
100
AcDbMText
 10
-20.110115880978
 20
-114.833328474224
 30
0.0
 40
1.5
 41
0.0
 71
           7
 72
           1
  1
über\P6\Pbis\P30
  7
CONVERTER_1
  0
MTEXT
  5
13D
100
AcDbEntity
  8
1
 62
           2
100
AcDbMText
 10
-13.757433081702
 20
-114.877884122496
 30
0.0
 40
1.5
 41
0.0
 71
           7
 72
           1
  1
über\P30\Pbis\P120
  7
CONVERTER_1
  0
MTEXT
  5
13C
100
AcDbEntity
  8
1
 62
           2
100
AcDbMText
 10
-7.427528523784
 20
-114.877884122496
 30
0.0
 40
1.5
 41
0.0
 71
           7
 72
           1
  1
über\P120\Pbis\P400
  7
CONVERTER_1
  0
MTEXT
  5
13B
100
AcDbEntity
  8
1
 62
           2
100
AcDbMText
 10
-1.331557235992
 20
-114.877884122496
 30
0.0
 40
1.5
 41
0.0
 71
           7
 72
           1
  1
über\P400\Pbis\P1000
  7
CONVERTER_1
  0
MTEXT
  5
13A
100
AcDbEntity
  8
1
 62
           2
100
AcDbMText
 10
-39.935827610702
 20
-105.00187805369
 30
0.0
 40
1.5
 41
0.0
 71
           7
 72
           1
  1
      Grenzabmaße für\PLängenmaße nach ISO 2768 T1
  7
CONVERTER_1
  0
TEXT
  5
139
100
AcDbEntity
  8
1
 62
           2
100
AcDbText
 10
-27.065747134645
 20
-118.087147539966
 40
1.5
  1
±0,05
 41
0.9
  7
CONVERTER_2
100
AcDbText
  0
TEXT
  5
138
100
AcDbEntity
  8
1
 62
           2
100
AcDbText
 10
-25.874794356338
 20
-121.560806810521
 40
1.5
  1
±0,1
 41
0.9
  7
CONVERTER_2
100
AcDbText
  0
TEXT
  5
137
100
AcDbEntity
  8
1
 62
           2
100
AcDbText
 10
-26.002096208543
 20
-125.04351330277
 40
1.5
  1
±0,3
 41
0.9
  7
CONVERTER_2
100
AcDbText
  0
TEXT
  5
136
100
AcDbEntity
  8
1
 62
           2
100
AcDbText
 10
-20.19112674133
 20
-121.560806810521
 40
1.5
  1
±0,2
 41
0.9
  7
CONVERTER_2
100
AcDbText
  0
TEXT
  5
135
100
AcDbEntity
  8
1
 62
           2
100
AcDbText
 10
-7.151253550644
 20
-118.087147539966
 40
1.5
  1
±0,2
 41
0.9
  7
CONVERTER_2
100
AcDbText
  0
TEXT
  5
134
100
AcDbEntity
  8
1
 62
           2
100
AcDbText
 10
-20.063824889125
 20
-118.087147539966
 40
1.5
  1
±0,1
 41
0.9
  7
CONVERTER_2
100
AcDbText
  0
TEXT
  5
133
100
AcDbEntity
  8
1
 62
           2
100
AcDbText
 10
-20.127475815227
 20
-125.04351330277
 40
1.5
  1
±0,5
 41
0.9
  7
CONVERTER_2
100
AcDbText
  0
TEXT
  5
132
100
AcDbEntity
  8
1
 62
           2
100
AcDbText
 10
-7.142206328951
 20
-121.560806810521
 40
1.5
  1
±0,5
 41
0.9
  7
CONVERTER_2
100
AcDbText
  0
TEXT
  5
131
100
AcDbEntity
  8
1
 62
           2
100
AcDbText
 10
-1.095047974967
 20
-118.087147539966
 40
1.5
  1
±0,3
 41
0.9
  7
CONVERTER_2
100
AcDbText
  0
TEXT
  5
130
100
AcDbEntity
  8
1
 62
           2
100
AcDbText
 10
-13.616506348014
 20
-121.560806810521
 40
1.5
  1
±0,3
 41
0.9
  7
CONVERTER_2
100
AcDbText
  0
TEXT
  5
12F
100
AcDbEntity
  8
1
 62
           2
100
AcDbText
 10
-13.871110052424
 20
-118.087147539966
 40
1.5
  1
±0,15
 41
0.9
  7
CONVERTER_2
100
AcDbText
  0
TEXT
  5
12E
100
AcDbEntity
  8
1
 62
           2
100
AcDbText
 10
-13.734760978526
 20
-125.04351330277
 40
1.5
  1
±0,8
 41
0.9
  7
CONVERTER_2
100
AcDbText
  0
TEXT
  5
12D
100
AcDbEntity
  8
1
 62
           2
100
AcDbText
 10
-1.15869890107
 20
-121.560806810521
 40
1.5
  1
±0,8
 41
0.9
  7
CONVERTER_2
100
AcDbText
  0
TEXT
  5
12C
100
AcDbEntity
  8
1
 62
           2
100
AcDbText
 10
-6.951253550644
 20
-125.04351330277
 40
1.5
  1
±1,2
 41
0.9
  7
CONVERTER_2
100
AcDbText
  0
TEXT
  5
12B
100
AcDbEntity
  8
1
 62
           2
100
AcDbText
 10
-1.15869890107
 20
-125.04351330277
 40
1.5
  1
±2,0
 41
0.9
  7
CONVERTER_2
100
AcDbText
  0
TEXT
  5
12A
100
AcDbEntity
  8
1
 62
           2
100
AcDbText
 10
125.009873860415
 20
-92.493486666085
 40
1.0
  1
R
 41
0.9
  7
CONVERTER_2
100
AcDbText
  0
MTEXT
  5
129
100
AcDbEntity
  8
1
 62
           2
100
AcDbMText
 10
-26.570456429338
 20
-114.833328474224
 30
0.0
 40
1.5
 41
0.0
 71
           7
 72
           1
  1
über\P3\Pbis\P6
  7
CONVERTER_1
  0
TEXT
  5
128
100
AcDbEntity
  8
1
 62
           2
100
AcDbText
 10
-33.518050823976
 20
-118.087147539966
 40
1.5
  1
±0,05
 41
0.9
  7
CONVERTER_2
100
AcDbText
  0
TEXT
  5
127
100
AcDbEntity
  8
1
 62
           2
100
AcDbText
 10
-32.527098045669
 20
-121.560806810521
 40
1.5
  1
±0,1
 41
0.9
  7
CONVERTER_2
100
AcDbText
  0
TEXT
  5
126
100
AcDbEntity
  8
1
 62
           2
100
AcDbText
 10
-32.654399897874
 20
-125.04351330277
 40
1.5
  1
±0,2
 41
0.9
  7
CONVERTER_2
100
AcDbText
  0
TEXT
  5
125
100
AcDbEntity
  8
1
 62
           2
100
AcDbText
 10
-46.832687181522
 20
-128.412778567941
 40
1.5
  1
sehr grob (v)
 41
0.72
  7
CONVERTER_3
100
AcDbText
  0
TEXT
  5
123
100
AcDbEntity
  8
1
 62
           2
100
AcDbText
 10
-32.654399897874
 20
-128.44351330277
 40
1.5
  1
±0,2
 41
0.9
  7
CONVERTER_2
100
AcDbText
  0
TEXT
  5
122
100
AcDbEntity
  8
1
 62
           2
100
AcDbText
 10
-26.002096208543
 20
-128.44351330277
 40
1.5
  1
±0,5
 41
0.9
  7
CONVERTER_2
100
AcDbText
  0
TEXT
  5
121
100
AcDbEntity
  8
1
 62
           2
100
AcDbText
 10
-20.127475815227
 20
-128.44351330277
 40
1.5
  1
±1,0
 41
0.9
  7
CONVERTER_2
100
AcDbText
  0
TEXT
  5
120
100
AcDbEntity
  8
1
 62
           2
100
AcDbText
 10
-13.734760978526
 20
-128.44351330277
 40
1.5
  1
±1,5
 41
0.9
  7
CONVERTER_2
100
AcDbText
  0
TEXT
  5
11F
100
AcDbEntity
  8
1
 62
           2
100
AcDbText
 10
-6.951253550644
 20
-128.44351330277
 40
1.5
  1
±2,5
 41
0.9
  7
CONVERTER_2
100
AcDbText
  0
TEXT
  5
11E
100
AcDbEntity
  8
1
 62
           2
100
AcDbText
 10
-1.15869890107
 20
-128.44351330277
 40
1.5
  1
±4,0
 41
0.9
  7
CONVERTER_2
100
AcDbText
  0
TEXT
  5
11D
100
AcDbEntity
  8
1
 62
           2
100
AcDbText
 10
-47.016744465918
 20
-114.48920835862
 40
1.5
  1
Benennung
 41
0.9
  7
CONVERTER_1
100
AcDbText
  0
TEXT
  5
11C
100
AcDbEntity
  8
1
 62
           2
100
AcDbText
 10
-6.190747969143
 20
-75.683602013276
 40
1.5
  1
alt
 41
0.9
  7
CONVERTER_1
100
AcDbText
  0
TEXT
  5
11B
100
AcDbEntity
  8
1
 62
           2
100
AcDbText
 10
-32.687354589387
 20
-75.588965823953
 40
1.5
  1
neu
 41
0.9
  7
CONVERTER_1
100
AcDbText
  0
MTEXT
  5
11A
100
AcDbEntity
  8
1
 62
           2
100
AcDbMText
 10
-47.024737271797
 20
-72.823335386977
 30
0.0
 40
1.5
 41
0.0
 71
           7
 72
           1
  1
Oberflächenbeschaffenheit nach\PDIN ISO 1302  Reihe 2
  7
CONVERTER_1
  0
TEXT
  5
119
100
AcDbEntity
  8
1
 62
           2
100
AcDbText
 10
-23.487134363864
 20
-79.372850806007
 40
1.5
  1
R  100
 41
0.9
  7
CONVERTER_1
100
AcDbText
  0
TEXT
  5
118
100
AcDbEntity
  8
1
 62
           2
100
AcDbText
 10
-23.478880989898
 20
-85.306612629269
 40
1.5
  1
R  25
 41
0.9
  7
CONVERTER_1
100
AcDbText
  0
TEXT
  5
117
100
AcDbEntity
  8
1
 62
           2
100
AcDbText
 10
-23.478880989898
 20
-91.234043624078
 40
1.5
  1
R  6,3
 41
0.9
  7
CONVERTER_1
100
AcDbText
  0
TEXT
  5
116
100
AcDbEntity
  8
1
 62
           2
100
AcDbText
 10
-23.478880989898
 20
-97.316642969537
 40
1.5
  1
R  1
 41
0.9
  7
CONVERTER_1
100
AcDbText
  0
TEXT
  5
115
100
AcDbEntity
  8
1
 62
           2
100
AcDbText
 10
-40.595024097779
 20
-79.451669191155
 40
1.5
  1
w
 41
0.9
  7
CONVERTER_2
100
AcDbText
  0
TEXT
  5
114
100
AcDbEntity
  8
1
 62
           2
100
AcDbText
 10
-40.517468873973
 20
-85.484379538714
 40
1.5
  1
x
 41
0.9
  7
CONVERTER_2
100
AcDbText
  0
TEXT
  5
113
100
AcDbEntity
  8
1
 62
           2
100
AcDbText
 10
-40.515591645636
 20
-91.513371561241
 40
1.5
  1
y
 41
0.9
  7
CONVERTER_2
100
AcDbText
  0
TEXT
  5
112
100
AcDbEntity
  8
1
 62
           2
100
AcDbText
 10
-40.54277675236
 20
-97.538980317667
 40
1.5
  1
z
 41
0.9
  7
CONVERTER_2
100
AcDbText
  0
TEXT
  5
110
100
AcDbEntity
  8
1
 62
           2
100
AcDbText
 10
-21.974773644455
 20
-79.876670827298
 40
1.5
  1
z
 41
0.9
  7
CONVERTER_1
100
AcDbText
  0
TEXT
  5
10F
100
AcDbEntity
  8
1
 62
           2
100
AcDbText
 10
-22.024350347796
 20
-85.869060935576
 40
1.5
  1
z
 41
0.9
  7
CONVERTER_1
100
AcDbText
  0
TEXT
  5
10E
100
AcDbEntity
  8
1
 62
           2
100
AcDbText
 10
-22.024350347796
 20
-91.704043186093
 40
1.5
  1
z
 41
0.9
  7
CONVERTER_1
100
AcDbText
  0
TEXT
  5
10D
100
AcDbEntity
  8
1
 62
           2
100
AcDbText
 10
-22.024350347796
 20
-97.73352484496
 40
1.5
  1
z
 41
0.9
  7
CONVERTER_1
100
AcDbText
  0
CIRCLE
  5
10B
100
AcDbEntity
  8
1
  6
CONTINUOUS
 62
           2
100
AcDbCircle
 10
125.337378632936
 20
-92.007767239831
 40
0.81
  0
CIRCLE
  5
10A
100
AcDbEntity
  8
1
  6
CONTINUOUS
 62
           2
100
AcDbCircle
 10
125.337378632936
 20
-92.007767239831
 40
0.92
  0
LINE
  5
109
100
AcDbEntity
  8
1
  6
CONTINUOUS
 62
           7
100
AcDbLine
 10
3.921378632936
 20
-70.420590003991
 11
3.921378632936
 21
-67.252590003991
  0
LINE
  5
108
100
AcDbEntity
  8
1
  6
CONTINUOUS
 62
           7
100
AcDbLine
 10
-48.078621367064
 20
13.579409996009
 11
-48.078621367064
 21
157.079409996009
  0
LINE
  5
107
100
AcDbEntity
  8
1
  6
CONTINUOUS
 62
           2
100
AcDbLine
 10
-48.078621367064
 20
13.579409996009
 11
-60.078621367064
 21
13.579409996009
  0
LINE
  5
106
100
AcDbEntity
  8
1
  6
CONTINUOUS
 62
           3
100
AcDbLine
 10
-34.078621367064
 20
-129.420590003991
 11
-34.078621367064
 21
-106.020590003992
  0
LINE
  5
105
100
AcDbEntity
  8
1
  6
CONTINUOUS
 62
           7
100
AcDbLine
 10
3.921378632936
 20
-67.252590003991
 11
-48.078621367064
 21
-67.252590003991
  0
LINE
  5
104
100
AcDbEntity
  8
1
  6
CONTINUOUS
 62
           7
100
AcDbLine
 10
-34.078621367064
 20
-129.420590003991
 11
-27.524873243954
 21
-129.420590003991
  0
LINE
  5
103
100
AcDbEntity
  8
1
  6
CONTINUOUS
 62
           3
100
AcDbLine
 10
-34.078621367064
 20
-106.020590003992
 11
-27.524873243954
 21
-106.020590003992
  0
LINE
  5
102
100
AcDbEntity
  8
1
  6
CONTINUOUS
 62
           2
100
AcDbLine
 10
-2.078621367064
 20
-106.020590003992
 11
-2.078621367064
 21
-129.420590003991
  0
LINE
  5
101
100
AcDbEntity
  8
1
  6
CONTINUOUS
 62
           2
100
AcDbLine
 10
-8.278621367064
 20
-106.020590003992
 11
-8.278621367064
 21
-129.420590003991
  0
LINE
  5
100
100
AcDbEntity
  8
1
  6
CONTINUOUS
 62
           2
100
AcDbLine
 10
-14.678621367064
 20
-106.020590003992
 11
-14.678621367064
 21
-129.420590003991
  0
LINE
  5
FF
100
AcDbEntity
  8
1
  6
CONTINUOUS
 62
           2
100
AcDbLine
 10
-21.078621367064
 20
-106.020590003992
 11
-21.078621367064
 21
-129.420590003991
  0
LINE
  5
FE
100
AcDbEntity
  8
1
  6
CONTINUOUS
 62
           7
100
AcDbLine
 10
3.921378632936
 20
-129.420590003991
 11
3.921378632936
 21
-126.020590003992
  0
LINE
  5
FD
100
AcDbEntity
  8
1
  6
CONTINUOUS
 62
           7
100
AcDbLine
 10
-48.078621367064
 20
-115.820590003992
 11
-48.078621367064
 21
-106.020590003992
  0
LINE
  5
FC
100
AcDbEntity
  8
1
  6
CONTINUOUS
 62
           3
100
AcDbLine
 10
-48.078621367064
 20
-106.020590003992
 11
-34.078621367064
 21
-106.020590003992
  0
LINE
  5
FB
100
AcDbEntity
  8
1
  6
CONTINUOUS
 62
           7
100
AcDbLine
 10
-48.078621367064
 20
-129.420590003991
 11
-48.078621367064
 21
-126.020590003992
  0
LINE
  5
FA
100
AcDbEntity
  8
1
  6
CONTINUOUS
 62
           2
100
AcDbLine
 10
-48.078621367064
 20
-115.820590003992
 11
3.921378632936
 21
-115.820590003992
  0
LINE
  5
F9
100
AcDbEntity
  8
1
  6
CONTINUOUS
 62
           2
100
AcDbLine
 10
-48.078621367064
 20
-119.220590003992
 11
3.921378632936
 21
-119.220590003992
  0
LINE
  5
F8
100
AcDbEntity
  8
1
  6
CONTINUOUS
 62
           2
100
AcDbLine
 10
-48.078621367064
 20
-122.620590003992
 11
3.921378632936
 21
-122.620590003992
  0
LINE
  5
F7
100
AcDbEntity
  8
1
  6
CONTINUOUS
 62
           7
100
AcDbLine
 10
13.921378632936
 20
-95.420590003991
 11
3.921378632936
 21
-95.420590003991
  0
LINE
  5
F6
100
AcDbEntity
  8
1
  6
CONTINUOUS
 62
           7
100
AcDbLine
 10
13.921378632936
 20
-80.420590003991
 11
3.921378632936
 21
-80.420590003991
  0
LINE
  5
F5
100
AcDbEntity
  8
1
  6
CONTINUOUS
 62
           2
100
AcDbLine
 10
13.921378632936
 20
-80.420590003991
 11
13.921378632936
 21
-95.420590003991
  0
LINE
  5
F4
100
AcDbEntity
  8
1
  6
CONTINUOUS
 62
           7
100
AcDbLine
 10
28.921378632936
 20
-95.420590003991
 11
13.921378632936
 21
-95.420590003991
  0
LINE
  5
F3
100
AcDbEntity
  8
1
  6
CONTINUOUS
 62
           7
100
AcDbLine
 10
28.921378632936
 20
-80.420590003991
 11
13.921378632936
 21
-80.420590003991
  0
LINE
  5
F2
100
AcDbEntity
  8
1
  6
CONTINUOUS
 62
           2
100
AcDbLine
 10
28.921378632936
 20
-80.420590003991
 11
28.921378632936
 21
-95.420590003991
  0
LINE
  5
F1
100
AcDbEntity
  8
1
  6
CONTINUOUS
 62
           7
100
AcDbLine
 10
3.921378632936
 20
-86.420590003992
 11
3.921378632936
 21
-90.920590003991
  0
LINE
  5
F0
100
AcDbEntity
  8
1
  6
CONTINUOUS
 62
           7
100
AcDbLine
 10
3.921378632936
 20
-100.420590003992
 11
3.921378632936
 21
-95.420590003991
  0
LINE
  5
EF
100
AcDbEntity
  8
1
  6
CONTINUOUS
 62
           2
100
AcDbLine
 10
50.921378632936
 20
-100.420590003992
 11
3.921378632936
 21
-100.420590003992
  0
LINE
  5
EE
100
AcDbEntity
  8
1
  6
CONTINUOUS
 62
           7
100
AcDbLine
 10
91.921378632936
 20
-117.420590003992
 11
91.921378632936
 21
-104.420590003992
  0
LINE
  5
ED
100
AcDbEntity
  8
1
  6
CONTINUOUS
 62
           7
100
AcDbLine
 10
136.921378632936
 20
-117.420590003992
 11
136.921378632936
 21
-129.420590003991
  0
LINE
  5
EC
100
AcDbEntity
  8
1
  6
CONTINUOUS
 62
           3
100
AcDbLine
 10
136.921378632936
 20
-117.420590003992
 11
91.921378632936
 21
-117.420590003992
  0
LINE
  5
EB
100
AcDbEntity
  8
1
  6
CONTINUOUS
 62
           7
100
AcDbLine
 10
50.921378632936
 20
-95.420590003991
 11
50.921378632936
 21
-100.420590003992
  0
LINE
  5
EA
100
AcDbEntity
  8
1
  6
CONTINUOUS
 62
           7
100
AcDbLine
 10
91.921378632936
 20
-100.420590003992
 11
91.921378632936
 21
-95.420590003991
  0
LINE
  5
E9
100
AcDbEntity
  8
1
  6
CONTINUOUS
 62
           2
100
AcDbLine
 10
91.921378632936
 20
-95.420590003991
 11
50.921378632936
 21
-95.420590003991
  0
LINE
  5
E8
100
AcDbEntity
  8
1
  6
CONTINUOUS
 62
           7
100
AcDbLine
 10
50.921378632936
 20
-100.420590003992
 11
50.921378632936
 21
-104.420590003992
  0
LINE
  5
E7
100
AcDbEntity
  8
1
  6
CONTINUOUS
 62
           2
100
AcDbLine
 10
91.921378632936
 20
-100.420590003992
 11
50.921378632936
 21
-100.420590003992
  0
LINE
  5
E6
100
AcDbEntity
  8
1
  6
CONTINUOUS
 62
           7
100
AcDbLine
 10
121.921378632936
 20
-86.420590003992
 11
110.921378632936
 21
-86.420590003992
  0
LINE
  5
E5
100
AcDbEntity
  8
1
  6
CONTINUOUS
 62
           2
100
AcDbLine
 10
121.921378632936
 20
-60.420590003991
 11
110.921378632936
 21
-60.420590003991
  0
LINE
  5
E4
100
AcDbEntity
  8
1
  6
CONTINUOUS
 62
           2
100
AcDbLine
 10
121.921378632936
 20
-60.420590003991
 11
121.921378632936
 21
-86.420590003992
  0
LINE
  5
E3
100
AcDbEntity
  8
1
  6
CONTINUOUS
 62
           7
100
AcDbLine
 10
110.921378632936
 20
-86.420590003992
 11
91.921378632936
 21
-86.420590003992
  0
LINE
  5
E2
100
AcDbEntity
  8
1
  6
CONTINUOUS
 62
           2
100
AcDbLine
 10
110.921378632936
 20
-60.420590003991
 11
58.921378632936
 21
-60.420590003991
  0
LINE
  5
E1
100
AcDbEntity
  8
1
  6
CONTINUOUS
 62
           2
100
AcDbLine
 10
110.921378632936
 20
-60.420590003991
 11
110.921378632936
 21
-86.420590003992
  0
LINE
  5
E0
100
AcDbEntity
  8
1
  6
CONTINUOUS
 62
           7
100
AcDbLine
 10
58.921378632936
 20
-86.420590003992
 11
50.921378632936
 21
-86.420590003992
  0
LINE
  5
DF
100
AcDbEntity
  8
1
  6
CONTINUOUS
 62
           2
100
AcDbLine
 10
58.921378632936
 20
-60.420590003991
 11
50.921378632936
 21
-60.420590003991
  0
LINE
  5
DE
100
AcDbEntity
  8
1
  6
CONTINUOUS
 62
           2
100
AcDbLine
 10
58.921378632936
 20
-60.420590003991
 11
58.921378632936
 21
-86.420590003992
  0
LINE
  5
DD
100
AcDbEntity
  8
1
  6
CONTINUOUS
 62
           7
100
AcDbLine
 10
50.921378632936
 20
-75.420590003991
 11
50.921378632936
 21
-70.420590003991
  0
LINE
  5
DC
100
AcDbEntity
  8
1
  6
CONTINUOUS
 62
           7
100
AcDbLine
 10
136.921378632936
 20
-75.420590003991
 11
136.921378632936
 21
-80.420590003991
  0
LINE
  5
DB
100
AcDbEntity
  8
1
  6
CONTINUOUS
 62
           2
100
AcDbLine
 10
136.921378632936
 20
-75.420590003991
 11
50.921378632936
 21
-75.420590003991
  0
LINE
  5
DA
100
AcDbEntity
  8
1
  6
CONTINUOUS
 62
           7
100
AcDbLine
 10
136.921378632936
 20
-70.420590003991
 11
136.921378632936
 21
-75.420590003991
  0
LINE
  5
D9
100
AcDbEntity
  8
1
  6
CONTINUOUS
 62
           2
100
AcDbLine
 10
136.921378632936
 20
-70.420590003991
 11
50.921378632936
 21
-70.420590003991
  0
LINE
  5
D8
100
AcDbEntity
  8
1
  6
CONTINUOUS
 62
           7
100
AcDbLine
 10
50.921378632936
 20
-65.420590003991
 11
50.921378632936
 21
-60.420590003991
  0
LINE
  5
D7
100
AcDbEntity
  8
1
  6
CONTINUOUS
 62
           7
100
AcDbLine
 10
136.921378632936
 20
-65.420590003991
 11
136.921378632936
 21
-70.420590003991
  0
LINE
  5
D6
100
AcDbEntity
  8
1
  6
CONTINUOUS
 62
           2
100
AcDbLine
 10
136.921378632936
 20
-65.420590003991
 11
50.921378632936
 21
-65.420590003991
  0
LINE
  5
D5
100
AcDbEntity
  8
1
  6
CONTINUOUS
 62
           7
100
AcDbLine
 10
50.921378632936
 20
-95.420590003991
 11
28.921378632936
 21
-95.420590003991
  0
LINE
  5
D4
100
AcDbEntity
  8
1
  6
CONTINUOUS
 62
           7
100
AcDbLine
 10
3.921378632936
 20
-80.420590003991
 11
3.921378632936
 21
-70.420590003991
  0
LINE
  5
D3
100
AcDbEntity
  8
1
  6
CONTINUOUS
 62
           7
100
AcDbLine
 10
50.921378632936
 20
-80.420590003991
 11
28.921378632936
 21
-80.420590003991
  0
LINE
  5
D2
100
AcDbEntity
  8
1
  6
CONTINUOUS
 62
           7
100
AcDbLine
 10
50.921378632936
 20
-80.420590003991
 11
50.921378632936
 21
-75.420590003991
  0
LINE
  5
D1
100
AcDbEntity
  8
1
  6
CONTINUOUS
 62
           7
100
AcDbLine
 10
136.921378632936
 20
-80.420590003991
 11
50.921378632936
 21
-80.420590003991
  0
LINE
  5
D0
100
AcDbEntity
  8
1
  6
CONTINUOUS
 62
           7
100
AcDbLine
 10
136.921378632936
 20
-80.420590003991
 11
136.921378632936
 21
-86.420590003992
  0
LINE
  5
CF
100
AcDbEntity
  8
1
  6
CONTINUOUS
 62
           7
100
AcDbLine
 10
50.921378632936
 20
-70.420590003991
 11
50.921378632936
 21
-65.420590003991
  0
LINE
  5
CE
100
AcDbEntity
  8
1
  6
CONTINUOUS
 62
           7
100
AcDbLine
 10
50.921378632936
 20
-70.420590003991
 11
3.921378632936
 21
-70.420590003991
  0
LINE
  5
CD
100
AcDbEntity
  8
1
  6
CONTINUOUS
 62
           7
100
AcDbLine
 10
50.921378632936
 20
-104.420590003992
 11
3.921378632936
 21
-104.420590003992
  0
LINE
  5
CC
100
AcDbEntity
  8
1
  6
CONTINUOUS
 62
           7
100
AcDbLine
 10
50.921378632936
 20
-86.420590003992
 11
50.921378632936
 21
-90.920590003991
  0
LINE
  5
CB
100
AcDbEntity
  8
1
  6
CONTINUOUS
 62
           7
100
AcDbLine
 10
50.921378632936
 20
-60.420590003991
 11
3.921378632936
 21
-60.420590003991
  0
LINE
  5
CA
100
AcDbEntity
  8
1
  6
CONTINUOUS
 62
           7
100
AcDbLine
 10
50.921378632936
 20
-86.420590003992
 11
3.921378632936
 21
-86.420590003992
  0
LINE
  5
C9
100
AcDbEntity
  8
1
  6
CONTINUOUS
 62
           7
100
AcDbLine
 10
50.921378632936
 20
-86.420590003992
 11
50.921378632936
 21
-80.420590003991
  0
LINE
  5
C8
100
AcDbEntity
  8
1
  6
CONTINUOUS
 62
           7
100
AcDbLine
 10
3.921378632936
 20
-104.420590003992
 11
3.921378632936
 21
-100.420590003992
  0
LINE
  5
C7
100
AcDbEntity
  8
1
  6
CONTINUOUS
 62
           7
100
AcDbLine
 10
91.921378632936
 20
-104.420590003992
 11
50.921378632936
 21
-104.420590003992
  0
LINE
  5
C6
100
AcDbEntity
  8
1
  6
CONTINUOUS
 62
           7
100
AcDbLine
 10
91.921378632936
 20
-104.420590003992
 11
91.921378632936
 21
-100.420590003992
  0
LINE
  5
C5
100
AcDbEntity
  8
1
  6
CONTINUOUS
 62
           7
100
AcDbLine
 10
136.921378632936
 20
-104.420590003992
 11
136.921378632936
 21
-117.420590003992
  0
LINE
  5
C4
100
AcDbEntity
  8
1
  6
CONTINUOUS
 62
           7
100
AcDbLine
 10
136.921378632936
 20
-104.420590003992
 11
91.921378632936
 21
-104.420590003992
  0
LINE
  5
C3
100
AcDbEntity
  8
1
  6
CONTINUOUS
 62
           7
100
AcDbLine
 10
136.921378632936
 20
-129.420590003991
 11
91.921378632936
 21
-129.420590003991
  0
LINE
  5
C2
100
AcDbEntity
  8
1
  6
CONTINUOUS
 62
           7
100
AcDbLine
 10
136.921378632936
 20
-86.420590003992
 11
121.921378632936
 21
-86.420590003992
  0
LINE
  5
C1
100
AcDbEntity
  8
1
  6
CONTINUOUS
 62
           7
100
AcDbLine
 10
91.921378632936
 20
-86.420590003992
 11
58.921378632936
 21
-86.420590003992
  0
LINE
  5
C0
100
AcDbEntity
  8
1
  6
CONTINUOUS
 62
           7
100
AcDbLine
 10
136.921378632936
 20
-86.420590003992
 11
136.921378632936
 21
-104.420590003992
  0
LINE
  5
BF
100
AcDbEntity
  8
1
  6
CONTINUOUS
 62
           7
100
AcDbLine
 10
91.921378632936
 20
-129.420590003991
 11
91.921378632936
 21
-117.420590003992
  0
LINE
  5
BE
100
AcDbEntity
  8
1
  6
CONTINUOUS
 62
           2
100
AcDbLine
 10
136.921378632936
 20
-60.420590003991
 11
121.921378632936
 21
-60.420590003991
  0
LINE
  5
BD
100
AcDbEntity
  8
1
  6
CONTINUOUS
 62
           7
100
AcDbLine
 10
3.921378632936
 20
-129.420590003991
 11
91.921378632936
 21
-129.420590003991
  0
LINE
  5
BC
100
AcDbEntity
  8
1
  6
CONTINUOUS
 62
           7
100
AcDbLine
 10
136.921378632936
 20
-60.420590003991
 11
136.921378632936
 21
-65.420590003991
  0
LINE
  5
BB
100
AcDbEntity
  8
1
  6
CONTINUOUS
 62
           7
100
AcDbLine
 10
-48.078621367064
 20
-60.420590003991
 11
-48.078621367064
 21
13.579409996009
  0
LINE
  5
BA
100
AcDbEntity
  8
1
  6
CONTINUOUS
 62
           7
100
AcDbLine
 10
-48.078621367064
 20
-60.420590003991
 11
3.921378632936
 21
-60.420590003991
  0
LINE
  5
B9
100
AcDbEntity
  8
1
  6
CONTINUOUS
 62
           7
100
AcDbLine
 10
-48.078621367064
 20
-129.420590003991
 11
-34.078621367064
 21
-129.420590003991
  0
LINE
  5
B8
100
AcDbEntity
  8
1
  6
CONTINUOUS
 62
           7
100
AcDbLine
 10
136.921378632936
 20
-60.420590003991
 11
136.921378632936
 21
157.079409996009
  0
LINE
  5
B7
100
AcDbEntity
  8
1
  6
CONTINUOUS
 62
           2
100
AcDbLine
 10
122.619378632936
 20
-92.044767239831
 11
124.308378632936
 21
-96.153767239831
  0
LINE
  5
B6
100
AcDbEntity
  8
1
  6
CONTINUOUS
 62
           2
100
AcDbLine
 10
120.920378632936
 20
-96.153767239831
 11
122.619378632936
 21
-92.044767239831
  0
LINE
  5
B5
100
AcDbEntity
  8
1
  6
CONTINUOUS
 62
           2
100
AcDbLine
 10
112.877378632936
 20
-95.545767239831
 11
112.877378632936
 21
-91.087767239831
  0
LINE
  5
B4
100
AcDbEntity
  8
1
  6
CONTINUOUS
 62
           2
100
AcDbLine
 10
115.299378632936
 20
-95.545767239831
 11
112.877378632936
 21
-95.545767239831
  0
LINE
  5
B3
100
AcDbEntity
  8
1
  6
CONTINUOUS
 62
           2
100
AcDbLine
 10
115.299378632936
 20
-96.153767239831
 11
115.299378632936
 21
-95.545767239831
  0
LINE
  5
B2
100
AcDbEntity
  8
1
  6
CONTINUOUS
 62
           2
100
AcDbLine
 10
105.983378632936
 20
-92.044767239831
 11
107.238378632936
 21
-96.153767239831
  0
LINE
  5
B1
100
AcDbEntity
  8
1
  6
CONTINUOUS
 62
           2
100
AcDbLine
 10
104.745378632936
 20
-96.153767239831
 11
105.983378632936
 21
-92.044767239831
  0
LINE
  5
B0
100
AcDbEntity
  8
1
  6
CONTINUOUS
 62
           2
100
AcDbLine
 10
117.511378632936
 20
-93.315767239831
 11
119.832378632936
 21
-96.153767239831
  0
LINE
  5
AF
100
AcDbEntity
  8
1
  6
CONTINUOUS
 62
           2
100
AcDbLine
 10
119.586378632936
 20
-91.087767239831
 11
117.511378632936
 21
-93.315767239831
  0
LINE
  5
AE
100
AcDbEntity
  8
1
  6
CONTINUOUS
 62
           2
100
AcDbLine
 10
98.921378632936
 20
-97.524767239831
 11
98.921378632936
 21
-89.524767239831
  0
LINE
  5
AD
100
AcDbEntity
  8
1
  6
CONTINUOUS
 62
           2
100
AcDbLine
 10
128.921378632936
 20
-97.524767239831
 11
98.921378632936
 21
-97.524767239831
  0
LINE
  5
AC
100
AcDbEntity
  8
1
  6
CONTINUOUS
 62
           2
100
AcDbLine
 10
128.921378632936
 20
-89.524767239831
 11
128.921378632936
 21
-97.524767239831
  0
LINE
  5
AB
100
AcDbEntity
  8
1
  6
CONTINUOUS
 62
           2
100
AcDbLine
 10
98.921378632936
 20
-89.524767239831
 11
128.921378632936
 21
-89.524767239831
  0
LINE
  5
AA
100
AcDbEntity
  8
1
  6
CONTINUOUS
 62
           2
100
AcDbLine
 10
122.226378632936
 20
-91.087767239831
 11
120.198378632936
 21
-96.153767239831
  0
LINE
  5
A9
100
AcDbEntity
  8
1
  6
CONTINUOUS
 62
           2
100
AcDbLine
 10
125.082378632936
 20
-96.153767239831
 11
123.017378632936
 21
-91.087767239831
  0
LINE
  5
A8
100
AcDbEntity
  8
1
  6
CONTINUOUS
 62
           7
100
AcDbLine
 10
124.417378632936
 20
-96.153767239831
 11
124.308378632936
 21
-96.153767239831
  0
LINE
  5
A7
100
AcDbEntity
  8
1
  6
CONTINUOUS
 62
           2
100
AcDbLine
 10
124.417378632936
 20
-96.153767239831
 11
125.082378632936
 21
-96.153767239831
  0
LINE
  5
A6
100
AcDbEntity
  8
1
  6
CONTINUOUS
 62
           2
100
AcDbLine
 10
120.198378632936
 20
-96.153767239831
 11
120.920378632936
 21
-96.153767239831
  0
LINE
  5
A5
100
AcDbEntity
  8
1
  6
CONTINUOUS
 62
           2
100
AcDbLine
 10
118.926378632936
 20
-96.153767239831
 11
119.832378632936
 21
-96.153767239831
  0
LINE
  5
A4
100
AcDbEntity
  8
1
  6
CONTINUOUS
 62
           2
100
AcDbLine
 10
108.160378632936
 20
-96.153767239831
 11
109.653378632936
 21
-91.087767239831
  0
LINE
  5
A3
100
AcDbEntity
  8
1
  6
CONTINUOUS
 62
           2
100
AcDbLine
 10
103.807378632936
 20
-96.153767239831
 11
102.338378632936
 21
-91.087767239831
  0
LINE
  5
A2
100
AcDbEntity
  8
1
  6
CONTINUOUS
 62
           2
100
AcDbLine
 10
107.238378632936
 20
-96.153767239831
 11
108.160378632936
 21
-96.153767239831
  0
LINE
  5
A1
100
AcDbEntity
  8
1
  6
CONTINUOUS
 62
           2
100
AcDbLine
 10
103.807378632936
 20
-96.153767239831
 11
104.745378632936
 21
-96.153767239831
  0
LINE
  5
A0
100
AcDbEntity
  8
1
  6
CONTINUOUS
 62
           2
100
AcDbLine
 10
115.917378632936
 20
-96.153767239831
 11
116.647378632936
 21
-96.153767239831
  0
LINE
  5
9F
100
AcDbEntity
  8
1
  6
CONTINUOUS
 62
           2
100
AcDbLine
 10
115.917378632936
 20
-91.087767239831
 11
115.917378632936
 21
-96.153767239831
  0
LINE
  5
9E
100
AcDbEntity
  8
1
  6
CONTINUOUS
 62
           2
100
AcDbLine
 10
112.149378632936
 20
-96.153767239831
 11
115.299378632936
 21
-96.153767239831
  0
LINE
  5
9D
100
AcDbEntity
  8
1
  6
CONTINUOUS
 62
           2
100
AcDbLine
 10
112.149378632936
 20
-91.087767239831
 11
112.149378632936
 21
-96.153767239831
  0
LINE
  5
9C
100
AcDbEntity
  8
1
  6
CONTINUOUS
 62
           2
100
AcDbLine
 10
111.108378632936
 20
-96.153767239831
 11
111.108378632936
 21
-91.087767239831
  0
LINE
  5
9B
100
AcDbEntity
  8
1
  6
CONTINUOUS
 62
           2
100
AcDbLine
 10
110.403378632936
 20
-96.153767239831
 11
111.108378632936
 21
-96.153767239831
  0
LINE
  5
9A
100
AcDbEntity
  8
1
  6
CONTINUOUS
 62
           2
100
AcDbLine
 10
110.403378632936
 20
-91.087767239831
 11
110.403378632936
 21
-96.153767239831
  0
LINE
  5
99
100
AcDbEntity
  8
1
  6
CONTINUOUS
 62
           2
100
AcDbLine
 10
122.226378632936
 20
-91.087767239831
 11
123.017378632936
 21
-91.087767239831
  0
LINE
  5
98
100
AcDbEntity
  8
1
  6
CONTINUOUS
 62
           2
100
AcDbLine
 10
118.773378632936
 20
-91.087767239831
 11
119.586378632936
 21
-91.087767239831
  0
LINE
  5
97
100
AcDbEntity
  8
1
  6
CONTINUOUS
 62
           2
100
AcDbLine
 10
115.917378632936
 20
-91.087767239831
 11
116.647378632936
 21
-91.087767239831
  0
LINE
  5
96
100
AcDbEntity
  8
1
  6
CONTINUOUS
 62
           2
100
AcDbLine
 10
112.149378632936
 20
-91.087767239831
 11
112.877378632936
 21
-91.087767239831
  0
LINE
  5
95
100
AcDbEntity
  8
1
  6
CONTINUOUS
 62
           2
100
AcDbLine
 10
110.403378632936
 20
-91.087767239831
 11
111.108378632936
 21
-91.087767239831
  0
LINE
  5
94
100
AcDbEntity
  8
1
  6
CONTINUOUS
 62
           2
100
AcDbLine
 10
108.945378632936
 20
-91.087767239831
 11
109.653378632936
 21
-91.087767239831
  0
LINE
  5
93
100
AcDbEntity
  8
1
  6
CONTINUOUS
 62
           2
100
AcDbLine
 10
105.592378632936
 20
-91.087767239831
 11
106.414378632936
 21
-91.087767239831
  0
LINE
  5
92
100
AcDbEntity
  8
1
  6
CONTINUOUS
 62
           2
100
AcDbLine
 10
102.338378632936
 20
-91.087767239831
 11
103.034378632936
 21
-91.087767239831
  0
LINE
  5
91
100
AcDbEntity
  8
1
  6
CONTINUOUS
 62
           2
100
AcDbLine
 10
103.034378632936
 20
-91.087767239831
 11
104.287378632936
 21
-94.943767239831
  0
LINE
  5
90
100
AcDbEntity
  8
1
  6
CONTINUOUS
 62
           2
100
AcDbLine
 10
104.287378632936
 20
-94.943767239831
 11
105.592378632936
 21
-91.087767239831
  0
LINE
  5
8F
100
AcDbEntity
  8
1
  6
CONTINUOUS
 62
           2
100
AcDbLine
 10
108.945378632936
 20
-91.087767239831
 11
107.710378632936
 21
-94.943767239831
  0
LINE
  5
8E
100
AcDbEntity
  8
1
  6
CONTINUOUS
 62
           2
100
AcDbLine
 10
107.710378632936
 20
-94.943767239831
 11
106.414378632936
 21
-91.087767239831
  0
LINE
  5
8D
100
AcDbEntity
  8
1
  6
CONTINUOUS
 62
           2
100
AcDbLine
 10
116.647378632936
 20
-91.087767239831
 11
116.647378632936
 21
-93.099767239831
  0
LINE
  5
8C
100
AcDbEntity
  8
1
  6
CONTINUOUS
 62
           2
100
AcDbLine
 10
116.647378632936
 20
-93.514767239831
 11
116.647378632936
 21
-96.153767239831
  0
LINE
  5
8B
100
AcDbEntity
  8
1
  6
CONTINUOUS
 62
           2
100
AcDbLine
 10
118.773378632936
 20
-91.087767239831
 11
116.647378632936
 21
-93.099767239831
  0
LINE
  5
8A
100
AcDbEntity
  8
1
  6
CONTINUOUS
 62
           2
100
AcDbLine
 10
118.926378632936
 20
-96.153767239831
 11
116.647378632936
 21
-93.514767239831
  0
LINE
  5
89
100
AcDbEntity
  8
1
  6
CONTINUOUS
 62
           2
100
AcDbLine
 10
3.921378632936
 20
-90.920590003991
 11
50.921378632936
 21
-90.920590003991
  0
LINE
  5
88
100
AcDbEntity
  8
1
  6
CONTINUOUS
 62
           7
100
AcDbLine
 10
3.921378632936
 20
-90.920590003991
 11
3.921378632936
 21
-95.420590003991
  0
LINE
  5
87
100
AcDbEntity
  8
1
  6
CONTINUOUS
 62
           7
100
AcDbLine
 10
50.921378632936
 20
-90.920590003991
 11
50.921378632936
 21
-95.420590003991
  0
LINE
  5
86
100
AcDbEntity
  8
1
  6
CONTINUOUS
 62
           7
100
AcDbLine
 10
-48.078621367064
 20
157.079409996009
 11
136.921378632936
 21
157.079409996009
  0
LINE
  5
85
100
AcDbEntity
  8
1
  6
CONTINUOUS
 62
           2
100
AcDbLine
 10
-27.524873243954
 20
-106.020590003992
 11
-27.524873243954
 21
-129.420590003991
  0
LINE
  5
84
100
AcDbEntity
  8
1
  6
CONTINUOUS
 62
           7
100
AcDbLine
 10
-2.078621367064
 20
-129.420590003991
 11
3.921378632936
 21
-129.420590003991
  0
LINE
  5
83
100
AcDbEntity
  8
1
  6
CONTINUOUS
 62
           7
100
AcDbLine
 10
-8.278621367064
 20
-129.420590003991
 11
-2.078621367064
 21
-129.420590003991
  0
LINE
  5
82
100
AcDbEntity
  8
1
  6
CONTINUOUS
 62
           7
100
AcDbLine
 10
-14.678621367064
 20
-129.420590003991
 11
-8.278621367064
 21
-129.420590003991
  0
LINE
  5
81
100
AcDbEntity
  8
1
  6
CONTINUOUS
 62
           7
100
AcDbLine
 10
-21.078621367064
 20
-129.420590003991
 11
-14.678621367064
 21
-129.420590003991
  0
LINE
  5
80
100
AcDbEntity
  8
1
  6
CONTINUOUS
 62
           7
100
AcDbLine
 10
-27.524873243954
 20
-129.420590003991
 11
-21.078621367064
 21
-129.420590003991
  0
LINE
  5
7F
100
AcDbEntity
  8
1
  6
CONTINUOUS
 62
           2
100
AcDbLine
 10
-48.078621367064
 20
-126.020590003992
 11
3.921378632936
 21
-126.020590003992
  0
LINE
  5
7E
100
AcDbEntity
  8
1
  6
CONTINUOUS
 62
           7
100
AcDbLine
 10
3.921378632936
 20
-126.020590003992
 11
3.921378632936
 21
-122.620590003992
  0
LINE
  5
7D
100
AcDbEntity
  8
1
  6
CONTINUOUS
 62
           7
100
AcDbLine
 10
3.921378632936
 20
-122.620590003992
 11
3.921378632936
 21
-119.220590003992
  0
LINE
  5
7C
100
AcDbEntity
  8
1
  6
CONTINUOUS
 62
           7
100
AcDbLine
 10
3.921378632936
 20
-119.220590003992
 11
3.921378632936
 21
-115.820590003992
  0
LINE
  5
7B
100
AcDbEntity
  8
1
  6
CONTINUOUS
 62
           7
100
AcDbLine
 10
3.921378632936
 20
-115.820590003992
 11
3.921378632936
 21
-106.020590003992
  0
LINE
  5
7A
100
AcDbEntity
  8
1
  6
CONTINUOUS
 62
           7
100
AcDbLine
 10
3.921378632936
 20
-106.020590003992
 11
3.921378632936
 21
-104.420590003992
  0
LINE
  5
79
100
AcDbEntity
  8
1
  6
CONTINUOUS
 62
           7
100
AcDbLine
 10
-48.078621367064
 20
-126.020590003992
 11
-48.078621367064
 21
-122.620590003992
  0
LINE
  5
78
100
AcDbEntity
  8
1
  6
CONTINUOUS
 62
           7
100
AcDbLine
 10
-48.078621367064
 20
-122.620590003992
 11
-48.078621367064
 21
-119.220590003992
  0
LINE
  5
77
100
AcDbEntity
  8
1
  6
CONTINUOUS
 62
           7
100
AcDbLine
 10
-48.078621367064
 20
-119.220590003992
 11
-48.078621367064
 21
-115.820590003992
  0
LINE
  5
76
100
AcDbEntity
  8
1
  6
CONTINUOUS
 62
           7
100
AcDbLine
 10
-48.078621367064
 20
-106.020590003992
 11
-48.078621367064
 21
-100.420590003992
  0
LINE
  5
75
100
AcDbEntity
  8
1
  6
CONTINUOUS
 62
           7
100
AcDbLine
 10
3.921378632936
 20
-67.252590003991
 11
3.921378632936
 21
-60.420590003991
  0
LINE
  5
74
100
AcDbEntity
  8
1
  6
CONTINUOUS
 62
           7
100
AcDbLine
 10
3.921378632936
 20
-100.420590003992
 11
-48.078621367064
 21
-100.420590003992
  0
LINE
  5
73
100
AcDbEntity
  8
1
  6
CONTINUOUS
 62
           3
100
AcDbLine
 10
-27.524873243954
 20
-106.020590003992
 11
-21.078621367064
 21
-106.020590003992
  0
LINE
  5
72
100
AcDbEntity
  8
1
  6
CONTINUOUS
 62
           3
100
AcDbLine
 10
-21.078621367064
 20
-106.020590003992
 11
-14.678621367064
 21
-106.020590003992
  0
LINE
  5
71
100
AcDbEntity
  8
1
  6
CONTINUOUS
 62
           3
100
AcDbLine
 10
-14.678621367064
 20
-106.020590003992
 11
-8.278621367064
 21
-106.020590003992
  0
LINE
  5
70
100
AcDbEntity
  8
1
  6
CONTINUOUS
 62
           3
100
AcDbLine
 10
-8.278621367064
 20
-106.020590003992
 11
-2.078621367064
 21
-106.020590003992
  0
LINE
  5
6F
100
AcDbEntity
  8
1
  6
CONTINUOUS
 62
           3
100
AcDbLine
 10
-2.078621367064
 20
-106.020590003992
 11
3.921378632936
 21
-106.020590003992
  0
LINE
  5
6E
100
AcDbEntity
  8
1
  6
CONTINUOUS
 62
           7
100
AcDbLine
 10
-48.078621367064
 20
-100.420590003992
 11
-48.078621367064
 21
-67.252590003991
  0
LINE
  5
6D
100
AcDbEntity
  8
1
  6
CONTINUOUS
 62
           7
100
AcDbLine
 10
3.921378632936
 20
-86.420590003992
 11
3.921378632936
 21
-80.420590003991
  0
LINE
  5
6C
100
AcDbEntity
  8
1
  6
CONTINUOUS
 62
           7
100
AcDbLine
 10
-48.078621367064
 20
-67.252590003991
 11
-48.078621367064
 21
-60.420590003991
  0
LINE
  5
6B
100
AcDbEntity
  8
1
  6
CONTINUOUS
 62
           7
100
AcDbLine
 10
91.921378632936
 20
-95.420590003991
 11
91.921378632936
 21
-86.420590003992
  0
LINE
  5
6A
100
AcDbEntity
  8
1
  6
CONTINUOUS
 62
           2
100
AcDbLine
 10
-7.572091820732
 20
-97.394974340117
 11
-7.569442470425
 21
-97.394974340117
  0
LINE
  5
69
100
AcDbEntity
  8
1
  6
CONTINUOUS
 62
           2
100
AcDbLine
 10
-6.301820073258
 20
-99.595149546161
 11
-7.572091820732
 21
-97.394974340117
  0
LINE
  5
68
100
AcDbEntity
  8
1
  6
CONTINUOUS
 62
           2
100
AcDbLine
 10
-5.032873000938
 20
-97.397268744787
 11
-6.301820073258
 21
-99.595149546161
  0
LINE
  5
67
100
AcDbEntity
  8
1
  6
CONTINUOUS
 62
           2
100
AcDbLine
 10
-3.763925928617
 20
-99.595149546161
 11
-5.032873000938
 21
-97.397268744787
  0
LINE
  5
66
100
AcDbEntity
  8
1
  6
CONTINUOUS
 62
           2
100
AcDbLine
 10
-2.494978856297
 20
-97.397268744787
 11
-2.49630353145
 21
-97.394974340117
  0
LINE
  5
65
100
AcDbEntity
  8
1
  6
CONTINUOUS
 62
           2
100
AcDbLine
 10
-2.494978856297
 20
-97.397268744787
 11
-3.763925928617
 21
-99.595149546161
  0
LINE
  5
64
100
AcDbEntity
  8
1
  6
CONTINUOUS
 62
           2
100
AcDbLine
 10
-7.569442470425
 20
-97.394974340117
 11
-2.49630353145
 21
-97.394974340117
  0
LINE
  5
63
100
AcDbEntity
  8
1
  6
CONTINUOUS
 62
           2
100
AcDbLine
 10
-8.839714217899
 20
-99.595149546161
 11
-7.569442470425
 21
-97.394974340117
  0
LINE
  5
62
100
AcDbEntity
  8
1
  6
CONTINUOUS
 62
           2
100
AcDbLine
 10
-10.109985965373
 20
-97.394974340117
 11
-8.839714217899
 21
-99.595149546161
  0
LINE
  5
61
100
AcDbEntity
  8
1
  6
CONTINUOUS
 62
           2
100
AcDbLine
 10
-2.49630353145
 20
-97.394974340117
 11
0.044239963497
 21
-97.394974340117
  0
LINE
  5
60
100
AcDbEntity
  8
1
  6
CONTINUOUS
 62
           2
100
AcDbLine
 10
-1.226031783976
 20
-99.595149546161
 11
-2.494978856297
 21
-97.397268744787
  0
LINE
  5
5F
100
AcDbEntity
  8
1
  6
CONTINUOUS
 62
           2
100
AcDbLine
 10
0.044239963497
 20
-97.394974340117
 11
-1.226031783976
 21
-99.595149546161
  0
LINE
  5
5E
100
AcDbEntity
  8
1
  6
CONTINUOUS
 62
           2
100
AcDbLine
 10
-10.109985965373
 20
-97.394974340117
 11
-7.572091820732
 21
-97.394974340117
  0
LINE
  5
5D
100
AcDbEntity
  8
1
  6
CONTINUOUS
 62
           2
100
AcDbLine
 10
-5.009778436698
 20
-81.592188220774
 11
-6.280050184172
 21
-79.39201301473
  0
LINE
  5
5C
100
AcDbEntity
  8
1
  6
CONTINUOUS
 62
           2
100
AcDbLine
 10
-3.739506689224
 20
-79.39201301473
 11
-5.009778436698
 21
-81.592188220774
  0
LINE
  5
5B
100
AcDbEntity
  8
1
  6
CONTINUOUS
 62
           2
100
AcDbLine
 10
-6.280050184172
 20
-79.39201301473
 11
-3.739506689224
 21
-79.39201301473
  0
LINE
  5
5A
100
AcDbEntity
  8
1
  6
CONTINUOUS
 62
           2
100
AcDbLine
 10
-25.039506689224
 20
-97.39201301473
 11
-26.309778436698
 21
-99.592188220774
  0
LINE
  5
59
100
AcDbEntity
  8
1
  6
CONTINUOUS
 62
           2
100
AcDbLine
 10
-27.580050184172
 20
-97.39201301473
 11
-25.039506689224
 21
-97.39201301473
  0
LINE
  5
58
100
AcDbEntity
  8
1
  6
CONTINUOUS
 62
           2
100
AcDbLine
 10
-26.309778436698
 20
-99.592188220774
 11
-27.580050184172
 21
-97.39201301473
  0
LINE
  5
57
100
AcDbEntity
  8
1
  6
CONTINUOUS
 62
           2
100
AcDbLine
 10
-23.80293954866
 20
-95.250215900302
 11
-25.039506689224
 21
-97.39201301473
  0
LINE
  5
56
100
AcDbEntity
  8
1
  6
CONTINUOUS
 62
           2
100
AcDbLine
 10
-25.039506689224
 20
-91.39201301473
 11
-26.309778436698
 21
-93.592188220774
  0
LINE
  5
55
100
AcDbEntity
  8
1
  6
CONTINUOUS
 62
           2
100
AcDbLine
 10
-27.580050184172
 20
-91.39201301473
 11
-25.039506689224
 21
-91.39201301473
  0
LINE
  5
54
100
AcDbEntity
  8
1
  6
CONTINUOUS
 62
           2
100
AcDbLine
 10
-26.309778436698
 20
-93.592188220774
 11
-27.580050184172
 21
-91.39201301473
  0
LINE
  5
53
100
AcDbEntity
  8
1
  6
CONTINUOUS
 62
           2
100
AcDbLine
 10
-23.80293954866
 20
-89.250215900302
 11
-25.039506689224
 21
-91.39201301473
  0
LINE
  5
52
100
AcDbEntity
  8
1
  6
CONTINUOUS
 62
           2
100
AcDbLine
 10
-25.039506689224
 20
-85.39201301473
 11
-26.309778436698
 21
-87.592188220774
  0
LINE
  5
51
100
AcDbEntity
  8
1
  6
CONTINUOUS
 62
           2
100
AcDbLine
 10
-27.580050184172
 20
-85.39201301473
 11
-25.039506689224
 21
-85.39201301473
  0
LINE
  5
50
100
AcDbEntity
  8
1
  6
CONTINUOUS
 62
           2
100
AcDbLine
 10
-26.309778436698
 20
-87.592188220774
 11
-27.580050184172
 21
-85.39201301473
  0
LINE
  5
4F
100
AcDbEntity
  8
1
  6
CONTINUOUS
 62
           2
100
AcDbLine
 10
-23.80293954866
 20
-83.250215900302
 11
-25.039506689224
 21
-85.39201301473
  0
LINE
  5
4E
100
AcDbEntity
  8
1
  6
CONTINUOUS
 62
           2
100
AcDbLine
 10
-25.039506689224
 20
-79.39201301473
 11
-23.80293954866
 21
-77.250215900302
  0
LINE
  5
4D
100
AcDbEntity
  8
1
  6
CONTINUOUS
 62
           2
100
AcDbLine
 10
-25.039506689224
 20
-79.39201301473
 11
-27.580050184172
 21
-79.39201301473
  0
LINE
  5
4C
100
AcDbEntity
  8
1
  6
CONTINUOUS
 62
           2
100
AcDbLine
 10
-26.309778436698
 20
-81.592188220774
 11
-25.039506689224
 21
-79.39201301473
  0
LINE
  5
4B
100
AcDbEntity
  8
1
  6
CONTINUOUS
 62
           2
100
AcDbLine
 10
-27.580050184172
 20
-79.39201301473
 11
-26.309778436698
 21
-81.592188220774
  0
LINE
  5
4A
100
AcDbEntity
  8
1
  6
CONTINUOUS
 62
           3
100
AcDbLine
 10
3.921378632936
 20
-76.420590003991
 11
-48.078621367064
 21
-76.420590003991
  0
LINE
  5
49
100
AcDbEntity
  8
1
  6
CONTINUOUS
 62
           2
100
AcDbLine
 10
3.921378632936
 20
-82.420590003991
 11
-48.078621367064
 21
-82.420590003991
  0
LINE
  5
48
100
AcDbEntity
  8
1
  6
CONTINUOUS
 62
           2
100
AcDbLine
 10
3.921378632936
 20
-88.420590003991
 11
-48.078621367064
 21
-88.420590003991
  0
LINE
  5
47
100
AcDbEntity
  8
1
  6
CONTINUOUS
 62
           2
100
AcDbLine
 10
3.921378632936
 20
-94.420590003991
 11
-48.078621367064
 21
-94.420590003991
  0
LINE
  5
46
100
AcDbEntity
  8
1
  6
CONTINUOUS
 62
           2
100
AcDbLine
 10
-40.068999047007
 20
-81.62017853379
 11
-37.568999047007
 21
-77.290051514867
  0
LINE
  5
45
100
AcDbEntity
  8
1
  6
CONTINUOUS
 62
           2
100
AcDbLine
 10
-40.068999047007
 20
-81.62017853379
 11
-41.318999047007
 21
-79.455115024329
  0
LINE
  5
44
100
AcDbEntity
  8
1
  6
CONTINUOUS
 62
           2
100
AcDbLine
 10
-40.068999047007
 20
-87.649443048175
 11
-37.568999047007
 21
-83.319316029253
  0
LINE
  5
43
100
AcDbEntity
  8
1
  6
CONTINUOUS
 62
           2
100
AcDbLine
 10
-40.068999047007
 20
-87.649443048175
 11
-41.318999047007
 21
-85.484379538714
  0
LINE
  5
42
100
AcDbEntity
  8
1
  6
CONTINUOUS
 62
           2
100
AcDbLine
 10
-40.068999047007
 20
-93.678707562561
 11
-37.568999047007
 21
-89.348580543639
  0
LINE
  5
41
100
AcDbEntity
  8
1
  6
CONTINUOUS
 62
           2
100
AcDbLine
 10
-40.068999047007
 20
-93.678707562561
 11
-41.318999047007
 21
-91.5136440531
  0
LINE
  5
40
100
AcDbEntity
  8
1
  6
CONTINUOUS
 62
           2
100
AcDbLine
 10
-40.068999047007
 20
-99.707972076946
 11
-37.568999047007
 21
-95.377845058024
  0
LINE
  5
3F
100
AcDbEntity
  8
1
  6
CONTINUOUS
 62
           2
100
AcDbLine
 10
-40.068999047007
 20
-99.707972076946
 11
-41.318999047007
 21
-97.542908567485
  0
LINE
  5
3E
100
AcDbEntity
  8
1
  6
CONTINUOUS
 62
           2
100
AcDbLine
 10
-23.80293954866
 20
-77.250215900302
 11
-15.928399977418
 21
-77.250215900302
  0
LINE
  5
3D
100
AcDbEntity
  8
1
  6
CONTINUOUS
 62
           2
100
AcDbLine
 10
-23.80293954866
 20
-83.250215900302
 11
-15.928399977418
 21
-83.250215900302
  0
LINE
  5
3C
100
AcDbEntity
  8
1
  6
CONTINUOUS
 62
           2
100
AcDbLine
 10
-23.80293954866
 20
-89.250215900302
 11
-15.928399977418
 21
-89.250215900302
  0
LINE
  5
3B
100
AcDbEntity
  8
1
  6
CONTINUOUS
 62
           2
100
AcDbLine
 10
-23.80293954866
 20
-95.250215900302
 11
-17.700612948791
 21
-95.250215900302
  0
LINE
  5
3A
100
AcDbEntity
  8
1
  6
CONTINUOUS
 62
           2
100
AcDbLine
 10
-7.572091820732
 20
-85.394974340117
 11
-6.301820073258
 21
-87.595149546161
  0
LINE
  5
39
100
AcDbEntity
  8
1
  6
CONTINUOUS
 62
           2
100
AcDbLine
 10
-6.301820073258
 20
-87.595149546161
 11
-5.032873000938
 21
-85.397268744787
  0
LINE
  5
38
100
AcDbEntity
  8
1
  6
CONTINUOUS
 62
           2
100
AcDbLine
 10
-5.032873000938
 20
-85.397268744787
 11
-3.763925928617
 21
-87.595149546161
  0
LINE
  5
37
100
AcDbEntity
  8
1
  6
CONTINUOUS
 62
           2
100
AcDbLine
 10
-3.763925928617
 20
-87.595149546161
 11
-2.493654181144
 21
-85.394974340117
  0
LINE
  5
36
100
AcDbEntity
  8
1
  6
CONTINUOUS
 62
           2
100
AcDbLine
 10
-2.493654181144
 20
-85.394974340117
 11
-7.572091820732
 21
-85.394974340117
  0
LINE
  5
35
100
AcDbEntity
  8
1
  6
CONTINUOUS
 62
           2
100
AcDbLine
 10
-8.809996277892
 20
-91.39201301473
 11
-3.750104090451
 21
-91.39201301473
  0
LINE
  5
34
100
AcDbEntity
  8
1
  6
CONTINUOUS
 62
           2
100
AcDbLine
 10
-1.209560595504
 20
-91.39201301473
 11
-2.479832342978
 21
-93.592188220774
  0
LINE
  5
33
100
AcDbEntity
  8
1
  6
CONTINUOUS
 62
           2
100
AcDbLine
 10
-2.479832342978
 20
-93.592188220774
 11
-3.744805389838
 21
-91.401190633407
  0
LINE
  5
32
100
AcDbEntity
  8
1
  6
CONTINUOUS
 62
           2
100
AcDbLine
 10
-3.750104090451
 20
-91.39201301473
 11
-1.209560595504
 21
-91.39201301473
  0
LINE
  5
31
100
AcDbEntity
  8
1
  6
CONTINUOUS
 62
           2
100
AcDbLine
 10
-3.744805389838
 20
-91.401190633407
 11
-5.009778436698
 21
-93.592188220774
  0
LINE
  5
30
100
AcDbEntity
  8
1
  6
CONTINUOUS
 62
           2
100
AcDbLine
 10
-3.744805389838
 20
-91.401190633407
 11
-3.750104090451
 21
-91.39201301473
  0
LINE
  5
2F
100
AcDbEntity
  8
1
  6
CONTINUOUS
 62
           2
100
AcDbLine
 10
-5.009778436698
 20
-93.592188220774
 11
-6.274751483558
 21
-91.401190633407
  0
LINE
  5
2E
100
AcDbEntity
  8
1
  6
CONTINUOUS
 62
           2
100
AcDbLine
 10
-6.274751483558
 20
-91.401190633407
 11
-7.539724530419
 21
-93.592188220774
  0
LINE
  5
2D
100
AcDbEntity
  8
1
  6
CONTINUOUS
 62
           2
100
AcDbLine
 10
-7.539724530419
 20
-93.592188220774
 11
-8.809996277892
 21
-91.39201301473
  0
LINE
  5
2C
100
AcDbEntity
  8
1
  6
CONTINUOUS
 62
           2
100
AcDbLine
 10
-31.078621367064
 20
-76.420590003991
 11
-31.078621367064
 21
-100.420590003992
  0
LINE
  5
2B
100
AcDbEntity
  8
1
  6
CONTINUOUS
 62
           2
100
AcDbLine
 10
-14.078621367064
 20
-76.420590003991
 11
-14.078621367064
 21
-100.420590003992
  0
LINE
  5
2A
100
AcDbEntity
  8
1
  6
CONTINUOUS
 62
           2
100
AcDbLine
 10
-14.078621367064
 20
-73.54195575463
 11
-14.078621367064
 21
-76.420590003991
  0
ENDBLK
  5
15E
100
AcDbEntity
  8
0
100
AcDbBlockEnd
  0
BLOCK
  5
326
100
AcDbEntity
  8
0
100
AcDbBlockBegin
  2
*D1
 70
           1
 10
0.0
 20
0.0
 30
0.0
  3
*D1
  1

  0
LINE
  5
327
100
AcDbEntity
  8
0
  6
CONTINUOUS
 62
           2
100
AcDbLine
 10
117.535590520932
 20
225.6519079855
 11
117.535590520932
 21
280.651907985498
  0
LINE
  5
328
100
AcDbEntity
  8
0
  6
CONTINUOUS
 62
           2
100
AcDbLine
 10
91.579542422803
 20
225.6519079855
 11
120.035590520932
 21
225.6519079855
  0
LINE
  5
329
100
AcDbEntity
  8
0
  6
CONTINUOUS
 62
           2
100
AcDbLine
 10
53.8386457712
 20
225.6519079855
 11
82.884886435076
 21
225.6519079855
  0
LINE
  5
32A
100
AcDbEntity
  8
0
  6
CONTINUOUS
 62
           2
100
AcDbLine
 10
47.129166829173
 20
280.651907985498
 11
120.035590520932
 21
280.651907985498
  0
SOLID
  5
32B
100
AcDbEntity
  8
0
 62
           2
100
AcDbTrace
 10
118.852115496806
 20
270.651907985498
 11
116.219065545058
 21
270.651907985498
 12
117.535590520932
 22
280.651907985498
 13
117.535590520932
 23
280.651907985498
  0
SOLID
  5
32C
100
AcDbEntity
  8
0
 62
           2
100
AcDbTrace
 10
116.219065545058
 20
235.6519079855
 11
118.852115496806
 21
235.6519079855
 12
117.535590520932
 22
225.6519079855
 13
117.535590520932
 23
225.6519079855
  0
MTEXT
  5
32D
100
AcDbEntity
  8
0
 62
           3
100
AcDbMText
 10
115.035590520932
 20
246.007206802009
 30
0.0
 40
6.25
 41
0.0
 71
           7
 72
           1
  1
55
  7
CONVERTER_2
 11
0.0
 21
1.0
 31
0.0
  0
ENDBLK
  5
32E
100
AcDbEntity
  8
0
100
AcDbBlockEnd
  0
BLOCK
  5
332
100
AcDbEntity
  8
0
100
AcDbBlockBegin
  2
*D2
 70
           1
 10
0.0
 20
0.0
 30
0.0
  3
*D2
  1

  0
LINE
  5
333
100
AcDbEntity
  8
0
  6
CONTINUOUS
 62
           2
100
AcDbLine
 10
225.11571897846
 20
274.211799064096
 11
245.11571897846
 21
274.211799064096
  0
LINE
  5
334
100
AcDbEntity
  8
0
  6
CONTINUOUS
 62
           2
100
AcDbLine
 10
211.71571923038
 20
274.211799064096
 11
191.71571923038
 21
274.211799064096
  0
LINE
  5
335
100
AcDbEntity
  8
0
  6
CONTINUOUS
 62
           2
100
AcDbLine
 10
211.71571923038
 20
274.211799064096
 11
225.11571897846
 21
274.211799064096
  0
LINE
  5
336
100
AcDbEntity
  8
0
  6
CONTINUOUS
 62
           2
100
AcDbLine
 10
225.11571897846
 20
263.651907694102
 11
225.11571897846
 21
276.711799064096
  0
LINE
  5
337
100
AcDbEntity
  8
0
  6
CONTINUOUS
 62
           2
100
AcDbLine
 10
211.71571923038
 20
263.651907694102
 11
211.71571923038
 21
276.711799064096
  0
SOLID
  5
338
100
AcDbEntity
  8
0
 62
           2
100
AcDbTrace
 10
201.71571923038
 20
272.895274088222
 11
201.71571923038
 21
275.52832403997
 12
211.71571923038
 22
274.211799064096
 13
211.71571923038
 23
274.211799064096
  0
SOLID
  5
339
100
AcDbEntity
  8
0
 62
           2
100
AcDbTrace
 10
235.11571897846
 20
275.52832403997
 11
235.11571897846
 21
272.895274088222
 12
225.11571897846
 22
274.211799064096
 13
225.11571897846
 23
274.211799064096
  0
TEXT
  5
33A
100
AcDbEntity
  8
0
 62
           3
100
AcDbText
 10
214.654273742834
 20
276.711799064096
 40
6.25
  1
13
 41
0.9
  7
CONVERTER_2
100
AcDbText
  0
ENDBLK
  5
33B
100
AcDbEntity
  8
0
100
AcDbBlockEnd
  0
BLOCK
  5
33F
100
AcDbEntity
  8
0
100
AcDbBlockBegin
  2
*D3
 70
           1
 10
0.0
 20
0.0
 30
0.0
  3
*D3
  1

  0
LINE
  5
340
100
AcDbEntity
  8
0
  6
CONTINUOUS
 62
           2
100
AcDbLine
 10
102.695296734633
 20
225.6519079855
 11
102.695296734633
 21
271.6519079855
  0
LINE
  5
341
100
AcDbEntity
  8
0
  6
CONTINUOUS
 62
           2
100
AcDbLine
 10
91.155412862426
 20
225.6519079855
 11
105.195296734633
 21
225.6519079855
  0
LINE
  5
342
100
AcDbEntity
  8
0
  6
CONTINUOUS
 62
           2
100
AcDbLine
 10
53.8386457712
 20
225.6519079855
 11
82.672821654888
 21
225.6519079855
  0
LINE
  5
343
100
AcDbEntity
  8
0
  6
CONTINUOUS
 62
           2
100
AcDbLine
 10
47.035824667597
 20
271.6519079855
 11
105.195296734633
 21
271.6519079855
  0
SOLID
  5
344
100
AcDbEntity
  8
0
 62
           2
100
AcDbTrace
 10
101.378771758759
 20
235.6519079855
 11
104.011821710507
 21
235.6519079855
 12
102.695296734633
 22
225.6519079855
 13
102.695296734633
 23
225.6519079855
  0
SOLID
  5
345
100
AcDbEntity
  8
0
 62
           2
100
AcDbTrace
 10
104.011821710507
 20
261.6519079855
 11
101.378771758759
 21
261.6519079855
 12
102.695296734633
 22
271.6519079855
 13
102.695296734633
 23
271.6519079855
  0
MTEXT
  5
346
100
AcDbEntity
  8
0
 62
           3
100
AcDbMText
 10
100.195296734633
 20
242.160427082642
 30
0.0
 40
6.25
 41
0.0
 71
           7
 72
           1
  1
46
  7
CONVERTER_2
 11
0.0
 21
1.0
 31
0.0
  0
ENDBLK
  5
347
100
AcDbEntity
  8
0
100
AcDbBlockEnd
  0
BLOCK
  5
34B
100
AcDbEntity
  8
0
100
AcDbBlockBegin
  2
*D4
 70
           1
 10
0.0
 20
0.0
 30
0.0
  3
*D4
  1

  0
LINE
  5
34C
100
AcDbEntity
  8
0
  6
CONTINUOUS
 62
           2
100
AcDbLine
 10
147.813429311803
 20
102.6519079855
 11
147.813429311803
 21
286.1519079855
  0
LINE
  5
34D
100
AcDbEntity
  8
0
  6
CONTINUOUS
 62
           2
100
AcDbLine
 10
57.614966791109
 20
102.6519079855
 11
150.313429311803
 21
102.6519079855
  0
LINE
  5
34E
100
AcDbEntity
  8
0
  6
CONTINUOUS
 62
           2
100
AcDbLine
 10
136.325211042564
 20
286.1519079855
 11
150.313429311803
 21
286.1519079855
  0
LINE
  5
34F
100
AcDbEntity
  8
0
  6
CONTINUOUS
 62
           2
100
AcDbLine
 10
57.614966791109
 20
286.1519079855
 11
129.327073296346
 21
286.1519079855
  0
SOLID
  5
350
100
AcDbEntity
  8
0
 62
           2
100
AcDbTrace
 10
146.496904335929
 20
112.6519079855
 11
149.129954287677
 21
112.6519079855
 12
147.813429311803
 22
102.6519079855
 13
147.813429311803
 23
102.6519079855
  0
SOLID
  5
351
100
AcDbEntity
  8
0
 62
           2
100
AcDbTrace
 10
149.129954287677
 20
276.1519079855
 11
146.496904335929
 21
276.1519079855
 12
147.813429311803
 22
286.1519079855
 13
147.813429311803
 23
286.1519079855
  0
MTEXT
  5
352
100
AcDbEntity
  8
0
 62
           3
100
AcDbMText
 10
144.688429311803
 20
182.737386559599
 30
0.0
 40
6.25
 41
0.0
 71
           7
 72
           1
  1
183,5
  7
CONVERTER_2
 11
0.0
 21
1.0
 31
0.0
  0
ENDBLK
  5
353
100
AcDbEntity
  8
0
100
AcDbBlockEnd
  0
BLOCK
  5
357
100
AcDbEntity
  8
0
100
AcDbBlockBegin
  2
*D5
 70
           1
 10
0.0
 20
0.0
 30
0.0
  3
*D5
  1

  0
LINE
  5
358
100
AcDbEntity
  8
0
  6
CONTINUOUS
 62
           2
100
AcDbLine
 10
117.755587671676
 20
200.6519079855
 11
117.755587671676
 21
225.6519079855
  0
LINE
  5
359
100
AcDbEntity
  8
0
  6
CONTINUOUS
 62
           2
100
AcDbLine
 10
106.050168781497
 20
200.6519079855
 11
120.255587671676
 21
200.6519079855
  0
LINE
  5
35A
100
AcDbEntity
  8
0
  6
CONTINUOUS
 62
           2
100
AcDbLine
 10
47.901653636966
 20
200.6519079855
 11
48.321697102082
 21
200.6519079855
  0
LINE
  5
35B
100
AcDbEntity
  8
0
  6
CONTINUOUS
 62
           2
100
AcDbLine
 10
55.371079864106
 20
200.6519079855
 11
97.668891407808
 21
200.6519079855
  0
LINE
  5
35C
100
AcDbEntity
  8
0
  6
CONTINUOUS
 62
           2
100
AcDbLine
 10
93.478252720964
 20
225.6519079855
 11
120.255587671676
 21
225.6519079855
  0
LINE
  5
35D
100
AcDbEntity
  8
0
  6
CONTINUOUS
 62
           2
100
AcDbLine
 10
53.8386457712
 20
225.6519079855
 11
80.90633666043
 21
225.6519079855
  0
SOLID
  5
35E
100
AcDbEntity
  8
0
 62
           2
100
AcDbTrace
 10
118.907547025566
 20
216.9019079855
 11
116.603628317786
 21
216.9019079855
 12
117.755587671676
 22
225.6519079855
 13
117.755587671676
 23
225.6519079855
  0
SOLID
  5
35F
100
AcDbEntity
  8
0
 62
           2
100
AcDbTrace
 10
116.603628317786
 20
209.4019079855
 11
118.907547025566
 21
209.4019079855
 12
117.755587671676
 22
200.6519079855
 13
117.755587671676
 23
200.6519079855
  0
MTEXT
  5
360
100
AcDbEntity
  8
0
 62
           3
100
AcDbMText
 10
115.255587671676
 20
208.4644079855
 30
0.0
 40
6.25
 41
0.0
 71
           7
 72
           1
  1
25
  7
CONVERTER_2
 11
0.0
 21
1.0
 31
0.0
  0
ENDBLK
  5
361
100
AcDbEntity
  8
0
100
AcDbBlockEnd
  0
BLOCK
  5
365
100
AcDbEntity
  8
0
100
AcDbBlockBegin
  2
*D6
 70
           1
 10
0.0
 20
0.0
 30
0.0
  3
*D6
  1

  0
LINE
  5
366
100
AcDbEntity
  8
0
  6
CONTINUOUS
 62
           2
100
AcDbLine
 10
87.578996332142
 20
203.6519079855
 11
87.578996332142
 21
221.1519079855
  0
LINE
  5
367
100
AcDbEntity
  8
0
  6
CONTINUOUS
 62
           2
100
AcDbLine
 10
87.578996332142
 20
221.1519079855
 11
87.578996332142
 21
230.1519079855
  0
LINE
  5
368
100
AcDbEntity
  8
0
  6
CONTINUOUS
 62
           2
100
AcDbLine
 10
87.578996332142
 20
230.1519079855
 11
87.578996332142
 21
253.087432733216
  0
LINE
  5
369
100
AcDbEntity
  8
0
  6
CONTINUOUS
 62
           2
100
AcDbLine
 10
47.114966791109
 20
221.1519079855
 11
90.078996332142
 21
221.1519079855
  0
LINE
  5
36A
100
AcDbEntity
  8
0
  6
CONTINUOUS
 62
           2
100
AcDbLine
 10
47.114966791109
 20
230.1519079855
 11
90.078996332142
 21
230.1519079855
  0
SOLID
  5
36B
100
AcDbEntity
  8
0
 62
           2
100
AcDbTrace
 10
86.427036978252
 20
238.9019079855
 11
88.730955686031
 21
238.9019079855
 12
87.578996332142
 22
230.1519079855
 13
87.578996332142
 23
230.1519079855
  0
SOLID
  5
36C
100
AcDbEntity
  8
0
 62
           2
100
AcDbTrace
 10
88.730955686031
 20
212.4019079855
 11
86.427036978252
 21
212.4019079855
 12
87.578996332142
 22
221.1519079855
 13
87.578996332142
 23
221.1519079855
  0
MTEXT
  5
36D
100
AcDbEntity
  8
0
 62
           3
100
AcDbMText
 10
85.078996332142
 20
244.212432733216
 30
0.0
 40
6.25
 41
0.0
 71
           7
 72
           1
  1
\C3;*\C3;9
  7
CONVERTER_2
 11
0.0
 21
1.0
 31
0.0
  0
ENDBLK
  5
36E
100
AcDbEntity
  8
0
100
AcDbBlockEnd
  0
BLOCK
  5
372
100
AcDbEntity
  8
0
100
AcDbBlockBegin
  2
*D7
 70
           1
 10
0.0
 20
0.0
 30
0.0
  3
*D7
  1

  0
LINE
  5
373
100
AcDbEntity
  8
0
  6
CONTINUOUS
 62
           2
100
AcDbLine
 10
21.364966791109
 20
178.218822584596
 11
38.864966791109
 21
178.218822584596
  0
LINE
  5
374
100
AcDbEntity
  8
0
  6
CONTINUOUS
 62
           2
100
AcDbLine
 10
38.864966791109
 20
178.218822584596
 11
46.364966791109
 21
178.218822584596
  0
LINE
  5
375
100
AcDbEntity
  8
0
  6
CONTINUOUS
 62
           2
100
AcDbLine
 10
46.364966791109
 20
178.218822584596
 11
75.680124364228
 21
178.218822584596
  0
LINE
  5
376
100
AcDbEntity
  8
0
  6
CONTINUOUS
 62
           2
100
AcDbLine
 10
38.864966791109
 20
200.6519079855
 11
38.864966791109
 21
175.718822584596
  0
LINE
  5
377
100
AcDbEntity
  8
0
  6
CONTINUOUS
 62
           2
100
AcDbLine
 10
46.364966791109
 20
200.6519079855
 11
46.364966791109
 21
175.718822584596
  0
SOLID
  5
378
100
AcDbEntity
  8
0
 62
           2
100
AcDbTrace
 10
30.114966791109
 20
177.066863230706
 11
30.114966791109
 21
179.370781938486
 12
38.864966791109
 22
178.218822584596
 13
38.864966791109
 23
178.218822584596
  0
SOLID
  5
379
100
AcDbEntity
  8
0
 62
           2
100
AcDbTrace
 10
55.114966791109
 20
179.370781938486
 11
55.114966791109
 21
177.066863230706
 12
46.364966791109
 22
178.218822584596
 13
46.364966791109
 23
178.218822584596
  0
TEXT
  5
37A
100
AcDbEntity
  8
0
 62
           3
100
AcDbText
 10
64.117624364228
 20
181.343822584596
 40
6.25
  1
7,5
 41
0.9
  7
CONVERTER_2
100
AcDbText
  0
ENDBLK
  5
37B
100
AcDbEntity
  8
0
100
AcDbBlockEnd
  0
BLOCK
  5
37F
100
AcDbEntity
  8
0
100
AcDbBlockBegin
  2
*D8
 70
           1
 10
0.0
 20
0.0
 30
0.0
  3
*D8
  1

  0
LINE
  5
380
100
AcDbEntity
  8
0
  6
CONTINUOUS
 62
           2
100
AcDbLine
 10
148.016753929883
 20
68.6519079855
 11
148.016753929883
 21
102.6519079855
  0
LINE
  5
381
100
AcDbEntity
  8
0
  6
CONTINUOUS
 62
           2
100
AcDbLine
 10
14.614966791109
 20
68.6519079855
 11
150.516753929883
 21
68.6519079855
  0
LINE
  5
382
100
AcDbEntity
  8
0
  6
CONTINUOUS
 62
           2
100
AcDbLine
 10
57.614966791109
 20
102.6519079855
 11
150.516753929883
 21
102.6519079855
  0
SOLID
  5
383
100
AcDbEntity
  8
0
 62
           2
100
AcDbTrace
 10
146.864794575993
 20
77.4019079855
 11
149.168713283773
 21
77.4019079855
 12
148.016753929883
 22
68.6519079855
 13
148.016753929883
 23
68.6519079855
  0
SOLID
  5
384
100
AcDbEntity
  8
0
 62
           2
100
AcDbTrace
 10
149.168713283773
 20
93.9019079855
 11
146.864794575993
 21
93.9019079855
 12
148.016753929883
 22
102.6519079855
 13
148.016753929883
 23
102.6519079855
  0
MTEXT
  5
385
100
AcDbEntity
  8
0
 62
           3
100
AcDbMText
 10
145.516753929883
 20
80.696352246599
 30
0.0
 40
6.25
 41
0.0
 71
           7
 72
           1
  1
34
  7
CONVERTER_2
 11
0.0
 21
1.0
 31
0.0
  0
ENDBLK
  5
386
100
AcDbEntity
  8
0
100
AcDbBlockEnd
  0
BLOCK
  5
38A
100
AcDbEntity
  8
0
100
AcDbBlockBegin
  2
*D9
 70
           1
 10
0.0
 20
0.0
 30
0.0
  3
*D9
  1

  0
LINE
  5
38B
100
AcDbEntity
  8
0
  6
CONTINUOUS
 62
           2
100
AcDbLine
 10
72.613194216086
 20
-63.484961394169
 11
72.613194216086
 21
-45.984961394169
  0
LINE
  5
38C
100
AcDbEntity
  8
0
  6
CONTINUOUS
 62
           2
100
AcDbLine
 10
72.613194216086
 20
-45.984961394169
 11
72.613194216086
 21
-30.484961394169
  0
LINE
  5
38D
100
AcDbEntity
  8
0
  6
CONTINUOUS
 62
           2
100
AcDbLine
 10
72.613194216086
 20
-30.484961394169
 11
72.613194216086
 21
-5.266972746604
  0
LINE
  5
38E
100
AcDbEntity
  8
0
  6
CONTINUOUS
 62
           2
100
AcDbLine
 10
57.614966791109
 20
-45.984961394169
 11
75.113194216086
 21
-45.984961394169
  0
LINE
  5
38F
100
AcDbEntity
  8
0
  6
CONTINUOUS
 62
           2
100
AcDbLine
 10
57.614966791109
 20
-30.484961394169
 11
75.113194216086
 21
-30.484961394169
  0
SOLID
  5
390
100
AcDbEntity
  8
0
 62
           2
100
AcDbTrace
 10
71.461234862196
 20
-21.734961394169
 11
73.765153569975
 21
-21.734961394169
 12
72.613194216086
 22
-30.484961394169
 13
72.613194216086
 23
-30.484961394169
  0
SOLID
  5
391
100
AcDbEntity
  8
0
 62
           2
100
AcDbTrace
 10
73.765153569975
 20
-54.734961394169
 11
71.461234862196
 21
-54.734961394169
 12
72.613194216086
 22
-45.984961394169
 13
72.613194216086
 23
-45.984961394169
  0
MTEXT
  5
392
100
AcDbEntity
  8
0
 62
           3
100
AcDbMText
 10
69.488194216086
 20
-20.579472746604
 30
0.0
 40
6.25
 41
0.0
 71
           7
 72
           1
  1
15,5
  7
CONVERTER_2
 11
0.0
 21
1.0
 31
0.0
  0
ENDBLK
  5
393
100
AcDbEntity
  8
0
100
AcDbBlockEnd
  0
BLOCK
  5
397
100
AcDbEntity
  8
0
100
AcDbBlockBegin
  2
*D10
 70
           1
 10
0.0
 20
0.0
 30
0.0
  3
*D10
  1

  0
LINE
  5
398
100
AcDbEntity
  8
0
  6
CONTINUOUS
 62
           2
100
AcDbLine
 10
8.614966791109
 20
-61.135901564129
 11
57.614966791109
 21
-61.135901564129
  0
LINE
  5
399
100
AcDbEntity
  8
0
  6
CONTINUOUS
 62
           2
100
AcDbLine
 10
8.614966791109
 20
-61.135901564129
 11
-51.918639811318
 21
-61.135901564129
  0
LINE
  5
39A
100
AcDbEntity
  8
0
  6
CONTINUOUS
 62
           2
100
AcDbLine
 10
8.614966791109
 20
-48.234961394169
 11
8.614966791109
 21
-63.635901564129
  0
LINE
  5
39B
100
AcDbEntity
  8
0
  6
CONTINUOUS
 62
           2
100
AcDbLine
 10
57.614966791109
 20
-45.984961394169
 11
57.614966791109
 21
-63.635901564129
  0
SOLID
  5
39C
100
AcDbEntity
  8
0
 62
           2
100
AcDbTrace
 10
17.364966791109
 20
-59.98394221024
 11
17.364966791109
 21
-62.287860918019
 12
8.614966791109
 22
-61.135901564129
 13
8.614966791109
 23
-61.135901564129
  0
SOLID
  5
39D
100
AcDbEntity
  8
0
 62
           2
100
AcDbTrace
 10
48.864966791109
 20
-62.287860918019
 11
48.864966791109
 21
-59.98394221024
 12
57.614966791109
 22
-61.135901564129
 13
57.614966791109
 23
-61.135901564129
  0
TEXT
  5
39E
100
AcDbEntity
  8
0
 62
           3
100
AcDbText
 10
-51.918639811318
 20
-59.33813075094
 40
6.25
  1
Kastenbreite
 41
0.9
  7
CONVERTER_2
100
AcDbText
  0
ENDBLK
  5
39F
100
AcDbEntity
  8
0
100
AcDbBlockEnd
  0
BLOCK
  5
3A3
100
AcDbEntity
  8
0
100
AcDbBlockBegin
  2
*D11
 70
           1
 10
0.0
 20
0.0
 30
0.0
  3
*D11
  1

  0
LINE
  5
3A4
100
AcDbEntity
  8
0
  6
CONTINUOUS
 62
           2
100
AcDbLine
 10
214.415719230376
 20
197.694216320611
 11
222.415719230376
 21
197.694216320611
  0
LINE
  5
3A5
100
AcDbEntity
  8
0
  6
CONTINUOUS
 62
           2
100
AcDbLine
 10
214.415719230376
 20
197.694216320611
 11
196.915719230376
 21
197.694216320611
  0
LINE
  5
3A6
100
AcDbEntity
  8
0
  6
CONTINUOUS
 62
           2
100
AcDbLine
 10
222.415719230376
 20
197.694216320611
 11
239.915719230376
 21
197.694216320611
  0
LINE
  5
3A7
100
AcDbEntity
  8
0
  6
CONTINUOUS
 62
           2
100
AcDbLine
 10
214.415719230376
 20
181.6519079855
 11
214.415719230376
 21
200.194216320611
  0
LINE
  5
3A8
100
AcDbEntity
  8
0
  6
CONTINUOUS
 62
           2
100
AcDbLine
 10
222.415719230376
 20
181.6519079855
 11
222.415719230376
 21
200.194216320611
  0
SOLID
  5
3A9
100
AcDbEntity
  8
0
 62
           2
100
AcDbTrace
 10
231.165719230376
 20
198.846175674501
 11
231.165719230376
 21
196.542256966721
 12
222.415719230376
 22
197.694216320611
 13
222.415719230376
 23
197.694216320611
  0
SOLID
  5
3AA
100
AcDbEntity
  8
0
 62
           2
100
AcDbTrace
 10
205.665719230376
 20
196.542256966721
 11
205.665719230376
 21
198.846175674501
 12
214.415719230376
 22
197.694216320611
 13
214.415719230376
 23
197.694216320611
  0
TEXT
  5
3AB
100
AcDbEntity
  8
0
 62
           3
100
AcDbText
 10
216.490692965514
 20
200.194216320611
 40
6.25
  1
8
 41
0.9
  7
CONVERTER_2
100
AcDbText
  0
ENDBLK
  5
3AC
100
AcDbEntity
  8
0
100
AcDbBlockEnd
  0
BLOCK
  5
3B0
100
AcDbEntity
  8
0
100
AcDbBlockBegin
  2
*D12
 70
           1
 10
0.0
 20
0.0
 30
0.0
  3
*D12
  1

  0
LINE
  5
3B1
100
AcDbEntity
  8
0
  6
CONTINUOUS
 62
           2
100
AcDbLine
 10
275.319574514456
 20
68.6519079855
 11
275.319574514456
 21
313.6519079855
  0
LINE
  5
3B2
100
AcDbEntity
  8
0
  6
CONTINUOUS
 62
           2
100
AcDbLine
 10
230.415719230376
 20
68.6519079855
 11
277.819574514456
 21
68.6519079855
  0
LINE
  5
3B3
100
AcDbEntity
  8
0
  6
CONTINUOUS
 62
           2
100
AcDbLine
 10
230.415719230376
 20
313.6519079855
 11
277.819574514456
 21
313.6519079855
  0
SOLID
  5
3B4
100
AcDbEntity
  8
0
 62
           2
100
AcDbTrace
 10
276.471533868345
 20
304.9019079855
 11
274.167615160566
 21
304.9019079855
 12
275.319574514456
 22
313.6519079855
 13
275.319574514456
 23
313.6519079855
  0
SOLID
  5
3B5
100
AcDbEntity
  8
0
 62
           2
100
AcDbTrace
 10
274.167615160566
 20
77.4019079855
 11
276.471533868345
 21
77.4019079855
 12
275.319574514456
 22
68.6519079855
 13
275.319574514456
 23
68.6519079855
  0
MTEXT
  5
3B6
100
AcDbEntity
  8
0
 62
           3
100
AcDbMText
 10
272.819574514456
 20
186.178001738067
 30
0.0
 40
6.25
 41
0.0
 71
           7
 72
           1
  1
245
  7
CONVERTER_2
 11
0.0
 21
1.0
 31
0.0
  0
ENDBLK
  5
3B7
100
AcDbEntity
  8
0
100
AcDbBlockEnd
  0
BLOCK
  5
3BB
100
AcDbEntity
  8
0
100
AcDbBlockBegin
  2
*D13
 70
           1
 10
0.0
 20
0.0
 30
0.0
  3
*D13
  1

  0
LINE
  5
3BC
100
AcDbEntity
  8
0
  6
CONTINUOUS
 62
           2
100
AcDbLine
 10
238.615719230376
 20
53.679410212517
 11
221.115719230376
 21
53.679410212517
  0
LINE
  5
3BD
100
AcDbEntity
  8
0
  6
CONTINUOUS
 62
           2
100
AcDbLine
 10
215.715719230376
 20
53.679410212517
 11
221.115719230376
 21
53.679410212517
  0
LINE
  5
3BE
100
AcDbEntity
  8
0
  6
CONTINUOUS
 62
           2
100
AcDbLine
 10
215.715719230376
 20
53.679410212517
 11
183.028129915674
 21
53.679410212517
  0
LINE
  5
3BF
100
AcDbEntity
  8
0
  6
CONTINUOUS
 62
           2
100
AcDbLine
 10
215.715719230376
 20
80.6519079855
 11
215.715719230376
 21
51.179410212517
  0
LINE
  5
3C0
100
AcDbEntity
  8
0
  6
CONTINUOUS
 62
           2
100
AcDbLine
 10
221.115719230376
 20
80.6519079855
 11
221.115719230376
 21
51.179410212517
  0
SOLID
  5
3C1
100
AcDbEntity
  8
0
 62
           2
100
AcDbTrace
 10
206.965719230376
 20
52.527450858628
 11
206.965719230376
 21
54.831369566407
 12
215.715719230376
 22
53.679410212517
 13
215.715719230376
 23
53.679410212517
  0
SOLID
  5
3C2
100
AcDbEntity
  8
0
 62
           2
100
AcDbTrace
 10
229.865719230376
 20
54.831369566407
 11
229.865719230376
 21
52.527450858628
 12
221.115719230376
 22
53.679410212517
 13
221.115719230376
 23
53.679410212517
  0
MTEXT
  5
3C3
100
AcDbEntity
  8
0
 62
           3
100
AcDbMText
 10
185.403129915674
 20
57.22981387891
 30
0.0
 40
6.25
 41
0.0
 71
           7
 72
           1
  1
\C3;ø\C3;5,4
  7
CONVERTER_2
  0
ENDBLK
  5
3C4
100
AcDbEntity
  8
0
100
AcDbBlockEnd
  0
BLOCK
  5
3C8
100
AcDbEntity
  8
0
100
AcDbBlockBegin
  2
*D14
 70
           1
 10
0.0
 20
0.0
 30
0.0
  3
*D14
  1

  0
LINE
  5
3C9
100
AcDbEntity
  8
0
  6
CONTINUOUS
 62
           2
100
AcDbLine
 10
132.825472472951
 20
225.6519079855
 11
132.825472472951
 21
313.6519079855
  0
LINE
  5
3CA
100
AcDbEntity
  8
0
  6
CONTINUOUS
 62
           2
100
AcDbLine
 10
53.8386457712
 20
225.6519079855
 11
82.672821654888
 21
225.6519079855
  0
LINE
  5
3CB
100
AcDbEntity
  8
0
  6
CONTINUOUS
 62
           2
100
AcDbLine
 10
14.614966791109
 20
313.6519079855
 11
135.325472472951
 21
313.6519079855
  0
LINE
  5
3CC
100
AcDbEntity
  8
0
  6
CONTINUOUS
 62
           2
100
AcDbLine
 10
92.003671983179
 20
225.6519079855
 11
135.325472472951
 21
225.6519079855
  0
SOLID
  5
3CD
100
AcDbEntity
  8
0
 62
           2
100
AcDbTrace
 10
131.508947497077
 20
235.6519079855
 11
134.141997448825
 21
235.6519079855
 12
132.825472472951
 22
225.6519079855
 13
132.825472472951
 23
225.6519079855
  0
SOLID
  5
3CE
100
AcDbEntity
  8
0
 62
           2
100
AcDbTrace
 10
134.141997448825
 20
303.6519079855
 11
131.508947497077
 21
303.6519079855
 12
132.825472472951
 22
313.6519079855
 13
132.825472472951
 23
313.6519079855
  0
MTEXT
  5
3CF
100
AcDbEntity
  8
0
 62
           3
100
AcDbMText
 10
130.325472472951
 20
262.761465991214
 30
0.0
 40
6.25
 41
0.0
 71
           7
 72
           1
  1
88
  7
CONVERTER_2
 11
0.0
 21
1.0
 31
0.0
  0
ENDBLK
  5
3D0
100
AcDbEntity
  8
0
100
AcDbBlockEnd
  0
BLOCK
  5
3D4
100
AcDbEntity
  8
0
100
AcDbBlockBegin
  2
*D15
 70
           1
 10
0.0
 20
0.0
 30
0.0
  3
*D15
  1

  0
LINE
  5
3D5
100
AcDbEntity
  8
0
  6
CONTINUOUS
 62
           2
100
AcDbLine
 10
-52.314694286113
 20
102.6519079855
 11
-52.314694286113
 21
280.651907985498
  0
LINE
  5
3D6
100
AcDbEntity
  8
0
  6
CONTINUOUS
 62
           2
100
AcDbLine
 10
10.614966791109
 20
102.6519079855
 11
-54.814694286113
 21
102.6519079855
  0
LINE
  5
3D7
100
AcDbEntity
  8
0
  6
CONTINUOUS
 62
           2
100
AcDbLine
 10
32.114966791113
 20
280.651907985498
 11
-2.847977335021
 21
280.651907985498
  0
LINE
  5
3D8
100
AcDbEntity
  8
0
  6
CONTINUOUS
 62
           2
100
AcDbLine
 10
-5.570568382565
 20
280.651907985498
 11
-54.814694286113
 21
280.651907985498
  0
SOLID
  5
3D9
100
AcDbEntity
  8
0
 62
           2
100
AcDbTrace
 10
-53.631219261987
 20
112.6519079855
 11
-50.998169310239
 21
112.6519079855
 12
-52.314694286113
 22
102.6519079855
 13
-52.314694286113
 23
102.6519079855
  0
SOLID
  5
3DA
100
AcDbEntity
  8
0
 62
           2
100
AcDbTrace
 10
-50.998169310239
 20
270.651907985498
 11
-53.631219261987
 21
270.651907985498
 12
-52.314694286113
 22
280.651907985498
 13
-52.314694286113
 23
280.651907985498
  0
MTEXT
  5
3DB
100
AcDbEntity
  8
0
 62
           3
100
AcDbMText
 10
-54.814694286113
 20
195.182270406454
 30
0.0
 40
6.25
 41
0.0
 71
           7
 72
           1
  1
178
  7
CONVERTER_2
 11
0.0
 21
1.0
 31
0.0
  0
ENDBLK
  5
3DC
100
AcDbEntity
  8
0
100
AcDbBlockEnd
  0
BLOCK
  5
3E0
100
AcDbEntity
  8
0
100
AcDbBlockBegin
  2
*D16
 70
           1
 10
0.0
 20
0.0
 30
0.0
  3
*D16
  1

  0
LINE
  5
3E1
100
AcDbEntity
  8
0
  6
CONTINUOUS
 62
           2
100
AcDbLine
 10
-4.385032926891
 20
286.577453586994
 11
8.614966791109
 21
286.577453586994
  0
LINE
  5
3E2
100
AcDbEntity
  8
0
  6
CONTINUOUS
 62
           2
100
AcDbLine
 10
-4.385032926891
 20
286.577453586994
 11
-24.385032926891
 21
286.577453586994
  0
LINE
  5
3E3
100
AcDbEntity
  8
0
  6
CONTINUOUS
 62
           2
100
AcDbLine
 10
8.614966791109
 20
286.577453586994
 11
28.614966791109
 21
286.577453586994
  0
LINE
  5
3E4
100
AcDbEntity
  8
0
  6
CONTINUOUS
 62
           2
100
AcDbLine
 10
-4.385032926891
 20
262.221803409832
 11
-4.385032926891
 21
289.077453586994
  0
LINE
  5
3E5
100
AcDbEntity
  8
0
  6
CONTINUOUS
 62
           2
100
AcDbLine
 10
8.614966791109
 20
313.6519079855
 11
8.614966791109
 21
284.077453586994
  0
SOLID
  5
3E6
100
AcDbEntity
  8
0
 62
           2
100
AcDbTrace
 10
-14.385032926891
 20
285.26092861112
 11
-14.385032926891
 21
287.893978562868
 12
-4.385032926891
 22
286.577453586994
 13
-4.385032926891
 23
286.577453586994
  0
SOLID
  5
3E7
100
AcDbEntity
  8
0
 62
           2
100
AcDbTrace
 10
18.614966791109
 20
287.893978562868
 11
18.614966791109
 21
285.26092861112
 12
8.614966791109
 22
286.577453586994
 13
8.614966791109
 23
286.577453586994
  0
TEXT
  5
3E8
100
AcDbEntity
  8
0
 62
           3
100
AcDbText
 10
-2.187836339438
 20
289.077453586994
 40
6.25
  1
13
 41
0.9
  7
CONVERTER_2
100
AcDbText
  0
ENDBLK
  5
3E9
100
AcDbEntity
  8
0
100
AcDbBlockEnd
  0
BLOCK
  5
3ED
100
AcDbEntity
  8
0
100
AcDbBlockBegin
  2
*D17
 70
           1
 10
0.0
 20
0.0
 30
0.0
  3
*D17
  1

  0
LINE
  5
3EE
100
AcDbEntity
  8
0
  6
CONTINUOUS
 62
           2
100
AcDbLine
 10
-7.385033208891
 20
129.919405790215
 11
8.614966791109
 21
129.919405790215
  0
LINE
  5
3EF
100
AcDbEntity
  8
0
  6
CONTINUOUS
 62
           2
100
AcDbLine
 10
-7.385033208891
 20
129.919405790215
 11
-27.385033208891
 21
129.919405790215
  0
LINE
  5
3F0
100
AcDbEntity
  8
0
  6
CONTINUOUS
 62
           2
100
AcDbLine
 10
8.614966791109
 20
129.919405790215
 11
28.614966791109
 21
129.919405790215
  0
LINE
  5
3F1
100
AcDbEntity
  8
0
  6
CONTINUOUS
 62
           2
100
AcDbLine
 10
-7.385033208891
 20
145.6519079855
 11
-7.385033208891
 21
127.419405790215
  0
LINE
  5
3F2
100
AcDbEntity
  8
0
  6
CONTINUOUS
 62
           2
100
AcDbLine
 10
8.614966791109
 20
68.6519079855
 11
8.614966791109
 21
132.419405790215
  0
SOLID
  5
3F3
100
AcDbEntity
  8
0
 62
           2
100
AcDbTrace
 10
-17.385033208891
 20
128.602880814341
 11
-17.385033208891
 21
131.235930766089
 12
-7.385033208891
 22
129.919405790215
 13
-7.385033208891
 23
129.919405790215
  0
SOLID
  5
3F4
100
AcDbEntity
  8
0
 62
           2
100
AcDbTrace
 10
18.614966791109
 20
131.235930766089
 11
18.614966791109
 21
128.602880814341
 12
8.614966791109
 22
129.919405790215
 13
8.614966791109
 23
129.919405790215
  0
TEXT
  5
3F5
100
AcDbEntity
  8
0
 62
           3
100
AcDbText
 10
-3.778108596558
 20
132.419405790215
 40
6.25
  1
16
 41
0.9
  7
CONVERTER_2
100
AcDbText
  0
ENDBLK
  5
3F6
100
AcDbEntity
  8
0
100
AcDbBlockEnd
  0
BLOCK
  5
3FA
100
AcDbEntity
  8
0
100
AcDbBlockBegin
  2
*D18
 70
           1
 10
0.0
 20
0.0
 30
0.0
  3
*D18
  1

  0
LINE
  5
3FB
100
AcDbEntity
  8
0
  6
CONTINUOUS
 62
           2
100
AcDbLine
 10
206.415719230376
 20
38.663791200365
 11
230.415719230376
 21
38.663791200365
  0
LINE
  5
3FC
100
AcDbEntity
  8
0
  6
CONTINUOUS
 62
           2
100
AcDbLine
 10
206.415719230376
 20
38.663791200365
 11
188.915719230376
 21
38.663791200365
  0
LINE
  5
3FD
100
AcDbEntity
  8
0
  6
CONTINUOUS
 62
           2
100
AcDbLine
 10
230.415719230376
 20
38.663791200365
 11
247.915719230376
 21
38.663791200365
  0
LINE
  5
3FE
100
AcDbEntity
  8
0
  6
CONTINUOUS
 62
           2
100
AcDbLine
 10
206.415719230376
 20
68.6519079855
 11
206.415719230376
 21
58.892415701539
  0
LINE
  5
3FF
100
AcDbEntity
  8
0
  6
CONTINUOUS
 62
           2
100
AcDbLine
 10
230.415719230376
 20
68.6519079855
 11
230.415719230376
 21
63.941086889284
  0
LINE
  5
400
100
AcDbEntity
  8
0
  6
CONTINUOUS
 62
           2
100
AcDbLine
 10
206.415719230376
 20
50.3353458918
 11
206.415719230376
 21
36.163791200365
  0
LINE
  5
401
100
AcDbEntity
  8
0
  6
CONTINUOUS
 62
           2
100
AcDbLine
 10
230.415719230376
 20
50.3353458918
 11
230.415719230376
 21
36.163791200365
  0
SOLID
  5
402
100
AcDbEntity
  8
0
 62
           2
100
AcDbTrace
 10
239.165719230376
 20
39.815750554255
 11
239.165719230376
 21
37.511831846475
 12
230.415719230376
 22
38.663791200365
 13
230.415719230376
 23
38.663791200365
  0
SOLID
  5
403
100
AcDbEntity
  8
0
 62
           2
100
AcDbTrace
 10
197.665719230376
 20
37.511831846475
 11
197.665719230376
 21
39.815750554255
 12
206.415719230376
 22
38.663791200365
 13
206.415719230376
 23
38.663791200365
  0
TEXT
  5
404
100
AcDbEntity
  8
0
 62
           3
100
AcDbText
 10
214.417028990003
 20
41.163791200365
 40
6.25
  1
24
 41
0.9
  7
CONVERTER_2
100
AcDbText
  0
ENDBLK
  5
405
100
AcDbEntity
  8
0
100
AcDbBlockEnd
  0
BLOCK
  5
409
100
AcDbEntity
  8
0
100
AcDbBlockBegin
  2
*D19
 70
           1
 10
0.0
 20
0.0
 30
0.0
  3
*D19
  1

  0
LINE
  5
40A
100
AcDbEntity
  8
0
  6
CONTINUOUS
 62
           2
100
AcDbLine
 10
-37.235102634589
 20
225.6519079855
 11
-37.235102634589
 21
232.651908276903
  0
LINE
  5
40B
100
AcDbEntity
  8
0
  6
CONTINUOUS
 62
           2
100
AcDbLine
 10
-37.235102634589
 20
225.6519079855
 11
-37.235102634589
 21
205.6519079855
  0
LINE
  5
40C
100
AcDbEntity
  8
0
  6
CONTINUOUS
 62
           2
100
AcDbLine
 10
-37.235102634589
 20
232.651908276903
 11
-37.235102634589
 21
252.651908276903
  0
LINE
  5
40D
100
AcDbEntity
  8
0
  6
CONTINUOUS
 62
           2
100
AcDbLine
 10
31.981325085747
 20
225.6519079855
 11
-39.735102634589
 21
225.6519079855
  0
LINE
  5
40E
100
AcDbEntity
  8
0
  6
CONTINUOUS
 62
           2
100
AcDbLine
 10
-4.385032926891
 20
232.651908276903
 11
-39.735102634589
 21
232.651908276903
  0
SOLID
  5
40F
100
AcDbEntity
  8
0
 62
           2
100
AcDbTrace
 10
-38.551627610463
 20
242.651908276903
 11
-35.918577658715
 21
242.651908276903
 12
-37.235102634589
 22
232.651908276903
 13
-37.235102634589
 23
232.651908276903
  0
SOLID
  5
410
100
AcDbEntity
  8
0
 62
           2
100
AcDbTrace
 10
-35.918577658715
 20
215.6519079855
 11
-38.551627610463
 21
215.6519079855
 12
-37.235102634589
 22
225.6519079855
 13
-37.235102634589
 23
225.6519079855
  0
MTEXT
  5
411
100
AcDbEntity
  8
0
 62
           3
100
AcDbMText
 10
-39.735102634589
 20
227.084114261004
 30
0.0
 40
6.25
 41
0.0
 71
           7
 72
           1
  1
7
  7
CONVERTER_2
 11
0.0
 21
1.0
 31
0.0
  0
ENDBLK
  5
412
100
AcDbEntity
  8
0
100
AcDbBlockEnd
  0
BLOCK
  5
416
100
AcDbEntity
  8
0
100
AcDbBlockBegin
  2
*D20
 70
           1
 10
0.0
 20
0.0
 30
0.0
  3
*D20
  1

  0
LINE
  5
417
100
AcDbEntity
  8
0
  6
CONTINUOUS
 62
           2
100
AcDbLine
 10
-37.235102634589
 20
181.6519079855
 11
-37.235102634589
 21
225.6519079855
  0
LINE
  5
418
100
AcDbEntity
  8
0
  6
CONTINUOUS
 62
           2
100
AcDbLine
 10
-7.385033208891
 20
181.6519079855
 11
-39.735102634589
 21
181.6519079855
  0
LINE
  5
419
100
AcDbEntity
  8
0
  6
CONTINUOUS
 62
           2
100
AcDbLine
 10
31.981325085747
 20
225.6519079855
 11
-39.735102634589
 21
225.6519079855
  0
SOLID
  5
41A
100
AcDbEntity
  8
0
 62
           2
100
AcDbTrace
 10
-35.918577658715
 20
215.6519079855
 11
-38.551627610463
 21
215.6519079855
 12
-37.235102634589
 22
225.6519079855
 13
-37.235102634589
 23
225.6519079855
  0
SOLID
  5
41B
100
AcDbEntity
  8
0
 62
           2
100
AcDbTrace
 10
-38.551627610463
 20
191.6519079855
 11
-35.918577658715
 21
191.6519079855
 12
-37.235102634589
 22
181.6519079855
 13
-37.235102634589
 23
181.6519079855
  0
MTEXT
  5
41C
100
AcDbEntity
  8
0
 62
           3
100
AcDbMText
 10
-39.735102634589
 20
198.9644079855
 30
0.0
 40
6.25
 41
0.0
 71
           7
 72
           1
  1
44
  7
CONVERTER_2
 11
0.0
 21
1.0
 31
0.0
  0
ENDBLK
  5
41D
100
AcDbEntity
  8
0
100
AcDbBlockEnd
  0
BLOCK
  5
421
100
AcDbEntity
  8
0
100
AcDbBlockBegin
  2
*D21
 70
           1
 10
0.0
 20
0.0
 30
0.0
  3
*D21
  1

  0
LINE
  5
422
100
AcDbEntity
  8
0
  6
CONTINUOUS
 62
           2
100
AcDbLine
 10
102.673576626667
 20
243.1519079855
 11
102.673576626667
 21
225.6519079855
  0
LINE
  5
423
100
AcDbEntity
  8
0
  6
CONTINUOUS
 62
           2
100
AcDbLine
 10
102.673576626667
 20
204.9019079855
 11
102.673576626667
 21
225.6519079855
  0
LINE
  5
424
100
AcDbEntity
  8
0
  6
CONTINUOUS
 62
           2
100
AcDbLine
 10
102.673576626667
 20
204.9019079855
 11
102.673576626667
 21
170.366123415416
  0
LINE
  5
425
100
AcDbEntity
  8
0
  6
CONTINUOUS
 62
           2
100
AcDbLine
 10
47.817483085997
 20
204.9019079855
 11
82.303216222712
 21
204.9019079855
  0
LINE
  5
426
100
AcDbEntity
  8
0
  6
CONTINUOUS
 62
           2
100
AcDbLine
 10
53.8386457712
 20
225.6519079855
 11
82.652436113282
 21
225.6519079855
  0
LINE
  5
427
100
AcDbEntity
  8
0
  6
CONTINUOUS
 62
           2
100
AcDbLine
 10
92.779812939823
 20
225.6519079855
 11
105.173576626667
 21
225.6519079855
  0
LINE
  5
428
100
AcDbEntity
  8
0
  6
CONTINUOUS
 62
           2
100
AcDbLine
 10
92.430593049253
 20
204.9019079855
 11
105.173576626667
 21
204.9019079855
  0
SOLID
  5
429
100
AcDbEntity
  8
0
 62
           2
100
AcDbTrace
 10
103.825535980557
 20
196.1519079855
 11
101.521617272778
 21
196.1519079855
 12
102.673576626667
 22
204.9019079855
 13
102.673576626667
 23
204.9019079855
  0
SOLID
  5
42A
100
AcDbEntity
  8
0
 62
           2
100
AcDbTrace
 10
101.521617272778
 20
234.4019079855
 11
103.825535980557
 21
234.4019079855
 12
102.673576626667
 22
225.6519079855
 13
102.673576626667
 23
225.6519079855
  0
MTEXT
  5
42B
100
AcDbEntity
  8
0
 62
           3
100
AcDbMText
 10
99.548576626667
 20
170.366123415416
 30
0.0
 40
6.25
 41
0.0
 71
           7
 72
           1
  1
20,75
  7
CONVERTER_2
 11
0.0
 21
1.0
 31
0.0
  0
ENDBLK
  5
42C
100
AcDbEntity
  8
0
100
AcDbBlockEnd
  0
BLOCK
  5
430
100
AcDbEntity
  8
0
100
AcDbBlockBegin
  2
*D22
 70
           1
 10
0.0
 20
0.0
 30
0.0
  3
*D22
  1

  0
LINE
  5
431
100
AcDbEntity
  8
0
  6
CONTINUOUS
 62
           2
100
AcDbLine
 10
8.614966791109
 20
38.554736530692
 11
42.614966791109
 21
38.554736530692
  0
LINE
  5
432
100
AcDbEntity
  8
0
  6
CONTINUOUS
 62
           2
100
AcDbLine
 10
8.614966791109
 20
38.554736530692
 11
-32.716111226522
 21
38.554736530692
  0
LINE
  5
433
100
AcDbEntity
  8
0
  6
CONTINUOUS
 62
           2
100
AcDbLine
 10
8.614966791109
 20
68.6519079855
 11
8.614966791109
 21
36.054736530692
  0
LINE
  5
434
100
AcDbEntity
  8
0
  6
CONTINUOUS
 62
           2
100
AcDbLine
 10
42.614966791109
 20
62.009373394268
 11
42.614966791109
 21
36.054736530692
  0
LINE
  5
435
100
AcDbEntity
  8
0
  6
CONTINUOUS
 62
           2
100
AcDbLine
 10
42.614966791109
 20
106.715416611602
 11
42.614966791109
 21
75.23135697617
  0
SOLID
  5
436
100
AcDbEntity
  8
0
 62
           2
100
AcDbTrace
 10
17.364966791109
 20
39.706695884581
 11
17.364966791109
 21
37.402777176802
 12
8.614966791109
 22
38.554736530692
 13
8.614966791109
 23
38.554736530692
  0
SOLID
  5
437
100
AcDbEntity
  8
0
 62
           2
100
AcDbTrace
 10
33.864966791109
 20
37.402777176802
 11
33.864966791109
 21
39.706695884581
 12
42.614966791109
 22
38.554736530692
 13
42.614966791109
 23
38.554736530692
  0
TEXT
  5
438
100
AcDbEntity
  8
0
 62
           3
100
AcDbText
 10
-32.716111226522
 20
40.463596844594
 40
6.25
  1
Dornmaß
 41
0.9
  7
CONVERTER_2
100
AcDbText
  0
ENDBLK
  5
439
100
AcDbEntity
  8
0
100
AcDbBlockEnd
  0
BLOCK
  5
43D
100
AcDbEntity
  8
0
100
AcDbBlockBegin
  2
*D23
 70
           1
 10
0.0
 20
0.0
 30
0.0
  3
*D23
  1

  0
LINE
  5
43E
100
AcDbEntity
  8
0
  6
CONTINUOUS
 62
           2
100
AcDbLine
 10
25.114966791109
 20
38.554736530692
 11
42.614966791109
 21
38.554736530692
  0
LINE
  5
43F
100
AcDbEntity
  8
0
  6
CONTINUOUS
 62
           2
100
AcDbLine
 10
42.614966791109
 20
38.554736530692
 11
57.614966791109
 21
38.554736530692
  0
LINE
  5
440
100
AcDbEntity
  8
0
  6
CONTINUOUS
 62
           2
100
AcDbLine
 10
57.614966791109
 20
38.554736530692
 11
76.364966791109
 21
38.554736530692
  0
LINE
  5
441
100
AcDbEntity
  8
0
  6
CONTINUOUS
 62
           2
100
AcDbLine
 10
42.614966791109
 20
106.715416611602
 11
42.614966791109
 21
72.500648224287
  0
LINE
  5
442
100
AcDbEntity
  8
0
  6
CONTINUOUS
 62
           2
100
AcDbLine
 10
57.614966791109
 20
102.6519079855
 11
57.614966791109
 21
73.093104203938
  0
LINE
  5
443
100
AcDbEntity
  8
0
  6
CONTINUOUS
 62
           2
100
AcDbLine
 10
42.614966791109
 20
64.601235162267
 11
42.614966791109
 21
36.054736530692
  0
LINE
  5
444
100
AcDbEntity
  8
0
  6
CONTINUOUS
 62
           2
100
AcDbLine
 10
57.614966791109
 20
64.996205815368
 11
57.614966791109
 21
36.054736530692
  0
SOLID
  5
445
100
AcDbEntity
  8
0
 62
           2
100
AcDbTrace
 10
33.864966791109
 20
37.402777176802
 11
33.864966791109
 21
39.706695884581
 12
42.614966791109
 22
38.554736530692
 13
42.614966791109
 23
38.554736530692
  0
SOLID
  5
446
100
AcDbEntity
  8
0
 62
           2
100
AcDbTrace
 10
66.364966791109
 20
39.706695884581
 11
66.364966791109
 21
37.402777176802
 12
57.614966791109
 22
38.554736530692
 13
57.614966791109
 23
38.554736530692
  0
TEXT
  5
447
100
AcDbEntity
  8
0
 62
           3
100
AcDbText
 10
68.864966791109
 20
41.054736530692
 40
6.25
  1
15
 41
0.9
  7
CONVERTER_2
100
AcDbText
  0
ENDBLK
  5
448
100
AcDbEntity
  8
0
100
AcDbBlockEnd
  0
BLOCK
  5
44C
100
AcDbEntity
  8
0
100
AcDbBlockBegin
  2
*D24
 70
           1
 10
0.0
 20
0.0
 30
0.0
  3
*D24
  1

  0
LINE
  5
44D
100
AcDbEntity
  8
0
  6
CONTINUOUS
 62
           2
100
AcDbLine
 10
-37.251225111505
 20
145.6519079855
 11
-37.251225111505
 21
181.6519079855
  0
LINE
  5
44E
100
AcDbEntity
  8
0
  6
CONTINUOUS
 62
           2
100
AcDbLine
 10
-7.385033208891
 20
145.6519079855
 11
-39.751225111505
 21
145.6519079855
  0
LINE
  5
44F
100
AcDbEntity
  8
0
  6
CONTINUOUS
 62
           2
100
AcDbLine
 10
-7.385033208891
 20
181.6519079855
 11
-39.751225111505
 21
181.6519079855
  0
SOLID
  5
450
100
AcDbEntity
  8
0
 62
           2
100
AcDbTrace
 10
-38.403184465395
 20
154.4019079855
 11
-36.099265757615
 21
154.4019079855
 12
-37.251225111505
 22
145.6519079855
 13
-37.251225111505
 23
145.6519079855
  0
SOLID
  5
451
100
AcDbEntity
  8
0
 62
           2
100
AcDbTrace
 10
-36.099265757615
 20
172.9019079855
 11
-38.403184465395
 21
172.9019079855
 12
-37.251225111505
 22
181.6519079855
 13
-37.251225111505
 23
181.6519079855
  0
MTEXT
  5
452
100
AcDbEntity
  8
0
 62
           3
100
AcDbMText
 10
-39.751225111505
 20
158.625600472567
 30
0.0
 40
6.25
 41
0.0
 71
           7
 72
           1
  1
36
  7
CONVERTER_2
 11
0.0
 21
1.0
 31
0.0
  0
ENDBLK
  5
453
100
AcDbEntity
  8
0
100
AcDbBlockEnd
  0
BLOCK
  5
457
100
AcDbEntity
  8
0
100
AcDbBlockBegin
  2
*D25
 70
           1
 10
0.0
 20
0.0
 30
0.0
  3
*D25
  1

  0
LINE
  5
458
100
AcDbEntity
  8
0
  6
CONTINUOUS
 62
           2
100
AcDbLine
 10
-37.211624619057
 20
232.651908276903
 11
-37.211624619057
 21
263.651907694102
  0
LINE
  5
459
100
AcDbEntity
  8
0
  6
CONTINUOUS
 62
           2
100
AcDbLine
 10
-4.385032926891
 20
263.651907694102
 11
-39.711624619057
 21
263.651907694102
  0
LINE
  5
45A
100
AcDbEntity
  8
0
  6
CONTINUOUS
 62
           2
100
AcDbLine
 10
-4.385032926891
 20
232.651908276903
 11
-39.711624619057
 21
232.651908276903
  0
SOLID
  5
45B
100
AcDbEntity
  8
0
 62
           2
100
AcDbTrace
 10
-38.528149594931
 20
242.651908276903
 11
-35.895099643183
 21
242.651908276903
 12
-37.211624619057
 22
232.651908276903
 13
-37.211624619057
 23
232.651908276903
  0
SOLID
  5
45C
100
AcDbEntity
  8
0
 62
           2
100
AcDbTrace
 10
-35.895099643183
 20
253.651907694102
 11
-38.528149594931
 21
253.651907694102
 12
-37.211624619057
 22
263.651907694102
 13
-37.211624619057
 23
263.651907694102
  0
MTEXT
  5
45D
100
AcDbEntity
  8
0
 62
           3
100
AcDbMText
 10
-39.711624619057
 20
243.330628994613
 30
0.0
 40
6.25
 41
0.0
 71
           7
 72
           1
  1
31
  7
CONVERTER_2
 11
0.0
 21
1.0
 31
0.0
  0
ENDBLK
  5
45E
100
AcDbEntity
  8
0
100
AcDbBlockEnd
  0
BLOCK
  5
462
100
AcDbEntity
  8
0
100
AcDbBlockBegin
  2
*D26
 70
           1
 10
0.0
 20
0.0
 30
0.0
  3
*D26
  1

  0
LINE
  5
463
100
AcDbEntity
  8
0
  6
CONTINUOUS
 62
           2
100
AcDbLine
 10
132.828266085551
 20
131.651907985499
 11
132.828266085551
 21
225.6519079855
  0
LINE
  5
464
100
AcDbEntity
  8
0
  6
CONTINUOUS
 62
           2
100
AcDbLine
 10
55.556971487549
 20
131.651907985499
 11
135.328266085551
 21
131.651907985499
  0
LINE
  5
465
100
AcDbEntity
  8
0
  6
CONTINUOUS
 62
           2
100
AcDbLine
 10
53.8386457712
 20
225.6519079855
 11
84.155561397156
 21
225.6519079855
  0
LINE
  5
466
100
AcDbEntity
  8
0
  6
CONTINUOUS
 62
           2
100
AcDbLine
 10
91.819456047361
 20
225.6519079855
 11
135.328266085551
 21
225.6519079855
  0
SOLID
  5
467
100
AcDbEntity
  8
0
 62
           2
100
AcDbTrace
 10
134.144791061425
 20
215.6519079855
 11
131.511741109677
 21
215.6519079855
 12
132.828266085551
 22
225.6519079855
 13
132.828266085551
 23
225.6519079855
  0
SOLID
  5
468
100
AcDbEntity
  8
0
 62
           2
100
AcDbTrace
 10
131.511741109677
 20
141.651907985499
 11
134.144791061425
 21
141.651907985499
 12
132.828266085551
 22
131.651907985499
 13
132.828266085551
 23
131.651907985499
  0
MTEXT
  5
469
100
AcDbEntity
  8
0
 62
           3
100
AcDbMText
 10
130.328266085551
 20
176.789552724682
 30
0.0
 40
6.25
 41
0.0
 71
           7
 72
           1
  1
94
  7
CONVERTER_2
 11
0.0
 21
1.0
 31
0.0
  0
ENDBLK
  5
46A
100
AcDbEntity
  8
0
100
AcDbBlockEnd
  0
BLOCK
  5
46E
100
AcDbEntity
  8
0
100
AcDbBlockBegin
  2
*D27
 70
           1
 10
0.0
 20
0.0
 30
0.0
  3
*D27
  1

  0
LINE
  5
46F
100
AcDbEntity
  8
0
  6
CONTINUOUS
 62
           2
100
AcDbLine
 10
132.60510810226
 20
102.6519079855
 11
132.60510810226
 21
131.651907985499
  0
LINE
  5
470
100
AcDbEntity
  8
0
  6
CONTINUOUS
 62
           2
100
AcDbLine
 10
57.614966791109
 20
102.6519079855
 11
135.10510810226
 21
102.6519079855
  0
LINE
  5
471
100
AcDbEntity
  8
0
  6
CONTINUOUS
 62
           2
100
AcDbLine
 10
55.556971487549
 20
131.651907985499
 11
135.10510810226
 21
131.651907985499
  0
SOLID
  5
472
100
AcDbEntity
  8
0
 62
           2
100
AcDbTrace
 10
133.921633078134
 20
121.651907985499
 11
131.288583126386
 21
121.651907985499
 12
132.60510810226
 22
131.651907985499
 13
132.60510810226
 23
131.651907985499
  0
SOLID
  5
473
100
AcDbEntity
  8
0
 62
           2
100
AcDbTrace
 10
131.288583126386
 20
112.6519079855
 11
133.921633078134
 21
112.6519079855
 12
132.60510810226
 22
102.6519079855
 13
132.60510810226
 23
102.6519079855
  0
MTEXT
  5
474
100
AcDbEntity
  8
0
 62
           3
100
AcDbMText
 10
130.10510810226
 20
112.29689555361
 30
0.0
 40
6.25
 41
0.0
 71
           7
 72
           1
  1
29
  7
CONVERTER_2
 11
0.0
 21
1.0
 31
0.0
  0
ENDBLK
  5
475
100
AcDbEntity
  8
0
100
AcDbBlockEnd
  0
BLOCK
  5
479
100
AcDbEntity
  8
0
100
AcDbBlockBegin
  2
*D28
 70
           1
 10
0.0
 20
0.0
 30
0.0
  3
*D28
  1

  0
LINE
  5
47A
100
AcDbEntity
  8
0
  6
CONTINUOUS
 62
           2
100
AcDbLine
 10
260.246453637687
 20
98.1519079855
 11
260.246453637687
 21
80.6519079855
  0
LINE
  5
47B
100
AcDbEntity
  8
0
  6
CONTINUOUS
 62
           2
100
AcDbLine
 10
260.246453637687
 20
68.6519079855
 11
260.246453637687
 21
80.6519079855
  0
LINE
  5
47C
100
AcDbEntity
  8
0
  6
CONTINUOUS
 62
           2
100
AcDbLine
 10
260.246453637687
 20
68.6519079855
 11
260.246453637687
 21
47.535115157523
  0
LINE
  5
47D
100
AcDbEntity
  8
0
  6
CONTINUOUS
 62
           2
100
AcDbLine
 10
230.415719230376
 20
68.6519079855
 11
262.746453637687
 21
68.6519079855
  0
LINE
  5
47E
100
AcDbEntity
  8
0
  6
CONTINUOUS
 62
           2
100
AcDbLine
 10
224.730825345997
 20
80.6519079855
 11
262.746453637687
 21
80.6519079855
  0
SOLID
  5
47F
100
AcDbEntity
  8
0
 62
           2
100
AcDbTrace
 10
261.398412991577
 20
59.9019079855
 11
259.094494283797
 21
59.9019079855
 12
260.246453637687
 22
68.6519079855
 13
260.246453637687
 23
68.6519079855
  0
SOLID
  5
480
100
AcDbEntity
  8
0
 62
           2
100
AcDbTrace
 10
259.094494283797
 20
89.4019079855
 11
261.398412991577
 21
89.4019079855
 12
260.246453637687
 22
80.6519079855
 13
260.246453637687
 23
80.6519079855
  0
MTEXT
  5
481
100
AcDbEntity
  8
0
 62
           3
100
AcDbMText
 10
257.746453637687
 20
47.535115157523
 30
0.0
 40
6.25
 41
0.0
 71
           7
 72
           1
  1
12
  7
CONVERTER_2
 11
0.0
 21
1.0
 31
0.0
  0
ENDBLK
  5
482
100
AcDbEntity
  8
0
100
AcDbBlockEnd
  0
BLOCK
  5
486
100
AcDbEntity
  8
0
100
AcDbBlockBegin
  2
*D29
 70
           1
 10
0.0
 20
0.0
 30
0.0
  3
*D29
  1

  0
LINE
  5
487
100
AcDbEntity
  8
0
  6
CONTINUOUS
 62
           2
100
AcDbLine
 10
260.246453637687
 20
80.6519079855
 11
260.246453637687
 21
301.6519079855
  0
LINE
  5
488
100
AcDbEntity
  8
0
  6
CONTINUOUS
 62
           2
100
AcDbLine
 10
224.730825345997
 20
80.6519079855
 11
262.746453637687
 21
80.6519079855
  0
LINE
  5
489
100
AcDbEntity
  8
0
  6
CONTINUOUS
 62
           2
100
AcDbLine
 10
225.044349512159
 20
301.6519079855
 11
262.746453637687
 21
301.6519079855
  0
SOLID
  5
48A
100
AcDbEntity
  8
0
 62
           2
100
AcDbTrace
 10
259.094494283797
 20
89.4019079855
 11
261.398412991577
 21
89.4019079855
 12
260.246453637687
 22
80.6519079855
 13
260.246453637687
 23
80.6519079855
  0
SOLID
  5
48B
100
AcDbEntity
  8
0
 62
           2
100
AcDbTrace
 10
261.398412991577
 20
292.9019079855
 11
259.094494283797
 21
292.9019079855
 12
260.246453637687
 22
301.6519079855
 13
260.246453637687
 23
301.6519079855
  0
MTEXT
  5
48C
100
AcDbEntity
  8
0
 62
           3
100
AcDbMText
 10
257.746453637687
 20
188.39832053609
 30
0.0
 40
6.25
 41
0.0
 71
           7
 72
           1
  1
221
  7
CONVERTER_2
 11
0.0
 21
1.0
 31
0.0
  0
ENDBLK
  5
48D
100
AcDbEntity
  8
0
100
AcDbBlockEnd
  0
BLOCK
  5
491
100
AcDbEntity
  8
0
100
AcDbBlockBegin
  2
*D30
 70
           1
 10
0.0
 20
0.0
 30
0.0
  3
*D30
  1

  0
LINE
  5
492
100
AcDbEntity
  8
0
  6
CONTINUOUS
 62
           2
100
AcDbLine
 10
-8.885033208891
 20
53.571191825217
 11
8.614966791109
 21
53.571191825217
  0
LINE
  5
493
100
AcDbEntity
  8
0
  6
CONTINUOUS
 62
           2
100
AcDbLine
 10
8.614966791109
 20
53.571191825217
 11
14.614966791109
 21
53.571191825217
  0
LINE
  5
494
100
AcDbEntity
  8
0
  6
CONTINUOUS
 62
           2
100
AcDbLine
 10
14.614966791109
 20
53.571191825217
 11
32.114966791109
 21
53.571191825217
  0
LINE
  5
495
100
AcDbEntity
  8
0
  6
CONTINUOUS
 62
           2
100
AcDbLine
 10
8.614966791109
 20
68.6519079855
 11
8.614966791109
 21
51.071191825217
  0
LINE
  5
496
100
AcDbEntity
  8
0
  6
CONTINUOUS
 62
           2
100
AcDbLine
 10
14.614966791109
 20
68.6519079855
 11
14.614966791109
 21
51.071191825217
  0
SOLID
  5
497
100
AcDbEntity
  8
0
 62
           2
100
AcDbTrace
 10
-0.135033208891
 20
52.419232471328
 11
-0.135033208891
 21
54.723151179107
 12
8.614966791109
 22
53.571191825217
 13
8.614966791109
 23
53.571191825217
  0
SOLID
  5
498
100
AcDbEntity
  8
0
 62
           2
100
AcDbTrace
 10
23.364966791109
 20
54.723151179107
 11
23.364966791109
 21
52.419232471328
 12
14.614966791109
 22
53.571191825217
 13
14.614966791109
 23
53.571191825217
  0
TEXT
  5
499
100
AcDbEntity
  8
0
 62
           3
100
AcDbText
 10
26.917855810616
 20
56.071191825217
 40
6.25
  1
6
 41
0.9
  7
CONVERTER_2
100
AcDbText
  0
ENDBLK
  5
49A
100
AcDbEntity
  8
0
100
AcDbBlockEnd
  0
BLOCK
  5
49E
100
AcDbEntity
  8
0
100
AcDbBlockBegin
  2
*D31
 70
           1
 10
0.0
 20
0.0
 30
0.0
  3
*D31
  1

  0
LINE
  5
49F
100
AcDbEntity
  8
0
  6
CONTINUOUS
 62
           2
100
AcDbLine
 10
46.114966791112
 20
297.32325248503
 11
69.292700762557
 21
297.32325248503
  0
LINE
  5
4A0
100
AcDbEntity
  8
0
  6
CONTINUOUS
 62
           2
100
AcDbLine
 10
39.114966791112
 20
297.32325248503
 11
46.114966791112
 21
297.32325248503
  0
LINE
  5
4A1
100
AcDbEntity
  8
0
  6
CONTINUOUS
 62
           2
100
AcDbLine
 10
19.114966791112
 20
297.32325248503
 11
39.114966791112
 21
297.32325248503
  0
LINE
  5
4A2
100
AcDbEntity
  8
0
  6
CONTINUOUS
 62
           2
100
AcDbLine
 10
46.114966791112
 20
271.6519079855
 11
46.114966791112
 21
282.926097561163
  0
LINE
  5
4A3
100
AcDbEntity
  8
0
  6
CONTINUOUS
 62
           2
100
AcDbLine
 10
46.114966791112
 20
287.101648775946
 11
46.114966791112
 21
299.82325248503
  0
LINE
  5
4A4
100
AcDbEntity
  8
0
  6
CONTINUOUS
 62
           2
100
AcDbLine
 10
39.114966791112
 20
271.6519079855
 11
39.114966791112
 21
282.793118223113
  0
LINE
  5
4A5
100
AcDbEntity
  8
0
  6
CONTINUOUS
 62
           2
100
AcDbLine
 10
39.114966791112
 20
286.888881835065
 11
39.114966791112
 21
299.82325248503
  0
SOLID
  5
4A6
100
AcDbEntity
  8
0
 62
           2
100
AcDbTrace
 10
56.114966791112
 20
298.639777460904
 11
56.114966791112
 21
296.006727509156
 12
46.114966791112
 22
297.32325248503
 13
46.114966791112
 23
297.32325248503
  0
SOLID
  5
4A7
100
AcDbEntity
  8
0
 62
           2
100
AcDbTrace
 10
29.114966791112
 20
296.006727509156
 11
29.114966791112
 21
298.639777460904
 12
39.114966791112
 22
297.32325248503
 13
39.114966791112
 23
297.32325248503
  0
MTEXT
  5
4A8
100
AcDbEntity
  8
0
 62
           3
100
AcDbMText
 10
60.417700762557
 20
299.82325248503
 30
0.0
 40
6.25
 41
0.0
 71
           7
 72
           1
  1
\C3;ø\C3;7
  7
CONVERTER_2
  0
ENDBLK
  5
4A9
100
AcDbEntity
  8
0
100
AcDbBlockEnd
  0
ENDSEC
  0
SECTION
  2
ENTITIES
  0
DIMENSION
  5
49C
100
AcDbEntity
  8
0
100
AcDbDimension
  2
*D30
 10
8.614966791109
 20
53.571191825217
 11
28.792855810616
 21
59.196191825217
 31
0.0
  1
<>
  3
ME10_DIM_29
100
AcDbAlignedDimension
 13
14.614966791109
 23
68.6519079855
 14
8.614966791109
 24
68.6519079855
100
AcDbRotatedDimension
  0
DIMENSION
  5
48F
100
AcDbEntity
  8
0
100
AcDbDimension
  2
*D29
 10
260.246453637687
 20
80.6519079855
 11
254.621453637687
 21
194.96082053609
 31
0.0
  1
<>
  3
ME10_DIM_28
100
AcDbAlignedDimension
 13
225.044349512159
 23
301.6519079855
 14
224.730825345997
 24
80.6519079855
100
AcDbRotatedDimension
  0
DIMENSION
  5
484
100
AcDbEntity
  8
0
100
AcDbDimension
  2
*D28
 10
260.246453637687
 20
68.6519079855
 11
254.621453637687
 21
51.285115157523
 31
0.0
  1
<>
  3
ME10_DIM_27
100
AcDbAlignedDimension
 13
224.730825345997
 23
80.6519079855
 14
230.415719230376
 24
68.6519079855
100
AcDbRotatedDimension
  0
DIMENSION
  5
477
100
AcDbEntity
  8
0
100
AcDbDimension
  2
*D27
 10
132.60510810226
 20
131.651907985499
 11
126.98010810226
 21
116.98439555361
 31
0.0
  1
<>
  3
ME10_DIM_26
100
AcDbAlignedDimension
 13
57.614966791109
 23
102.6519079855
 14
55.556971487549
 24
131.651907985499
100
AcDbRotatedDimension
  0
DIMENSION
  5
46C
100
AcDbEntity
  8
0
100
AcDbDimension
  2
*D26
 10
132.828266085551
 20
225.6519079855
 11
127.203266085551
 21
181.477052724682
 31
0.0
  1
<>
  3
ME10_DIM_25
100
AcDbAlignedDimension
 13
55.556971487549
 23
131.651907985499
 14
53.8386457712
 24
225.6519079855
100
AcDbRotatedDimension
  0
DIMENSION
  5
460
100
AcDbEntity
  8
0
100
AcDbDimension
  2
*D25
 10
-37.211624619057
 20
232.651908276903
 11
-42.836624619057
 21
247.080628994613
 31
0.0
  1
<>
  3
ME10_DIM_24
100
AcDbAlignedDimension
 13
-4.385032926891
 23
263.651907694102
 14
-4.385032926891
 24
232.651908276903
100
AcDbRotatedDimension
  0
DIMENSION
  5
455
100
AcDbEntity
  8
0
100
AcDbDimension
  2
*D24
 10
-37.251225111505
 20
145.6519079855
 11
-42.876225111505
 21
163.313100472567
 31
0.0
  1
<>
  3
ME10_DIM_23
100
AcDbAlignedDimension
 13
-7.385033208891
 23
181.6519079855
 14
-7.385033208891
 24
145.6519079855
100
AcDbRotatedDimension
  0
DIMENSION
  5
44A
100
AcDbEntity
  8
0
100
AcDbDimension
  2
*D23
 10
42.614966791109
 20
38.554736530692
 11
72.614966791109
 21
44.179736530692
 31
0.0
  1
<>
  3
ME10_DIM_22
100
AcDbAlignedDimension
 13
57.614966791109
 23
102.6519079855
 14
42.614966791109
 24
106.715416611602
100
AcDbRotatedDimension
  0
DIMENSION
  5
43B
100
AcDbEntity
  8
0
100
AcDbDimension
  2
*D22
 10
8.614966791109
 20
38.554736530692
 11
-14.044236226522
 21
43.588596844594
 31
0.0
  1
<>
  3
ME10_DIM_21
100
AcDbAlignedDimension
 13
42.614966791109
 23
106.715416611602
 14
8.614966791109
 24
68.6519079855
100
AcDbRotatedDimension
  0
DIMENSION
  5
42E
100
AcDbEntity
  8
0
100
AcDbDimension
  2
*D21
 10
102.673576626667
 20
204.9019079855
 11
96.736076626667
 21
181.772373415416
 31
0.0
  1
<>
  3
ME10_DIM_20
100
AcDbAlignedDimension
 13
53.8386457712
 23
225.6519079855
 14
47.817483085998
 24
204.9019079855
100
AcDbRotatedDimension
  0
DIMENSION
  5
41F
100
AcDbEntity
  8
0
100
AcDbDimension
  2
*D20
 10
-37.235102634589
 20
225.6519079855
 11
-42.860102634589
 21
203.6519079855
 31
0.0
  1
<>
  3
ME10_DIM_19
100
AcDbAlignedDimension
 13
-7.385033208891
 23
181.6519079855
 14
31.981325085747
 24
225.6519079855
100
AcDbRotatedDimension
  0
DIMENSION
  5
414
100
AcDbEntity
  8
0
100
AcDbDimension
  2
*D19
 10
-37.235102634589
 20
232.651908276903
 11
-42.860102634589
 21
228.959114261004
 31
0.0
  1
<>
  3
ME10_DIM_18
100
AcDbAlignedDimension
 13
31.981325085747
 23
225.6519079855
 14
-4.385032926891
 24
232.651908276903
100
AcDbRotatedDimension
  0
DIMENSION
  5
407
100
AcDbEntity
  8
0
100
AcDbDimension
  2
*D18
 10
230.415719230376
 20
38.663791200365
 11
219.104528990003
 21
44.288791200365
 31
0.0
  1
<>
  3
ME10_DIM_17
100
AcDbAlignedDimension
 13
206.415719230376
 23
68.6519079855
 14
230.415719230376
 24
68.6519079855
100
AcDbRotatedDimension
  0
DIMENSION
  5
3F8
100
AcDbEntity
  8
0
100
AcDbDimension
  2
*D17
 10
-7.385033208891
 20
129.919405790215
 11
-0.028108596558
 21
135.544405790215
 31
0.0
  1
<>
  3
ME10_DIM_16
100
AcDbAlignedDimension
 13
8.614966791109
 23
68.6519079855
 14
-7.385033208891
 24
145.6519079855
100
AcDbRotatedDimension
  0
DIMENSION
  5
3EB
100
AcDbEntity
  8
0
100
AcDbDimension
  2
*D16
 10
-4.385032926891
 20
286.577453586994
 11
1.562163660562
 21
292.202453586994
 31
0.0
  1
<>
  3
ME10_DIM_15
100
AcDbAlignedDimension
 13
8.614966791109
 23
313.6519079855
 14
-4.385032926891
 24
262.221803409832
100
AcDbRotatedDimension
  0
DIMENSION
  5
3DE
100
AcDbEntity
  8
0
100
AcDbDimension
  2
*D15
 10
-52.314694286113
 20
102.6519079855
 11
-57.939694286113
 21
201.744770406454
 31
0.0
 53
90.0
  1
<>
  3
ME10_DIM_14
100
AcDbAlignedDimension
 13
32.114966791113
 23
280.651907985498
 14
10.614966791109
 24
102.6519079855
 50
90.0
100
AcDbRotatedDimension
  0
DIMENSION
  5
3D2
100
AcDbEntity
  8
0
100
AcDbDimension
  2
*D14
 10
132.825472472951
 20
225.6519079855
 11
127.200472472951
 21
267.448965991214
 31
0.0
 53
90.0
  1
<>
  3
ME10_DIM_13
100
AcDbAlignedDimension
 13
14.614966791109
 23
313.6519079855
 14
53.8386457712
 24
225.6519079855
 50
90.0
100
AcDbRotatedDimension
  0
DIMENSION
  5
3C6
100
AcDbEntity
  8
0
100
AcDbDimension
  2
*D13
 10
215.715719230376
 20
53.679410212517
 11
192.559379915674
 21
60.04231387891
 31
0.0
  1
<>
  3
ME10_DIM_12
100
AcDbAlignedDimension
 13
221.115719230376
 23
80.6519079855
 14
215.715719230376
 24
80.6519079855
100
AcDbRotatedDimension
  0
DIMENSION
  5
3B9
100
AcDbEntity
  8
0
100
AcDbDimension
  2
*D12
 10
275.319574514456
 20
313.6519079855
 11
269.694574514456
 21
193.678001738067
 31
0.0
 53
90.0
  1
<>
  3
ME10_DIM_11
100
AcDbAlignedDimension
 13
230.415719230376
 23
68.6519079855
 14
230.415719230376
 24
313.6519079855
 50
90.0
100
AcDbRotatedDimension
  0
DIMENSION
  5
3AE
100
AcDbEntity
  8
0
100
AcDbDimension
  2
*D11
 10
222.415719230376
 20
197.694216320611
 11
218.365692965514
 21
203.319216320611
 31
0.0
  1
<>
  3
ME10_DIM_10
100
AcDbAlignedDimension
 13
214.415719230376
 23
181.6519079855
 14
222.415719230376
 24
181.6519079855
100
AcDbRotatedDimension
  0
DIMENSION
  5
3A1
100
AcDbEntity
  8
0
100
AcDbDimension
  2
*D10
 10
8.614966791109
 20
-61.135901564129
 11
-23.559264811318
 21
-56.21313075094
 31
0.0
  1
<>
  3
ME10_DIM_9
100
AcDbAlignedDimension
 13
57.614966791109
 23
-45.984961394169
 14
8.614966791109
 24
-48.234961394169
100
AcDbRotatedDimension
  0
DIMENSION
  5
395
100
AcDbEntity
  8
0
100
AcDbDimension
  2
*D9
 10
72.613194216086
 20
-30.484961394169
 11
66.675694216086
 21
-12.923222746604
 31
0.0
 53
90.0
  1
<>
  3
ME10_DIM_8
100
AcDbAlignedDimension
 13
57.614966791109
 23
-45.984961394169
 14
57.614966791109
 24
-30.484961394169
 50
90.0
100
AcDbRotatedDimension
  0
DIMENSION
  5
388
100
AcDbEntity
  8
0
100
AcDbDimension
  2
*D8
 10
148.016753929883
 20
68.6519079855
 11
142.391753929883
 21
85.383852246599
 31
0.0
 53
90.0
  1
<>
  3
ME10_DIM_7
100
AcDbAlignedDimension
 13
57.614966791109
 23
102.6519079855
 14
14.614966791109
 24
68.6519079855
 50
90.0
100
AcDbRotatedDimension
  0
DIMENSION
  5
37D
100
AcDbEntity
  8
0
100
AcDbDimension
  2
*D7
 10
38.864966791109
 20
178.218822584596
 11
69.898874364228
 21
184.156322584596
 31
0.0
  1
<>
  3
ME10_DIM_6
100
AcDbAlignedDimension
 13
46.364966791109
 23
200.6519079855
 14
38.864966791109
 24
200.6519079855
100
AcDbRotatedDimension
  0
DIMENSION
  5
370
100
AcDbEntity
  8
0
100
AcDbDimension
  2
*D6
 10
87.578996332142
 20
230.1519079855
 11
81.953996332142
 21
247.774932733216
 31
0.0
 53
90.0
  1
<>
  3
ME10_DIM_5
100
AcDbAlignedDimension
 13
47.114966791109
 23
221.1519079855
 14
47.114966791109
 24
230.1519079855
 50
90.0
100
AcDbRotatedDimension
  0
DIMENSION
  5
363
100
AcDbEntity
  8
0
100
AcDbDimension
  2
*D5
 10
117.755587671676
 20
225.6519079855
 11
112.130587671676
 21
213.1519079855
 31
0.0
 53
90.0
  1
<>
  3
ME10_DIM_4
100
AcDbAlignedDimension
 13
47.901653636966
 23
200.6519079855
 14
53.8386457712
 24
225.6519079855
 50
90.0
100
AcDbRotatedDimension
  0
DIMENSION
  5
355
100
AcDbEntity
  8
0
100
AcDbDimension
  2
*D4
 10
147.813429311803
 20
102.6519079855
 11
141.875929311803
 21
193.206136559599
 31
0.0
 53
90.0
  1
<>
  3
ME10_DIM_3
100
AcDbAlignedDimension
 13
57.614966791109
 23
286.1519079855
 14
57.614966791109
 24
102.6519079855
 50
90.0
100
AcDbRotatedDimension
  0
DIMENSION
  5
349
100
AcDbEntity
  8
0
100
AcDbDimension
  2
*D3
 10
102.695296734633
 20
225.6519079855
 11
97.070296734633
 21
246.847927082642
 31
0.0
 53
90.0
  1
<>
  3
ME10_DIM_2
100
AcDbAlignedDimension
 13
47.035824667597
 23
271.6519079855
 14
53.8386457712
 24
225.6519079855
 50
90.0
100
AcDbRotatedDimension
  0
DIMENSION
  5
33D
100
AcDbEntity
  8
0
100
AcDbDimension
  2
*D2
 10
211.71571923038
 20
274.211799064096
 11
218.404273742834
 21
279.836799064096
 31
0.0
  1
<>
  3
ME10_DIM_1
100
AcDbAlignedDimension
 13
225.11571897846
 23
263.651907694102
 14
211.71571923038
 24
263.651907694102
100
AcDbRotatedDimension
  0
DIMENSION
  5
330
100
AcDbEntity
  8
0
100
AcDbDimension
  2
*D1
 10
117.535590520932
 20
280.651907985498
 11
111.910590520932
 21
250.694706802009
 31
0.0
 53
90.0
  1
<>
  3
ME10_DIM_0
100
AcDbAlignedDimension
 13
53.8386457712
 23
225.6519079855
 14
47.129166829173
 24
280.651907985498
 50
90.0
100
AcDbRotatedDimension
  0
TEXT
  5
324
100
AcDbEntity
  8
1
 62
           3
100
AcDbText
 10
80.719893944449
 20
262.860273113127
 40
6.25
  1
30°
 41
0.72
  7
CONVERTER_7
100
AcDbText
  0
MTEXT
  5
323
100
AcDbEntity
  8
1
 62
           2
100
AcDbMText
 10
69.7718612081
 20
-233.206835711666
 30
0.0
 40
6.25
 41
0.0
 71
           5
 72
           1
  1
03.11.08     Kuhr
  7
CONVERTER_7
  0
TEXT
  5
322
100
AcDbEntity
  8
1
 62
           2
100
AcDbText
 10
49.20895810609
 20
-118.708241676648
 40
7.5
  1
(34 Dorn gezeichnet!)
 41
0.72
  7
CONVERTER_7
100
AcDbText
  0
MTEXT
  5
321
100
AcDbEntity
  8
1
 62
           3
100
AcDbMText
 10
274.82815648424
 20
-313.209311415945
 30
0.0
 40
8.75
 41
0.0
 71
           5
 72
           1
  1
10 05 409
  7
CONVERTER_7
  0
MTEXT
  5
320
100
AcDbEntity
  8
1
 62
           2
100
AcDbMText
 10
132.647968913654
 20
-305.204201751286
 30
0.0
 40
6.25
 41
0.0
 71
           5
 72
           1
  1
Drückerweg: 30°
  7
CONVERTER_7
  0
MTEXT
  5
31F
100
AcDbEntity
  8
1
 62
           3
100
AcDbMText
 10
127.803391872605
 20
-274.114513070287
 30
0.0
 40
8.75
 41
0.0
 71
           5
 72
           1
  1
Rohrrahmen - Panikschloss
  7
CONVERTER_7
  0
MTEXT
  5
31E
100
AcDbEntity
  8
1
 62
           3
100
AcDbMText
 10
84.579373956632
 20
-189.622631795991
 30
0.0
 40
8.75
 41
0.0
 71
           5
 72
           1
  1
1 : 2.5
  7
CONVERTER_7
  0
MTEXT
  5
31D
100
AcDbEntity
  8
1
 62
           2
100
AcDbMText
 10
74.77615688
 20
-221.956835711666
 30
0.0
 40
6.25
 41
0.0
 71
           5
 72
           1
  1
03.11.08     Gützloe
  7
CONVERTER_7
  0
MTEXT
  5
31C
100
AcDbEntity
  8
1
 62
           2
100
AcDbMText
 10
263.653674837533
 20
-16.808768106322
 30
0.0
 40
6.25
 41
0.0
 71
           4
 72
           1
  1
Dorn-  Kasten-\Pmaß    breite\P 34      49\P 39      54\P 44      59
  7
CONVERTER_8
  0
MTEXT
  5
31A
100
AcDbEntity
  8
1
 62
           2
100
AcDbMText
 10
132.647968913654
 20
-285.436614381465
 30
0.0
 40
6.25
 41
0.0
 71
           5
 72
           1
  1
OHNE Zusatzverriegelung oben
  7
CONVERTER_7
  0
MTEXT
  5
319
100
AcDbEntity
  8
1
 62
           3
100
AcDbMText
 10
256.617423136525
 20
-282.681521380349
 30
0.0
 40
8.75
 41
0.0
 71
           5
 72
           1
  1
4667
  7
CONVERTER_7
  0
TEXT
  5
318
100
AcDbEntity
  8
1
 62
           3
100
AcDbText
 10
213.395478214714
 20
26.467115740821
 40
6.25
  1
(22)
 41
0.72
  7
CONVERTER_7
100
AcDbText
  0
MTEXT
  5
317
100
AcDbEntity
  8
1
 62
           2
100
AcDbMText
 10
132.647968913654
 20
-296.50031259166
 30
0.0
 40
6.25
 41
0.0
 71
           5
 72
           1
  1
mit gesteuertem Fallenfeststeller
  7
CONVERTER_7
  0
TEXT
  5
316
100
AcDbEntity
  8
1
 62
           3
100
AcDbText
 10
-52.373
 20
-68.823840514505
 40
6.25
  1
Width
 41
0.9
  7
CONVERTER_2
100
AcDbText
  0
TEXT
  5
315
100
AcDbEntity
  8
1
 62
           3
100
AcDbText
 10
-33.211
 20
29.863776579404
 40
6.25
  1
Backset
 41
0.9
  7
CONVERTER_2
100
AcDbText
  0
MTEXT
  5
314
100
AcDbEntity
  8
1
 62
           3
100
AcDbMText
 10
275.915804627151
 20
-287.144
 30
0.0
 40
6.25
 41
0.0
 71
           7
 72
           1
  1
Schweizer\PRundzyl.
  7
CONVERTER_7
  0
TEXT
  5
313
100
AcDbEntity
  8
1
 62
           2
100
AcDbText
 10
107.952037652903
 20
-318.128269732703
 40
6.25
  1
(mit U-Stulp)
 41
0.72
  7
CONVERTER_7
100
AcDbText
  0
LEADER
  5
311
100
AcDbEntity
  8
1
  6
CONTINUOUS
 62
           2
100
AcDbLeader
  3
Standard
 71
           0
 73
           3
 74
           0
 75
           0
 40
0.0
 76
           3
 10
45.386966791107
 20
228.378438846656
 30
0.0
 10
67.207738178823
 20
261.069486640043
 30
0.0
 10
91.188878171787
 20
261.069486640043
 30
0.0
 77
           2
  0
ARC
  5
30E
100
AcDbEntity
  8
1
  6
CONTINUOUS
 62
           3
100
AcDbCircle
 10
10.614966791109
 20
-48.234961394169
 40
2.0
100
AcDbArc
 50
180.0
 51
-90.0
  0
ARC
  5
30D
100
AcDbEntity
  8
1
  6
CONTINUOUS
 62
           3
100
AcDbCircle
 10
10.614966791109
 20
-28.234961394169
 40
2.0
100
AcDbArc
 50
90.0
 51
180.0
  0
ARC
  5
30C
100
AcDbEntity
  8
1
  6
PHANTOM
 62
           4
100
AcDbCircle
 10
226.215719230379
 20
263.193650416009
 40
0.800000000001
100
AcDbArc
 50
155.380022671432
 51
-179.999999999869
  0
ARC
  5
30B
100
AcDbEntity
  8
1
  6
PHANTOM
 62
           4
100
AcDbCircle
 10
224.757461660884
 20
264.651907985502
 40
0.799999999996
100
AcDbArc
 50
-90.0
 51
-65.380022671447
  0
ARC
  5
30A
100
AcDbEntity
  8
1
  6
PHANTOM
 62
           4
100
AcDbCircle
 10
224.048976799872
 20
264.651907985501
 40
0.799999999995
100
AcDbArc
 50
-114.619977328903
 51
-90.0
  0
ARC
  5
309
100
AcDbEntity
  8
1
  6
PHANTOM
 62
           4
100
AcDbCircle
 10
222.548306709787
 20
264.003157379686
 40
0.799999999998
100
AcDbArc
 50
-40.000000000052
 51
-18.621663132291
  0
ARC
  5
308
100
AcDbEntity
  8
1
  6
PHANTOM
 62
           4
100
AcDbCircle
 10
214.283131750964
 20
264.003157379686
 40
0.799999999997
100
AcDbArc
 50
-161.378336867881
 51
-140.000000000068
  0
ARC
  5
307
100
AcDbEntity
  8
1
  6
PHANTOM
 62
           4
100
AcDbCircle
 10
212.782461660881
 20
264.651907985502
 40
0.799999999996
100
AcDbArc
 50
-90.0
 51
-65.380022671377
  0
ARC
  5
306
100
AcDbEntity
  8
1
  6
PHANTOM
 62
           4
100
AcDbCircle
 10
212.073976799869
 20
264.651907985504
 40
0.799999999998
100
AcDbArc
 50
-114.619977328211
 51
-89.999999999735
  0
ARC
  5
305
100
AcDbEntity
  8
1
  6
PHANTOM
 62
           4
100
AcDbCircle
 10
210.615719230382
 20
263.193650416006
 40
0.799999999996
100
AcDbArc
 50
0.0
 51
24.619977328728
  0
ARC
  5
304
100
AcDbEntity
  8
1
  6
PHANTOM
 62
           4
100
AcDbCircle
 10
210.615719230378
 20
233.110165554999
 40
0.800000000003
100
AcDbArc
 50
-24.619977328926
 51
-0.00000000013
  0
ARC
  5
303
100
AcDbEntity
  8
1
  6
PHANTOM
 62
           4
100
AcDbCircle
 10
212.073976799875
 20
231.651907985503
 40
0.800000000001
100
AcDbArc
 50
90.0
 51
114.61997732892
  0
ARC
  5
302
100
AcDbEntity
  8
1
  6
PHANTOM
 62
           4
100
AcDbCircle
 10
212.782461660883
 20
231.651907985501
 40
0.800000000002
100
AcDbArc
 50
65.380022671485
 51
90.000000000128
  0
ARC
  5
301
100
AcDbEntity
  8
1
  6
PHANTOM
 62
           4
100
AcDbCircle
 10
214.283131750964
 20
232.300658591323
 40
0.799999999996
100
AcDbArc
 50
139.999999999956
 51
161.378336867908
  0
ARC
  5
300
100
AcDbEntity
  8
1
  6
PHANTOM
 62
           4
100
AcDbCircle
 10
222.548306709783
 20
232.300658591319
 40
0.800000000002
100
AcDbArc
 50
18.621663132126
 51
39.999999999908
  0
ARC
  5
2FF
100
AcDbEntity
  8
1
  6
PHANTOM
 62
           4
100
AcDbCircle
 10
224.048976799872
 20
231.651907985503
 40
0.800000000001
100
AcDbArc
 50
90.0
 51
114.619977328568
  0
ARC
  5
2FE
100
AcDbEntity
  8
1
  6
PHANTOM
 62
           4
100
AcDbCircle
 10
224.757461660876
 20
231.651907985503
 40
0.800000000001
100
AcDbArc
 50
65.380022671313
 51
89.999999999477
  0
ARC
  5
2FD
100
AcDbEntity
  8
1
  6
PHANTOM
 62
           4
100
AcDbCircle
 10
226.215719230375
 20
233.110165555001
 40
0.799999999997
100
AcDbArc
 50
-179.999999999871
 51
-155.380022671373
  0
ARC
  5
2FC
100
AcDbEntity
  8
1
  6
CONTINUOUS
 62
           3
100
AcDbCircle
 10
39.843685499009
 20
283.251907985502
 40
0.299999999998
100
AcDbArc
 50
-43.173551107305
 51
89.999999999305
  0
ARC
  5
2FB
100
AcDbEntity
  8
1
  6
CONTINUOUS
 62
           3
100
AcDbCircle
 10
45.38624808322
 20
283.251907985504
 40
0.299999999998
100
AcDbArc
 50
90.0
 51
-136.826448892934
  0
ARC
  5
2FA
100
AcDbEntity
  8
1
  6
CONTINUOUS
 62
           3
100
AcDbCircle
 10
22.914966791108
 20
263.4019079855
 40
1.0
100
AcDbArc
 50
0.0
 51
90.0
  0
ARC
  5
2F9
100
AcDbEntity
  8
1
  6
CONTINUOUS
 62
           3
100
AcDbCircle
 10
22.914966791108
 20
232.9019079855
 40
1.0
100
AcDbArc
 50
-90.0
 51
0.0
  0
ARC
  5
2F8
100
AcDbEntity
  8
1
  6
CONTINUOUS
 62
           3
100
AcDbCircle
 10
38.914966791105
 20
284.7519079855
 40
0.8
100
AcDbArc
 50
151.044975628558
 51
179.999999999487
  0
ARC
  5
2F7
100
AcDbEntity
  8
1
  6
CONTINUOUS
 62
           3
100
AcDbCircle
 10
38.914966791105
 20
284.7519079855
 40
0.800000000007
100
AcDbArc
 50
90.0
 51
151.044975628558
  0
ARC
  5
2F6
100
AcDbEntity
  8
1
  6
CONTINUOUS
 62
           3
100
AcDbCircle
 10
46.314966791106
 20
284.351907985502
 40
0.799999999998
100
AcDbArc
 50
-90.000000000131
 51
-0.000000000138
  0
ARC
  5
2F5
100
AcDbEntity
  8
1
  6
PHANTOM
 62
           4
100
AcDbCircle
 10
38.914966791104
 20
-44.684961394172
 40
0.799999999997
100
AcDbArc
 50
145.771133671774
 51
179.999999999868
  0
ARC
  5
2F4
100
AcDbEntity
  8
1
  6
PHANTOM
 62
           4
100
AcDbCircle
 10
46.314966791104
 20
-45.084961394171
 40
0.800000000001
100
AcDbArc
 50
-89.99999999987
 51
-0.000000000261
  0
ARC
  5
2F3
100
AcDbEntity
  8
1
  6
PHANTOM
 62
           4
100
AcDbCircle
 10
40.114966791105
 20
-42.449222895317
 40
0.5
100
AcDbArc
 50
0.000000000835
 51
59.322575527512
  0
ARC
  5
2F2
100
AcDbEntity
  8
1
  6
PHANTOM
 62
           4
100
AcDbCircle
 10
45.114966791107
 20
-42.449222895308
 40
0.499999999997
100
AcDbArc
 50
120.677424472629
 51
-179.999999999791
  0
ARC
  5
2F1
100
AcDbEntity
  8
1
  6
PHANTOM
 62
           4
100
AcDbCircle
 10
38.914966791104
 20
-44.684961394172
 40
0.800000000001
100
AcDbArc
 50
89.999999999869
 51
145.771133671774
  0
ARC
  5
2F0
100
AcDbEntity
  8
1
  6
CONTINUOUS
 62
           3
100
AcDbCircle
 10
37.414966791112
 20
255.501907985501
 40
0.5
100
AcDbArc
 50
-90.0
 51
0.000000000208
  0
ARC
  5
2EF
100
AcDbEntity
  8
1
  6
CONTINUOUS
 62
           3
100
AcDbCircle
 10
35.814966791109
 20
255.501907985501
 40
0.499999999998
100
AcDbArc
 50
-179.999999999794
 51
-89.999999999582
  0
ARC
  5
2EE
100
AcDbEntity
  8
1
  6
CONTINUOUS
 62
           3
100
AcDbCircle
 10
35.814966791109
 20
269.701907985498
 40
0.500000000002
100
AcDbArc
 50
89.999999999791
 51
179.999999999798
  0
ARC
  5
2ED
100
AcDbEntity
  8
1
  6
CONTINUOUS
 62
           3
100
AcDbCircle
 10
37.41496679111
 20
269.7019079855
 40
0.500000000004
100
AcDbArc
 50
0.0
 51
89.999999999583
  0
CIRCLE
  5
2EC
100
AcDbEntity
  8
1
  6
CONTINUOUS
 62
           3
100
AcDbCircle
 10
23.614966791109
 20
125.6519079855
 40
1.5
  0
CIRCLE
  5
2EB
100
AcDbEntity
  8
1
  6
CONTINUOUS
 62
           3
100
AcDbCircle
 10
218.415719230379
 20
220.1019079855
 40
3.0
  0
CIRCLE
  5
2EA
100
AcDbEntity
  8
1
  6
CONTINUOUS
 62
           3
100
AcDbCircle
 10
42.614966791112
 20
271.6519079855
 40
3.5
  0
CIRCLE
  5
2E9
100
AcDbEntity
  8
1
  6
CONTINUOUS
 62
           3
100
AcDbCircle
 10
29.614966791109
 20
206.1519079855
 40
3.5
  0
CIRCLE
  5
2E8
100
AcDbEntity
  8
1
  6
CONTINUOUS
 62
           3
100
AcDbCircle
 10
52.614966791109
 20
108.6519079855
 40
3.5
  0
CIRCLE
  5
2E7
100
AcDbEntity
  8
1
  6
CONTINUOUS
 62
           3
100
AcDbCircle
 10
42.614966791109
 20
225.6519079855
 40
8.5
  0
CIRCLE
  5
2E6
100
AcDbEntity
  8
1
  6
CONTINUOUS
 62
           3
100
AcDbCircle
 10
218.415719230376
 20
80.6519079855
 40
4.75
  0
CIRCLE
  5
2E5
100
AcDbEntity
  8
1
  6
CONTINUOUS
 62
           3
100
AcDbCircle
 10
218.415719230376
 20
113.6519079855
 40
2.7
  0
CIRCLE
  5
2E4
100
AcDbEntity
  8
1
  6
CONTINUOUS
 62
           3
100
AcDbCircle
 10
218.415719230376
 20
113.6519079855
 40
4.75
  0
CIRCLE
  5
2E3
100
AcDbEntity
  8
1
  6
CONTINUOUS
 62
           3
100
AcDbCircle
 10
218.415719230376
 20
301.6519079855
 40
4.75
  0
CIRCLE
  5
2E2
100
AcDbEntity
  8
1
  6
CONTINUOUS
 62
           3
100
AcDbCircle
 10
218.415719230376
 20
301.6519079855
 40
2.7
  0
CIRCLE
  5
2E1
100
AcDbEntity
  8
1
  6
CONTINUOUS
 62
           3
100
AcDbCircle
 10
33.114966791109
 20
239.1519079855
 40
2.8
  0
CIRCLE
  5
2E0
100
AcDbEntity
  8
1
  6
CONTINUOUS
 62
           3
100
AcDbCircle
 10
51.614966791109
 20
201.1519079855
 40
2.8
  0
CIRCLE
  5
2DF
100
AcDbEntity
  8
1
  6
CONTINUOUS
 62
           3
100
AcDbCircle
 10
19.614966791107
 20
272.651907985502
 40
2.8
  0
ARC
  5
2DE
100
AcDbEntity
  8
1
  6
CONTINUOUS
 62
           3
100
AcDbCircle
 10
69.917983713555
 20
264.038660648336
 40
5.0
100
AcDbArc
 50
-11.536959032816
 51
41.536959032805
  0
ARC
  5
2DD
100
AcDbEntity
  8
1
  6
CONTINUOUS
 62
           3
100
AcDbCircle
 10
42.614966791109
 20
112.251907985499
 40
5.150000000001
100
AcDbArc
 50
180.0
 51
0.0
  0
ARC
  5
2DC
100
AcDbEntity
  8
1
  6
CONTINUOUS
 62
           3
100
AcDbCircle
 10
42.614966791105
 20
131.651907985499
 40
11.15
100
AcDbArc
 50
-62.491292687193
 51
-117.50870731279
  0
ARC
  5
2DB
100
AcDbEntity
  8
0
  6
CONTINUOUS
 62
           3
100
AcDbCircle
 10
-0.585032838531
 20
150.6519078915
 40
2.499999952999
100
AcDbArc
 50
90.0
 51
180.0
  0
ARC
  5
2DA
100
AcDbEntity
  8
0
  6
CONTINUOUS
 62
           3
100
AcDbCircle
 10
2.414967142668
 20
150.6519078915
 40
2.499999952999
100
AcDbArc
 50
26.58409241664
 51
90.0
  0
ARC
  5
2D9
100
AcDbEntity
  8
1
  6
PHANTOM
 62
           4
100
AcDbCircle
 10
225.215719230377
 20
263.651907985502
 40
0.3
100
AcDbArc
 50
-24.619977328309
 51
114.619977328489
  0
ARC
  5
2D8
100
AcDbEntity
  8
1
  6
PHANTOM
 62
           4
100
AcDbCircle
 10
223.590719230379
 20
263.651907985502
 40
0.300000000002
100
AcDbArc
 50
65.380022672311
 51
161.378336868273
  0
ARC
  5
2D7
100
AcDbEntity
  8
1
  6
PHANTOM
 62
           4
100
AcDbCircle
 10
213.240719230378
 20
263.651907985502
 40
0.299999999999
100
AcDbArc
 50
18.621663132522
 51
114.61997732894
  0
ARC
  5
2D6
100
AcDbEntity
  8
1
  6
PHANTOM
 62
           4
100
AcDbCircle
 10
211.615719230378
 20
263.651907985504
 40
0.3
100
AcDbArc
 50
65.38002267091
 51
-155.380022670744
  0
ARC
  5
2D5
100
AcDbEntity
  8
1
  6
PHANTOM
 62
           4
100
AcDbCircle
 10
211.61571923038
 20
232.651907985499
 40
0.300000000001
100
AcDbArc
 50
155.380022671368
 51
-65.38002267187
  0
ARC
  5
2D4
100
AcDbEntity
  8
1
  6
PHANTOM
 62
           4
100
AcDbCircle
 10
213.240719230376
 20
232.651907985503
 40
0.299999999998
100
AcDbArc
 50
-114.619977328463
 51
-18.621663131853
  0
ARC
  5
2D3
100
AcDbEntity
  8
1
  6
PHANTOM
 62
           4
100
AcDbCircle
 10
223.590719230377
 20
232.651907985504
 40
0.3
100
AcDbArc
 50
-161.378336867597
 51
-65.380022671369
  0
ARC
  5
2D2
100
AcDbEntity
  8
1
  6
PHANTOM
 62
           4
100
AcDbCircle
 10
225.215719230377
 20
232.651907985501
 40
0.299999999999
100
AcDbArc
 50
-114.619977329543
 51
24.6199773297
  0
ARC
  5
2D1
100
AcDbEntity
  8
1
  6
CONTINUOUS
 62
           3
100
AcDbCircle
 10
42.614966791112
 20
280.651907985498
 40
3.5
100
AcDbArc
 50
136.826448892623
 51
180.0
  0
ARC
  5
2D0
100
AcDbEntity
  8
1
  6
CONTINUOUS
 62
           3
100
AcDbCircle
 10
42.614966791112
 20
280.651907985498
 40
3.499999999996
100
AcDbArc
 50
180.0
 51
43.173551107376
  0
ARC
  5
2CF
100
AcDbEntity
  8
1
  6
CONTINUOUS
 62
           3
100
AcDbCircle
 10
218.415719230376
 20
80.6519079855
 40
2.7
100
AcDbArc
 50
0.0
 51
180.0
  0
ARC
  5
2CE
100
AcDbEntity
  8
1
  6
CONTINUOUS
 62
           3
100
AcDbCircle
 10
218.415719230376
 20
80.6519079855
 40
2.7
100
AcDbArc
 50
180.0
 51
0.0
  0
ARC
  5
2CD
100
AcDbEntity
  8
1
  6
CONTINUOUS
 62
           3
100
AcDbCircle
 10
42.614966791109
 20
200.6519079855
 40
3.75
100
AcDbArc
 50
180.0
 51
0.0
  0
ARC
  5
2CC
100
AcDbEntity
  8
1
  6
CONTINUOUS
 62
           3
100
AcDbCircle
 10
42.614966791109
 20
204.9019079855
 40
3.75
100
AcDbArc
 50
0.0
 51
180.0
  0
ARC
  5
2CB
100
AcDbEntity
  8
1
  6
CONTINUOUS
 62
           3
100
AcDbCircle
 10
40.114966791113
 20
286.051907985503
 40
0.499999999993
100
AcDbArc
 50
-90.000000000626
 51
0.000000000423
  0
ARC
  5
2CA
100
AcDbEntity
  8
1
  6
CONTINUOUS
 62
           3
100
AcDbCircle
 10
46.314966789693
 20
284.751907984092
 40
0.800000001416
100
AcDbArc
 50
28.955024346276
 51
89.999999898907
  0
ARC
  5
2C9
100
AcDbEntity
  8
1
  6
CONTINUOUS
 62
           3
100
AcDbCircle
 10
45.114966791107
 20
286.051907985505
 40
0.5
100
AcDbArc
 50
180.0
 51
-90.000000000418
  0
ARC
  5
2C8
100
AcDbEntity
  8
1
  6
CONTINUOUS
 62
           3
100
AcDbCircle
 10
46.314966789693
 20
284.751907984092
 40
0.800000001413
100
AcDbArc
 50
0.000000020315
 51
28.955024346276
  0
ARC
  5
2C7
100
AcDbEntity
  8
1
  6
CONTINUOUS
 62
           3
100
AcDbCircle
 10
38.914966791105
 20
284.351907985502
 40
0.799999999997
100
AcDbArc
 50
-179.999999944628
 51
-89.999999999871
  0
ARC
  5
2C6
100
AcDbEntity
  8
1
  6
CONTINUOUS
 62
           3
100
AcDbCircle
 10
33.114966791111
 20
278.701907985501
 40
0.999999999998
100
AcDbArc
 50
-179.999999999902
 51
0.0
  0
ARC
  5
2C5
100
AcDbEntity
  8
1
  6
DASHED
 62
           2
100
AcDbCircle
 10
12.914966791106
 20
278.701907985501
 40
1.000000000003
100
AcDbArc
 50
-89.999999999791
 51
-0.000000000199
  0
ARC
  5
2C4
100
AcDbEntity
  8
1
  6
CONTINUOUS
 62
           3
100
AcDbCircle
 10
52.614966791109
 20
120.0019079855
 40
2.299999999999
100
AcDbArc
 50
0.0
 51
180.0
  0
ARC
  5
2C3
100
AcDbEntity
  8
1
  6
CONTINUOUS
 62
           3
100
AcDbCircle
 10
52.614966791109
 20
118.5019079855
 40
2.299999999999
100
AcDbArc
 50
180.0
 51
0.0
  0
ARC
  5
2C2
100
AcDbEntity
  8
1
  6
CONTINUOUS
 62
           3
100
AcDbCircle
 10
32.614966791109
 20
118.5019079855
 40
2.299999999999
100
AcDbArc
 50
180.0
 51
0.0
  0
ARC
  5
2C1
100
AcDbEntity
  8
1
  6
CONTINUOUS
 62
           3
100
AcDbCircle
 10
32.614966791109
 20
120.0019079855
 40
2.299999999999
100
AcDbArc
 50
0.0
 51
180.0
  0
ARC
  5
2C0
100
AcDbEntity
  8
1
  6
PHANTOM
 62
           4
100
AcDbCircle
 10
40.114966791114
 20
-43.384961394173
 40
0.499999999995
100
AcDbArc
 50
-90.000000000833
 51
0.000000000417
  0
ARC
  5
2BF
100
AcDbEntity
  8
1
  6
PHANTOM
 62
           4
100
AcDbCircle
 10
38.914966791104
 20
-45.08496139417
 40
0.799999999997
100
AcDbArc
 50
-179.999999944633
 51
-89.999999999869
  0
ARC
  5
2BE
100
AcDbEntity
  8
1
  6
PHANTOM
 62
           4
100
AcDbCircle
 10
46.314966789693
 20
-44.684961395585
 40
0.800000001418
100
AcDbArc
 50
34.228866381431
 51
89.999999898906
  0
ARC
  5
2BD
100
AcDbEntity
  8
1
  6
PHANTOM
 62
           4
100
AcDbCircle
 10
45.114966791109
 20
-43.384961394171
 40
0.499999999998
100
AcDbArc
 50
180.0
 51
-90.000000000418
  0
ARC
  5
2BC
100
AcDbEntity
  8
1
  6
PHANTOM
 62
           4
100
AcDbCircle
 10
42.614966791103
 20
-38.234961394171
 40
4.4
100
AcDbArc
 50
-0.000000000024
 51
-120.677424472516
  0
ARC
  5
2BB
100
AcDbEntity
  8
1
  6
PHANTOM
 62
           4
100
AcDbCircle
 10
42.614966791103
 20
-38.234961394171
 40
4.4
100
AcDbArc
 50
-59.322575527378
 51
-0.000000000024
  0
ARC
  5
2BA
100
AcDbEntity
  8
1
  6
PHANTOM
 62
           4
100
AcDbCircle
 10
46.314966789693
 20
-44.684961395585
 40
0.800000001414
100
AcDbArc
 50
0.000000020453
 51
34.228866381431
  0
ARC
  5
2B9
100
AcDbEntity
  8
1
  6
DASHED
 62
           2
100
AcDbCircle
 10
12.91496679111
 20
104.601907985501
 40
0.999999999998
100
AcDbArc
 50
0.0
 51
90.0
  0
ARC
  5
2B8
100
AcDbEntity
  8
1
  6
CONTINUOUS
 62
           3
100
AcDbCircle
 10
218.415719230379
 20
222.7019079855
 40
3.250000000002
100
AcDbArc
 50
90.000000000065
 51
180.0
  0
ARC
  5
2B7
100
AcDbEntity
  8
1
  6
CONTINUOUS
 62
           3
100
AcDbCircle
 10
218.415719230379
 20
220.1019079855
 40
3.249999999996
100
AcDbArc
 50
-90.000000000032
 51
0.000000000064
  0
ARC
  5
2B6
100
AcDbEntity
  8
1
  6
CONTINUOUS
 62
           3
100
AcDbCircle
 10
218.415719230375
 20
216.901907985503
 40
3.250000000004
100
AcDbArc
 50
-89.999999999966
 51
0.0
  0
ARC
  5
2B5
100
AcDbEntity
  8
1
  6
CONTINUOUS
 62
           3
100
AcDbCircle
 10
218.415719230375
 20
216.901907985503
 40
3.250000000002
100
AcDbArc
 50
-179.999999999968
 51
-89.999999999966
  0
ARC
  5
2B4
100
AcDbEntity
  8
1
  6
CONTINUOUS
 62
           3
100
AcDbCircle
 10
218.415719230379
 20
220.1019079855
 40
3.250000000004
100
AcDbArc
 50
179.999999999968
 51
-90.000000000032
  0
ARC
  5
2B3
100
AcDbEntity
  8
1
  6
CONTINUOUS
 62
           3
100
AcDbCircle
 10
218.415719230379
 20
222.7019079855
 40
3.249999999996
100
AcDbArc
 50
0.000000000034
 51
90.000000000065
  0
ARC
  5
2B2
100
AcDbEntity
  8
1
  6
PHANTOM
 62
           4
100
AcDbCircle
 10
211.50415713006
 20
228.038456669266
 40
12.0
100
AcDbArc
 50
39.999999999987
 51
50.269387012012
  0
ARC
  5
2B1
100
AcDbEntity
  8
1
  6
PHANTOM
 62
           4
100
AcDbCircle
 10
218.662959852782
 20
236.651907985502
 40
0.799999999999
100
AcDbArc
 50
50.269387012256
 51
90.000000000128
  0
ARC
  5
2B0
100
AcDbEntity
  8
1
  6
PHANTOM
 62
           4
100
AcDbCircle
 10
218.168478607969
 20
236.651907985503
 40
0.799999999999
100
AcDbArc
 50
89.999999999872
 51
129.730612988124
  0
ARC
  5
2AF
100
AcDbEntity
  8
1
  6
PHANTOM
 62
           4
100
AcDbCircle
 10
225.327281330686
 20
228.038456669266
 40
12.0
100
AcDbArc
 50
129.730612987987
 51
140.000000000017
  0
ARC
  5
2AE
100
AcDbEntity
  8
1
  6
PHANTOM
 62
           4
100
AcDbCircle
 10
211.504157130062
 20
268.26535930174
 40
11.999999999995
100
AcDbArc
 50
-50.269387012015
 51
-39.999999999991
  0
ARC
  5
2AD
100
AcDbEntity
  8
1
  6
PHANTOM
 62
           4
100
AcDbCircle
 10
218.662959852781
 20
259.651907985505
 40
0.800000000003
100
AcDbArc
 50
-89.999999999872
 51
-50.269387012174
  0
ARC
  5
2AC
100
AcDbEntity
  8
1
  6
PHANTOM
 62
           4
100
AcDbCircle
 10
218.16847860797
 20
259.651907985502
 40
0.799999999999
100
AcDbArc
 50
-129.730612988391
 51
-90.000000000128
  0
ARC
  5
2AB
100
AcDbEntity
  8
1
  6
PHANTOM
 62
           4
100
AcDbCircle
 10
225.327281330688
 20
268.26535930174
 40
11.999999999999
100
AcDbArc
 50
-140.000000000031
 51
-129.730612988005
  0
LINE
  5
2AA
100
AcDbEntity
  8
1
  6
CONTINUOUS
 62
           3
100
AcDbLine
 10
10.614966791109
 20
-26.234961394169
 11
14.614966791109
 21
-26.234961394169
  0
LINE
  5
2A9
100
AcDbEntity
  8
1
  6
CONTINUOUS
 62
           3
100
AcDbLine
 10
14.614966791109
 20
-50.234961394169
 11
10.477658338395
 21
-50.234961394169
  0
LINE
  5
2A8
100
AcDbEntity
  8
1
  6
CONTINUOUS
 62
           3
100
AcDbLine
 10
14.614966791109
 20
-48.234961394169
 11
14.614966791109
 21
-50.234961394169
  0
LINE
  5
2A7
100
AcDbEntity
  8
1
  6
CONTINUOUS
 62
           3
100
AcDbLine
 10
10.614966791109
 20
-48.234961394169
 11
14.614966791109
 21
-48.234961394169
  0
LINE
  5
2A6
100
AcDbEntity
  8
1
  6
CONTINUOUS
 62
           3
100
AcDbLine
 10
10.614966791109
 20
-28.234961394169
 11
10.614966791109
 21
-48.234961394169
  0
LINE
  5
2A5
100
AcDbEntity
  8
1
  6
CONTINUOUS
 62
           3
100
AcDbLine
 10
14.614966791109
 20
-28.234961394169
 11
10.614966791109
 21
-28.234961394169
  0
LINE
  5
2A4
100
AcDbEntity
  8
1
  6
CONTINUOUS
 62
           3
100
AcDbLine
 10
14.614966791109
 20
-26.234961394169
 11
14.614966791109
 21
-28.234961394169
  0
LINE
  5
2A3
100
AcDbEntity
  8
1
  6
CONTINUOUS
 62
           3
100
AcDbLine
 10
228.415719230376
 20
68.6519079855
 11
230.415719230376
 21
68.6519079855
  0
LINE
  5
2A2
100
AcDbEntity
  8
1
  6
DASHED
 62
           2
100
AcDbLine
 10
228.415719230376
 20
190.969944890739
 11
228.415719230376
 21
68.6519079855
  0
LINE
  5
2A1
100
AcDbEntity
  8
1
  6
DASHED
 62
           2
100
AcDbLine
 10
228.415719230376
 20
270.80375087967
 11
228.415719230376
 21
203.93475087967
  0
LINE
  5
2A0
100
AcDbEntity
  8
1
  6
CONTINUOUS
 62
           3
100
AcDbLine
 10
228.415719230376
 20
313.6519079855
 11
208.415719230376
 21
313.6519079855
  0
LINE
  5
29F
100
AcDbEntity
  8
1
  6
DASHED
 62
           2
100
AcDbLine
 10
228.415719230376
 20
313.6519079855
 11
228.415719230376
 21
278.6429079855
  0
LINE
  5
29E
100
AcDbEntity
  8
1
  6
CONTINUOUS
 62
           3
100
AcDbLine
 10
230.415719230376
 20
68.6519079855
 11
230.415719230376
 21
192.4939079855
  0
LINE
  5
29D
100
AcDbEntity
  8
1
  6
CONTINUOUS
 62
           3
100
AcDbLine
 10
230.415719230376
 20
192.4939079855
 11
230.415719230376
 21
193.501337164876
  0
LINE
  5
29C
100
AcDbEntity
  8
1
  6
CONTINUOUS
 62
           3
100
AcDbLine
 10
208.415719230376
 20
68.6519079855
 11
228.415719230376
 21
68.6519079855
  0
LINE
  5
29B
100
AcDbEntity
  8
1
  6
DASHED
 62
           2
100
AcDbLine
 10
208.415719230376
 20
68.6519079855
 11
208.415719230376
 21
192.4939079855
  0
LINE
  5
29A
100
AcDbEntity
  8
1
  6
DASHED
 62
           2
100
AcDbLine
 10
208.415719230376
 20
269.449972610295
 11
208.415719230376
 21
203.984972610295
  0
LINE
  5
299
100
AcDbEntity
  8
1
  6
CONTINUOUS
 62
           3
100
AcDbLine
 10
208.415719230376
 20
313.6519079855
 11
206.415719230376
 21
313.6519079855
  0
LINE
  5
298
100
AcDbEntity
  8
1
  6
DASHED
 62
           2
100
AcDbLine
 10
208.415719230376
 20
313.6519079855
 11
208.415719230376
 21
278.1579079855
  0
LINE
  5
297
100
AcDbEntity
  8
1
  6
CONTINUOUS
 62
           3
100
AcDbLine
 10
10.614966791109
 20
68.6519079855
 11
14.614966791109
 21
68.6519079855
  0
LINE
  5
296
100
AcDbEntity
  8
1
  6
DASHED
 62
           2
100
AcDbLine
 10
10.614966791109
 20
102.6519079855
 11
10.614966791109
 21
68.6519079855
  0
LINE
  5
295
100
AcDbEntity
  8
1
  6
DASHED
 62
           2
100
AcDbLine
 10
14.614966791109
 20
231.9019079855
 11
10.614966791109
 21
231.9019079855
  0
LINE
  5
294
100
AcDbEntity
  8
1
  6
CONTINUOUS
 62
           3
100
AcDbLine
 10
14.614966791109
 20
241.751908185254
 11
15.614966309192
 21
241.751908185254
  0
LINE
  5
293
100
AcDbEntity
  8
1
  6
CONTINUOUS
 62
           3
100
AcDbLine
 10
14.614966791109
 20
254.551907861901
 11
15.614966309192
 21
254.551907861901
  0
LINE
  5
292
100
AcDbEntity
  8
1
  6
CONTINUOUS
 62
           3
100
AcDbLine
 10
14.614966791109
 20
264.4019079855
 11
22.914966791108
 21
264.4019079855
  0
LINE
  5
291
100
AcDbEntity
  8
1
  6
CONTINUOUS
 62
           3
100
AcDbLine
 10
10.614966791109
 20
313.6519079855
 11
8.614966791109
 21
313.6519079855
  0
LINE
  5
290
100
AcDbEntity
  8
1
  6
DASHED
 62
           2
100
AcDbLine
 10
10.614966791109
 20
288.997341592431
 11
10.614966791109
 21
313.6519079855
  0
LINE
  5
28F
100
AcDbEntity
  8
1
  6
DASHED
 62
           2
100
AcDbLine
 10
10.614966791109
 20
131.474462834993
 11
10.614966791109
 21
284.305462834993
  0
LINE
  5
28E
100
AcDbEntity
  8
1
  6
DASHED
 62
           2
100
AcDbLine
 10
10.614966791109
 20
102.6519079855
 11
10.614966791109
 21
127.7239079855
  0
LINE
  5
28D
100
AcDbEntity
  8
1
  6
DOT_CENTER
 62
           2
100
AcDbLine
 10
23.614966791109
 20
128.1519079855
 11
23.614966791109
 21
123.1519079855
  0
LINE
  5
28C
100
AcDbEntity
  8
1
  6
DOT_CENTER
 62
           2
100
AcDbLine
 10
26.114966791109
 20
125.6519079855
 11
21.114966791109
 21
125.6519079855
  0
LINE
  5
28B
100
AcDbEntity
  8
1
  6
CONTINUOUS
 62
           3
100
AcDbLine
 10
69.808862572518
 20
263.874229840322
 11
76.808862572518
 21
263.874229840322
  0
LINE
  5
28A
100
AcDbEntity
  8
1
  6
CONTINUOUS
 62
           3
100
AcDbLine
 10
75.871040399011
 20
267.374229840322
 11
69.808862572518
 21
263.874229840322
  0
LINE
  5
289
100
AcDbEntity
  8
0
  6
DASHED
 62
           2
100
AcDbLine
 10
10.614966791109
 20
124.651909888058
 11
12.364966791109
 21
124.651909888062
  0
LINE
  5
288
100
AcDbEntity
  8
0
  6
DASHED
 62
           2
100
AcDbLine
 10
12.364966791109
 20
124.651909888062
 11
12.36496679111
 21
128.151907985504
  0
LINE
  5
287
100
AcDbEntity
  8
1
  6
DASHED
 62
           2
100
AcDbLine
 10
12.36496679111
 20
128.151907985504
 11
13.914966791112
 21
128.287515413964
  0
LINE
  5
286
100
AcDbEntity
  8
1
  6
DASHED
 62
           2
100
AcDbLine
 10
13.914966791112
 20
131.924598239367
 11
13.914966791112
 21
133.151907985501
  0
LINE
  5
285
100
AcDbEntity
  8
1
  6
DASHED
 62
           2
100
AcDbLine
 10
13.914966791112
 20
133.151907985501
 11
10.614966791109
 21
133.151907985499
  0
LINE
  5
284
100
AcDbEntity
  8
1
  6
DOT_CENTER
 62
           2
100
AcDbLine
 10
36.348186712275
 20
112.251907985499
 11
37.464966791107
 21
112.251907985499
  0
LINE
  5
283
100
AcDbEntity
  8
1
  6
DOT_CENTER
 62
           2
100
AcDbLine
 10
47.764966791108
 20
112.251907985499
 11
48.993336291438
 21
112.251907985499
  0
LINE
  5
282
100
AcDbEntity
  8
1
  6
DOT_CENTER
 62
           2
100
AcDbLine
 10
37.464966791107
 20
112.251907985499
 11
47.764966791108
 21
112.251907985499
  0
LINE
  5
281
100
AcDbEntity
  8
1
  6
CONTINUOUS
 62
           3
100
AcDbLine
 10
47.764966791106
 20
121.762519733438
 11
47.764966791108
 21
112.251907985499
  0
LINE
  5
280
100
AcDbEntity
  8
1
  6
CONTINUOUS
 62
           3
100
AcDbLine
 10
37.464966791107
 20
112.251907985499
 11
37.464966791107
 21
121.762519733438
  0
LINE
  5
27F
100
AcDbEntity
  8
1
  6
DOT_CENTER
 62
           2
100
AcDbLine
 10
31.464966791107
 20
131.651907985499
 11
29.750575880114
 21
131.651907985499
  0
LINE
  5
27E
100
AcDbEntity
  8
1
  6
DOT_CENTER
 62
           2
100
AcDbLine
 10
55.556971487549
 20
131.651907985499
 11
31.464966791107
 21
131.651907985499
  0
LINE
  5
27D
100
AcDbEntity
  8
0
  6
CONTINUOUS
 62
           3
100
AcDbLine
 10
-3.085032791532
 20
150.6519078915
 11
-3.085032791532
 21
145.6519079855
  0
LINE
  5
27C
100
AcDbEntity
  8
0
  6
CONTINUOUS
 62
           3
100
AcDbLine
 10
2.414967142668
 20
153.151907844499
 11
-0.585032838531
 21
153.151907844499
  0
LINE
  5
27B
100
AcDbEntity
  8
1
  6
CONTINUOUS
 62
           3
100
AcDbLine
 10
8.614966791109
 20
150.691766713914
 11
4.650663395828
 21
151.77068491513
  0
LINE
  5
27A
100
AcDbEntity
  8
1
  6
CONTINUOUS
 62
           3
100
AcDbLine
 10
8.614966791109
 20
-43.934961072054
 11
8.614966791109
 21
-44.934961053254
  0
LINE
  5
279
100
AcDbEntity
  8
1
  6
CONTINUOUS
 62
           3
100
AcDbLine
 10
19.114966521631
 20
241.826907985497
 11
23.914966791108
 21
241.826907985497
  0
LINE
  5
278
100
AcDbEntity
  8
1
  6
CONTINUOUS
 62
           3
100
AcDbLine
 10
19.114966521631
 20
254.476907985497
 11
23.914966791108
 21
254.476907985497
  0
LINE
  5
277
100
AcDbEntity
  8
1
  6
CONTINUOUS
 62
           3
100
AcDbLine
 10
15.614966309192
 20
251.151907985496
 11
15.614966309192
 21
241.826907985497
  0
LINE
  5
276
100
AcDbEntity
  8
1
  6
CONTINUOUS
 62
           3
100
AcDbLine
 10
15.614966309192
 20
241.751908185254
 11
15.614966521631
 21
241.751908185254
  0
LINE
  5
275
100
AcDbEntity
  8
1
  6
CONTINUOUS
 62
           3
100
AcDbLine
 10
15.614966309192
 20
254.551907861901
 11
15.614966521631
 21
254.551907861901
  0
LINE
  5
274
100
AcDbEntity
  8
1
  6
CONTINUOUS
 62
           3
100
AcDbLine
 10
15.614966309192
 20
254.476907985497
 11
15.614966309192
 21
251.151907985496
  0
LINE
  5
273
100
AcDbEntity
  8
1
  6
CONTINUOUS
 62
           3
100
AcDbLine
 10
15.614966309192
 20
241.826907985497
 11
15.614966309192
 21
241.751908185254
  0
LINE
  5
272
100
AcDbEntity
  8
1
  6
CONTINUOUS
 62
           3
100
AcDbLine
 10
15.614966309192
 20
254.551907861901
 11
15.614966309192
 21
254.476907985497
  0
LINE
  5
271
100
AcDbEntity
  8
1
  6
PHANTOM
 62
           4
100
AcDbLine
 10
225.415719230379
 20
248.151907985503
 11
225.415719230374
 21
263.193650416008
  0
LINE
  5
270
100
AcDbEntity
  8
1
  6
PHANTOM
 62
           4
100
AcDbLine
 10
212.073976799873
 20
263.851907985501
 11
212.782461660881
 21
263.851907985507
  0
LINE
  5
26F
100
AcDbEntity
  8
1
  6
PHANTOM
 62
           4
100
AcDbLine
 10
211.415719230377
 20
263.193650416006
 11
211.415719230374
 21
248.151907985504
  0
LINE
  5
26E
100
AcDbEntity
  8
1
  6
PHANTOM
 62
           4
100
AcDbLine
 10
224.048976799872
 20
263.851907985505
 11
224.757461660884
 21
263.851907985507
  0
LINE
  5
26D
100
AcDbEntity
  8
1
  6
PHANTOM
 62
           4
100
AcDbLine
 10
224.757461660884
 20
232.451907985505
 11
224.048976799872
 21
232.451907985504
  0
LINE
  5
26C
100
AcDbEntity
  8
1
  6
PHANTOM
 62
           4
100
AcDbLine
 10
211.415719230374
 20
248.151907985504
 11
211.415719230377
 21
233.110165554997
  0
LINE
  5
26B
100
AcDbEntity
  8
1
  6
PHANTOM
 62
           4
100
AcDbLine
 10
212.782461660881
 20
232.451907985505
 11
212.073976799875
 21
232.451907985504
  0
LINE
  5
26A
100
AcDbEntity
  8
1
  6
PHANTOM
 62
           4
100
AcDbLine
 10
223.161142264282
 20
232.81488867907
 11
220.696690447489
 21
235.751907985502
  0
LINE
  5
269
100
AcDbEntity
  8
1
  6
PHANTOM
 62
           4
100
AcDbLine
 10
213.670296196473
 20
232.81488867907
 11
216.134748013253
 21
235.751907985504
  0
LINE
  5
268
100
AcDbEntity
  8
1
  6
PHANTOM
 62
           4
100
AcDbLine
 10
225.415719230377
 20
233.110165554999
 11
225.415719230379
 21
248.151907985503
  0
LINE
  5
267
100
AcDbEntity
  8
0
  6
CONTINUOUS
 62
           3
100
AcDbLine
 10
218.030767083157
 20
238.151908173502
 11
214.61571917586
 21
234.082012561166
  0
LINE
  5
266
100
AcDbEntity
  8
0
  6
CONTINUOUS
 62
           3
100
AcDbLine
 10
214.61571917586
 20
262.221803409888
 11
214.61571917586
 21
234.082012561166
  0
LINE
  5
265
100
AcDbEntity
  8
0
  6
CONTINUOUS
 62
           3
100
AcDbLine
 10
214.61571917586
 20
262.221803409888
 11
218.030767083157
 21
258.151907797502
  0
LINE
  5
264
100
AcDbEntity
  8
0
  6
CONTINUOUS
 62
           3
100
AcDbLine
 10
218.030767083157
 20
258.151907797502
 11
219.500671112573
 21
258.151907797502
  0
LINE
  5
263
100
AcDbEntity
  8
0
  6
CONTINUOUS
 62
           3
100
AcDbLine
 10
219.500671112573
 20
258.151907797502
 11
224.11571899726
 21
263.651907694102
  0
LINE
  5
262
100
AcDbEntity
  8
0
  6
CONTINUOUS
 62
           3
100
AcDbLine
 10
225.11571897846
 20
263.651907694102
 11
224.11571899726
 21
263.651907694102
  0
LINE
  5
261
100
AcDbEntity
  8
0
  6
CONTINUOUS
 62
           3
100
AcDbLine
 10
225.11571897846
 20
232.651908276902
 11
225.11571897846
 21
263.651907694102
  0
LINE
  5
260
100
AcDbEntity
  8
0
  6
CONTINUOUS
 62
           3
100
AcDbLine
 10
225.11571897846
 20
232.651908276902
 11
224.11571899726
 21
232.651908276902
  0
LINE
  5
25F
100
AcDbEntity
  8
0
  6
CONTINUOUS
 62
           3
100
AcDbLine
 10
224.11571899726
 20
232.651908276902
 11
219.500671112573
 21
238.151908173502
  0
LINE
  5
25E
100
AcDbEntity
  8
0
  6
CONTINUOUS
 62
           3
100
AcDbLine
 10
219.500671112573
 20
238.151908173502
 11
218.030767083157
 21
238.151908173502
  0
LINE
  5
25D
100
AcDbEntity
  8
0
  6
CONTINUOUS
 62
           3
100
AcDbLine
 10
213.41571919842
 20
263.651907694102
 11
212.71571921158
 21
263.651907694102
  0
LINE
  5
25C
100
AcDbEntity
  8
0
  6
CONTINUOUS
 62
           3
100
AcDbLine
 10
213.41571919842
 20
232.651908276902
 11
214.61571917586
 21
234.082012561166
  0
LINE
  5
25B
100
AcDbEntity
  8
0
  6
CONTINUOUS
 62
           3
100
AcDbLine
 10
212.71571921158
 20
232.651908276902
 11
213.41571919842
 21
232.651908276902
  0
LINE
  5
25A
100
AcDbEntity
  8
0
  6
CONTINUOUS
 62
           3
100
AcDbLine
 10
212.71571921158
 20
232.651908276902
 11
212.71571921158
 21
263.651907694102
  0
LINE
  5
259
100
AcDbEntity
  8
0
  6
CONTINUOUS
 62
           3
100
AcDbLine
 10
214.61571917586
 20
262.221803409888
 11
213.41571919842
 21
263.651907694102
  0
LINE
  5
258
100
AcDbEntity
  8
0
  6
CONTINUOUS
 62
           3
100
AcDbLine
 10
212.71571921158
 20
263.651907694102
 11
211.71571923038
 21
263.651907694102
  0
LINE
  5
257
100
AcDbEntity
  8
0
  6
CONTINUOUS
 62
           3
100
AcDbLine
 10
212.71571921158
 20
232.651908276902
 11
211.71571923038
 21
232.651908276902
  0
LINE
  5
256
100
AcDbEntity
  8
0
  6
CONTINUOUS
 62
           3
100
AcDbLine
 10
211.71571923038
 20
232.651908276902
 11
211.71571923038
 21
245.653908833114
  0
LINE
  5
255
100
AcDbEntity
  8
0
  6
CONTINUOUS
 62
           3
100
AcDbLine
 10
211.71571923038
 20
250.649907137939
 11
211.71571923038
 21
263.651907694102
  0
LINE
  5
254
100
AcDbEntity
  8
0
  6
CONTINUOUS
 62
           3
100
AcDbLine
 10
211.71571923038
 20
245.653908833114
 11
211.71571923038
 21
250.649907137939
  0
LINE
  5
253
100
AcDbEntity
  8
0
  6
CONTINUOUS
 62
           3
100
AcDbLine
 10
211.71571923038
 20
250.649907137939
 11
211.743778789653
 21
250.410819050834
  0
LINE
  5
252
100
AcDbEntity
  8
0
  6
CONTINUOUS
 62
           3
100
AcDbLine
 10
211.743778789653
 20
250.410819050834
 11
211.768850889131
 21
250.143445944661
  0
LINE
  5
251
100
AcDbEntity
  8
0
  6
CONTINUOUS
 62
           3
100
AcDbLine
 10
211.768850889131
 20
250.143445944661
 11
211.790621587872
 21
249.851135739406
  0
LINE
  5
250
100
AcDbEntity
  8
0
  6
CONTINUOUS
 62
           3
100
AcDbLine
 10
211.790621587872
 20
249.851135739406
 11
211.80881828343
 21
249.537548605552
  0
LINE
  5
24F
100
AcDbEntity
  8
0
  6
CONTINUOUS
 62
           3
100
AcDbLine
 10
211.80881828343
 20
249.537548605552
 11
211.823213125309
 21
249.206611133273
  0
LINE
  5
24E
100
AcDbEntity
  8
0
  6
CONTINUOUS
 62
           3
100
AcDbLine
 10
211.823213125309
 20
249.206611133273
 11
211.833625868164
 21
248.862467165643
  0
LINE
  5
24D
100
AcDbEntity
  8
0
  6
CONTINUOUS
 62
           3
100
AcDbLine
 10
211.823213125309
 20
247.09720483778
 11
211.80881828343
 21
246.766267365502
  0
LINE
  5
24C
100
AcDbEntity
  8
0
  6
CONTINUOUS
 62
           3
100
AcDbLine
 10
211.80881828343
 20
246.766267365502
 11
211.790621587872
 21
246.452680231647
  0
LINE
  5
24B
100
AcDbEntity
  8
0
  6
CONTINUOUS
 62
           3
100
AcDbLine
 10
211.790621587872
 20
246.452680231647
 11
211.768850889131
 21
246.160370026393
  0
LINE
  5
24A
100
AcDbEntity
  8
0
  6
CONTINUOUS
 62
           3
100
AcDbLine
 10
211.768850889131
 20
246.160370026393
 11
211.743778789653
 21
245.892996920219
  0
LINE
  5
249
100
AcDbEntity
  8
0
  6
CONTINUOUS
 62
           3
100
AcDbLine
 10
211.743778789653
 20
245.892996920219
 11
211.71571923038
 21
245.653908833114
  0
LINE
  5
248
100
AcDbEntity
  8
0
  6
CONTINUOUS
 62
           3
100
AcDbLine
 10
211.833625868164
 20
247.44134880541
 11
211.823213125309
 21
247.09720483778
  0
LINE
  5
247
100
AcDbEntity
  8
0
  6
CONTINUOUS
 62
           3
100
AcDbLine
 10
211.839926128545
 20
247.794390060023
 11
211.833625868164
 21
247.44134880541
  0
LINE
  5
246
100
AcDbEntity
  8
0
  6
CONTINUOUS
 62
           3
100
AcDbLine
 10
211.842035017506
 20
248.151907985502
 11
211.839926128545
 21
247.794390060023
  0
LINE
  5
245
100
AcDbEntity
  8
0
  6
CONTINUOUS
 62
           3
100
AcDbLine
 10
211.839926128545
 20
248.50942591098
 11
211.842035017506
 21
248.151907985502
  0
LINE
  5
244
100
AcDbEntity
  8
0
  6
CONTINUOUS
 62
           3
100
AcDbLine
 10
211.833625868164
 20
248.862467165643
 11
211.839926128545
 21
248.50942591098
  0
LINE
  5
243
100
AcDbEntity
  8
0
  6
CONTINUOUS
 62
           3
100
AcDbLine
 10
6.314966871949
 20
232.651908276903
 11
8.614966791109
 21
232.651908276903
  0
LINE
  5
242
100
AcDbEntity
  8
0
  6
CONTINUOUS
 62
           3
100
AcDbLine
 10
6.314966871949
 20
263.651907694102
 11
8.614966791109
 21
263.651907694102
  0
LINE
  5
241
100
AcDbEntity
  8
0
  6
CONTINUOUS
 62
           3
100
AcDbLine
 10
-4.385032926891
 20
232.651908276903
 11
-4.385032926891
 21
234.082012561112
  0
LINE
  5
240
100
AcDbEntity
  8
0
  6
CONTINUOUS
 62
           3
100
AcDbLine
 10
-4.385032926891
 20
232.651908276903
 11
5.295919272057
 21
232.651908276903
  0
LINE
  5
23F
100
AcDbEntity
  8
0
  6
CONTINUOUS
 62
           3
100
AcDbLine
 10
-4.385032926891
 20
262.221803409832
 11
-4.385032926891
 21
263.651907694102
  0
LINE
  5
23E
100
AcDbEntity
  8
0
  6
CONTINUOUS
 62
           3
100
AcDbLine
 10
-4.385032926891
 20
263.651907694102
 11
5.295919272057
 21
263.651907694102
  0
LINE
  5
23D
100
AcDbEntity
  8
0
  6
CONTINUOUS
 62
           3
100
AcDbLine
 10
0.592965713322
 20
238.151908173502
 11
-0.904936488067
 21
238.151908173502
  0
LINE
  5
23C
100
AcDbEntity
  8
0
  6
CONTINUOUS
 62
           3
100
AcDbLine
 10
5.295919272057
 20
232.651908276903
 11
0.592965713322
 21
238.151908173502
  0
LINE
  5
23B
100
AcDbEntity
  8
0
  6
CONTINUOUS
 62
           3
100
AcDbLine
 10
6.314966871949
 20
232.651908276903
 11
5.295919272057
 21
232.651908276903
  0
LINE
  5
23A
100
AcDbEntity
  8
0
  6
CONTINUOUS
 62
           3
100
AcDbLine
 10
6.314966871949
 20
263.651907694102
 11
5.295919272057
 21
263.651907694102
  0
LINE
  5
239
100
AcDbEntity
  8
0
  6
CONTINUOUS
 62
           3
100
AcDbLine
 10
0.592965713322
 20
258.151907797503
 11
5.295919272057
 21
263.651907694102
  0
LINE
  5
238
100
AcDbEntity
  8
0
  6
CONTINUOUS
 62
           3
100
AcDbLine
 10
-0.904936488067
 20
258.151907797503
 11
0.592965713322
 21
258.151907797503
  0
LINE
  5
237
100
AcDbEntity
  8
0
  6
CONTINUOUS
 62
           3
100
AcDbLine
 10
-4.385032926891
 20
262.221803409832
 11
-0.904936488067
 21
258.151907797503
  0
LINE
  5
236
100
AcDbEntity
  8
0
  6
CONTINUOUS
 62
           3
100
AcDbLine
 10
-4.385032926891
 20
262.221803409832
 11
-4.385032926891
 21
234.082012561112
  0
LINE
  5
235
100
AcDbEntity
  8
0
  6
CONTINUOUS
 62
           3
100
AcDbLine
 10
-0.904936488067
 20
238.151908173502
 11
-4.385032926891
 21
234.082012561112
  0
LINE
  5
234
100
AcDbEntity
  8
0
  6
CONTINUOUS
 62
           3
100
AcDbLine
 10
6.314966871949
 20
232.651908276903
 11
6.314966871949
 21
263.651907694102
  0
LINE
  5
233
100
AcDbEntity
  8
1
  6
CONTINUOUS
 62
           3
100
AcDbLine
 10
12.364966791109
 20
-43.034961088974
 11
12.364966791109
 21
-43.834961394169
  0
LINE
  5
232
100
AcDbEntity
  8
1
  6
CONTINUOUS
 62
           3
100
AcDbLine
 10
13.91496679111
 20
-43.034961088974
 11
13.914966791108
 21
-34.034961258174
  0
LINE
  5
231
100
AcDbEntity
  8
1
  6
CONTINUOUS
 62
           3
100
AcDbLine
 10
12.364966791109
 20
-43.034961088974
 11
13.91496679111
 21
-43.034961088974
  0
LINE
  5
230
100
AcDbEntity
  8
1
  6
CONTINUOUS
 62
           3
100
AcDbLine
 10
12.364966791109
 20
-34.034961258174
 11
12.364966791109
 21
-43.034961088974
  0
LINE
  5
22F
100
AcDbEntity
  8
1
  6
CONTINUOUS
 62
           3
100
AcDbLine
 10
13.914966791108
 20
-34.034961258174
 11
13.914966791108
 21
-32.234961394171
  0
LINE
  5
22E
100
AcDbEntity
  8
1
  6
CONTINUOUS
 62
           3
100
AcDbLine
 10
12.364966791109
 20
-34.034961258174
 11
13.914966791108
 21
-34.034961258174
  0
LINE
  5
22D
100
AcDbEntity
  8
0
  6
CONTINUOUS
 62
           3
100
AcDbLine
 10
5.114966894509
 20
-31.534961305174
 11
8.614966791109
 21
-31.534961305174
  0
LINE
  5
22C
100
AcDbEntity
  8
0
  6
CONTINUOUS
 62
           3
100
AcDbLine
 10
-4.385032926891
 20
-32.534961286374
 11
5.114966894509
 21
-31.534961305174
  0
LINE
  5
22B
100
AcDbEntity
  8
0
  6
CONTINUOUS
 62
           3
100
AcDbLine
 10
-4.385032926891
 20
-34.434961250654
 11
-0.853984108075
 21
-37.900009157011
  0
LINE
  5
22A
100
AcDbEntity
  8
0
  6
CONTINUOUS
 62
           3
100
AcDbLine
 10
-4.385032926891
 20
-34.434961250654
 11
-4.385032926891
 21
-34.234961394169
  0
LINE
  5
229
100
AcDbEntity
  8
0
  6
CONTINUOUS
 62
           3
100
AcDbLine
 10
-4.385032926891
 20
-33.284961272274
 11
-4.385032926891
 21
-32.534961286374
  0
LINE
  5
228
100
AcDbEntity
  8
0
  6
CONTINUOUS
 62
           3
100
AcDbLine
 10
6.314966871949
 20
-44.934961053254
 11
5.295919272064
 21
-43.934961072054
  0
LINE
  5
227
100
AcDbEntity
  8
0
  6
CONTINUOUS
 62
           3
100
AcDbLine
 10
0.440108573346
 20
-39.169913190187
 11
0.592965713332
 21
-39.319913187367
  0
LINE
  5
226
100
AcDbEntity
  8
0
  6
CONTINUOUS
 62
           3
100
AcDbLine
 10
-0.853984108075
 20
-37.900009157011
 11
0.440108573346
 21
-39.169913190187
  0
LINE
  5
225
100
AcDbEntity
  8
0
  6
CONTINUOUS
 62
           3
100
AcDbLine
 10
5.295919272064
 20
-43.934961072054
 11
8.614966791109
 21
-43.934961072054
  0
LINE
  5
224
100
AcDbEntity
  8
0
  6
CONTINUOUS
 62
           3
100
AcDbLine
 10
6.314966871949
 20
-44.934961053254
 11
8.614966791109
 21
-44.934961053254
  0
LINE
  5
223
100
AcDbEntity
  8
0
  6
CONTINUOUS
 62
           3
100
AcDbLine
 10
0.592965713332
 20
-39.319913187367
 11
8.614966791109
 21
-39.319913187367
  0
LINE
  5
222
100
AcDbEntity
  8
0
  6
CONTINUOUS
 62
           3
100
AcDbLine
 10
-0.904936488067
 20
-37.850009157951
 11
8.614966791109
 21
-37.850009157951
  0
LINE
  5
221
100
AcDbEntity
  8
0
  6
CONTINUOUS
 62
           3
100
AcDbLine
 10
-4.385032926891
 20
-33.234961273214
 11
8.614966791109
 21
-33.234961273214
  0
LINE
  5
220
100
AcDbEntity
  8
1
  6
CONTINUOUS
 62
           3
100
AcDbLine
 10
8.614966791109
 20
-31.534961305174
 11
8.614966791109
 21
-33.234961273214
  0
LINE
  5
21F
100
AcDbEntity
  8
1
  6
CONTINUOUS
 62
           3
100
AcDbLine
 10
8.614966791109
 20
-33.234961273214
 11
8.614966791109
 21
-37.850009157951
  0
LINE
  5
21E
100
AcDbEntity
  8
1
  6
CONTINUOUS
 62
           3
100
AcDbLine
 10
8.614966791109
 20
-37.850009157951
 11
8.614966791109
 21
-39.319913187367
  0
LINE
  5
21D
100
AcDbEntity
  8
1
  6
CONTINUOUS
 62
           3
100
AcDbLine
 10
8.614966791109
 20
-39.319913187367
 11
8.614966791109
 21
-43.934961072054
  0
LINE
  5
21C
100
AcDbEntity
  8
0
  6
CONTINUOUS
 62
           3
100
AcDbLine
 10
-4.385032926891
 20
-34.234961394169
 11
-4.385032926891
 21
-33.284961272274
  0
LINE
  5
21B
100
AcDbEntity
  8
0
  6
CONTINUOUS
 62
           3
100
AcDbLine
 10
3.563538647915
 20
-42.234961394169
 11
5.143062132081
 21
-43.784961074874
  0
LINE
  5
21A
100
AcDbEntity
  8
0
  6
CONTINUOUS
 62
           3
100
AcDbLine
 10
0.592965713332
 20
-39.319913187367
 11
3.563538647915
 21
-42.234961394169
  0
LINE
  5
219
100
AcDbEntity
  8
0
  6
CONTINUOUS
 62
           3
100
AcDbLine
 10
5.295919272064
 20
-43.934961072054
 11
5.143062132081
 21
-43.784961074874
  0
LINE
  5
218
100
AcDbEntity
  8
1
  6
CONTINUOUS
 62
           3
100
AcDbLine
 10
15.614966309192
 20
254.476907985497
 11
19.114966521631
 21
254.476907985497
  0
LINE
  5
217
100
AcDbEntity
  8
1
  6
CONTINUOUS
 62
           3
100
AcDbLine
 10
15.614966309192
 20
241.826907985497
 11
19.114966521631
 21
241.826907985497
  0
LINE
  5
216
100
AcDbEntity
  8
1
  6
CONTINUOUS
 62
           3
100
AcDbLine
 10
14.614966791109
 20
68.6519079855
 11
14.614966791109
 21
128.330909888058
  0
LINE
  5
215
100
AcDbEntity
  8
1
  6
DOT_CENTER
 62
           2
100
AcDbLine
 10
38.184824667597
 20
271.6519079855
 11
47.035824667597
 21
271.6519079855
  0
LINE
  5
214
100
AcDbEntity
  8
1
  6
DOT_CENTER
 62
           2
100
AcDbLine
 10
38.231166829173
 20
280.651907985498
 11
47.129166829173
 21
280.651907985498
  0
LINE
  5
213
100
AcDbEntity
  8
1
  6
CONTINUOUS
 62
           3
100
AcDbLine
 10
39.843685499012
 20
283.551907985503
 11
38.914966791107
 21
283.551907985505
  0
LINE
  5
212
100
AcDbEntity
  8
1
  6
CONTINUOUS
 62
           3
100
AcDbLine
 10
57.614966791109
 20
172.300946284201
 11
57.614966791109
 21
102.6519079855
  0
LINE
  5
211
100
AcDbEntity
  8
1
  6
DOT_CENTER
 62
           2
100
AcDbLine
 10
218.415719230376
 20
293.264914775693
 11
218.415719230376
 21
310.242681618342
  0
LINE
  5
210
100
AcDbEntity
  8
1
  6
DOT_CENTER
 62
           2
100
AcDbLine
 10
218.415719230376
 20
106.492535716638
 11
218.415719230376
 21
121.357177201367
  0
LINE
  5
20F
100
AcDbEntity
  8
1
  6
DOT_CENTER
 62
           2
100
AcDbLine
 10
218.415719230376
 20
72.960830113651
 11
218.415719230376
 21
88.625875370635
  0
LINE
  5
20E
100
AcDbEntity
  8
1
  6
CONTINUOUS
 62
           3
100
AcDbLine
 10
219.065719230376
 20
172.2019079855
 11
219.065719230376
 21
162.1019079855
  0
LINE
  5
20D
100
AcDbEntity
  8
1
  6
CONTINUOUS
 62
           3
100
AcDbLine
 10
220.565719230376
 20
172.2019079855
 11
219.065719230376
 21
172.2019079855
  0
LINE
  5
20C
100
AcDbEntity
  8
1
  6
CONTINUOUS
 62
           3
100
AcDbLine
 10
220.565719230376
 20
162.1019079855
 11
220.565719230376
 21
172.2019079855
  0
LINE
  5
20B
100
AcDbEntity
  8
1
  6
CONTINUOUS
 62
           3
100
AcDbLine
 10
219.065719230376
 20
162.1019079855
 11
220.565719230376
 21
162.1019079855
  0
LINE
  5
20A
100
AcDbEntity
  8
1
  6
CONTINUOUS
 62
           3
100
AcDbLine
 10
28.554306619329
 20
207.21256815728
 11
30.675626962889
 21
205.09124781372
  0
LINE
  5
209
100
AcDbEntity
  8
1
  6
CONTINUOUS
 62
           3
100
AcDbLine
 10
30.675626962889
 20
207.21256815728
 11
28.554306619329
 21
205.09124781372
  0
LINE
  5
208
100
AcDbEntity
  8
1
  6
CONTINUOUS
 62
           3
100
AcDbLine
 10
51.554306619329
 20
109.71256815728
 11
53.675626962889
 21
107.59124781372
  0
LINE
  5
207
100
AcDbEntity
  8
1
  6
CONTINUOUS
 62
           3
100
AcDbLine
 10
53.675626962889
 20
109.71256815728
 11
51.554306619329
 21
107.59124781372
  0
LINE
  5
206
100
AcDbEntity
  8
1
  6
CONTINUOUS
 62
           3
100
AcDbLine
 10
23.914966791108
 20
241.826907985497
 11
23.914966791108
 21
232.9019079855
  0
LINE
  5
205
100
AcDbEntity
  8
1
  6
DASHED
 62
           2
100
AcDbLine
 10
10.614966791109
 20
241.751908185254
 11
14.614966791109
 21
241.751908185254
  0
LINE
  5
204
100
AcDbEntity
  8
1
  6
CONTINUOUS
 62
           3
100
AcDbLine
 10
23.914966791108
 20
254.476907985497
 11
23.914966791108
 21
241.826907985497
  0
LINE
  5
203
100
AcDbEntity
  8
1
  6
DASHED
 62
           2
100
AcDbLine
 10
10.614966791109
 20
254.551907861901
 11
14.614966791109
 21
254.551907861901
  0
LINE
  5
202
100
AcDbEntity
  8
1
  6
CONTINUOUS
 62
           3
100
AcDbLine
 10
22.914966791108
 20
231.9019079855
 11
14.614966791109
 21
231.9019079855
  0
LINE
  5
201
100
AcDbEntity
  8
1
  6
CONTINUOUS
 62
           3
100
AcDbLine
 10
23.914966791108
 20
263.4019079855
 11
23.914966791108
 21
254.476907985497
  0
LINE
  5
200
100
AcDbEntity
  8
1
  6
DASHED
 62
           2
100
AcDbLine
 10
10.614966791109
 20
264.4019079855
 11
14.614966791109
 21
264.4019079855
  0
LINE
  5
1FF
100
AcDbEntity
  8
1
  6
CONTINUOUS
 62
           3
100
AcDbLine
 10
8.614966791109
 20
-44.934961053254
 11
8.614966791109
 21
-48.234961394169
  0
LINE
  5
1FE
100
AcDbEntity
  8
1
  6
CONTINUOUS
 62
           3
100
AcDbLine
 10
-7.385033208891
 20
-42.234961394169
 11
3.563538647915
 21
-42.234961394169
  0
LINE
  5
1FD
100
AcDbEntity
  8
1
  6
CONTINUOUS
 62
           3
100
AcDbLine
 10
8.614966791109
 20
-28.234961394169
 11
8.614966791109
 21
-31.534961305174
  0
LINE
  5
1FC
100
AcDbEntity
  8
1
  6
CONTINUOUS
 62
           3
100
AcDbLine
 10
342.303446582341
 20
17.712098449252
 11
295.991751410629
 21
17.712098449252
  0
LINE
  5
1FB
100
AcDbEntity
  8
1
  6
CONTINUOUS
 62
           3
100
AcDbLine
 10
260.889459952123
 20
17.712098449252
 11
260.889459952123
 21
-9.787901550748
  0
LINE
  5
1FA
100
AcDbEntity
  8
1
  6
CONTINUOUS
 62
           3
100
AcDbLine
 10
260.889459952123
 20
-9.787901550748
 11
342.303446582341
 21
-9.787901550748
  0
LINE
  5
1F9
100
AcDbEntity
  8
1
  6
CONTINUOUS
 62
           3
100
AcDbLine
 10
260.889459952123
 20
-9.787901550748
 11
260.889459952123
 21
-23.537901550748
  0
LINE
  5
1F8
100
AcDbEntity
  8
1
  6
CONTINUOUS
 62
           2
100
AcDbLine
 10
260.889459952123
 20
-23.537901550748
 11
342.303446582341
 21
-23.537901550748
  0
LINE
  5
1F7
100
AcDbEntity
  8
1
  6
CONTINUOUS
 62
           3
100
AcDbLine
 10
260.889459952123
 20
-23.537901550748
 11
260.889459952123
 21
-37.287901550748
  0
LINE
  5
1F6
100
AcDbEntity
  8
1
  6
CONTINUOUS
 62
           2
100
AcDbLine
 10
260.889459952123
 20
-37.287901550748
 11
342.303446582341
 21
-37.287901550748
  0
LINE
  5
1F5
100
AcDbEntity
  8
1
  6
CONTINUOUS
 62
           3
100
AcDbLine
 10
260.889459952123
 20
-37.287901550748
 11
260.889459952123
 21
-51.037901550748
  0
LINE
  5
1F4
100
AcDbEntity
  8
1
  6
CONTINUOUS
 62
           2
100
AcDbLine
 10
260.889459952123
 20
-51.037901550748
 11
295.991751410629
 21
-51.037901550748
  0
LINE
  5
1F3
100
AcDbEntity
  8
1
  6
CONTINUOUS
 62
           3
100
AcDbLine
 10
295.991751410629
 20
17.712098449252
 11
295.991751410629
 21
-51.037901550748
  0
LINE
  5
1F2
100
AcDbEntity
  8
1
  6
CONTINUOUS
 62
           3
100
AcDbLine
 10
295.991751410629
 20
17.712098449252
 11
260.889459952123
 21
17.712098449252
  0
LINE
  5
1F1
100
AcDbEntity
  8
1
  6
CONTINUOUS
 62
           3
100
AcDbLine
 10
206.415719230376
 20
68.6519079855
 11
208.415719230376
 21
68.6519079855
  0
LINE
  5
1F0
100
AcDbEntity
  8
1
  6
CONTINUOUS
 62
           3
100
AcDbLine
 10
230.415719230376
 20
313.6519079855
 11
228.415719230376
 21
313.6519079855
  0
LINE
  5
1EF
100
AcDbEntity
  8
1
  6
CONTINUOUS
 62
           3
100
AcDbLine
 10
206.415719230376
 20
313.6519079855
 11
206.415719230376
 21
277.320187428603
  0
LINE
  5
1EE
100
AcDbEntity
  8
1
  6
CONTINUOUS
 62
           3
100
AcDbLine
 10
214.415719230376
 20
145.6519079855
 11
222.415719230376
 21
145.6519079855
  0
LINE
  5
1ED
100
AcDbEntity
  8
1
  6
CONTINUOUS
 62
           3
100
AcDbLine
 10
222.415719230376
 20
145.6519079855
 11
222.415719230376
 21
181.6519079855
  0
LINE
  5
1EC
100
AcDbEntity
  8
1
  6
CONTINUOUS
 62
           3
100
AcDbLine
 10
222.415719230376
 20
181.6519079855
 11
214.415719230376
 21
181.6519079855
  0
LINE
  5
1EB
100
AcDbEntity
  8
1
  6
CONTINUOUS
 62
           3
100
AcDbLine
 10
214.415719230376
 20
181.6519079855
 11
214.415719230376
 21
145.6519079855
  0
LINE
  5
1EA
100
AcDbEntity
  8
1
  6
DOT_CENTER
 62
           2
100
AcDbLine
 10
225.023853170346
 20
113.6519079855
 11
212.203885855065
 21
113.6519079855
  0
LINE
  5
1E9
100
AcDbEntity
  8
1
  6
DOT_CENTER
 62
           2
100
AcDbLine
 10
212.277142811153
 20
80.6519079855
 11
224.730825345997
 21
80.6519079855
  0
LINE
  5
1E8
100
AcDbEntity
  8
1
  6
DOT_CENTER
 62
           2
100
AcDbLine
 10
225.044349512159
 20
301.6519079855
 11
211.35630450631
 21
301.6519079855
  0
LINE
  5
1E7
100
AcDbEntity
  8
1
  6
CONTINUOUS
 62
           3
100
AcDbLine
 10
230.415719230376
 20
202.984783116543
 11
230.415719230376
 21
270.320312531483
  0
LINE
  5
1E6
100
AcDbEntity
  8
1
  6
CONTINUOUS
 62
           3
100
AcDbLine
 10
206.415719230376
 20
193.821003882348
 11
206.415719230376
 21
68.6519079855
  0
LINE
  5
1E5
100
AcDbEntity
  8
1
  6
CONTINUOUS
 62
           3
100
AcDbLine
 10
8.614966791109
 20
68.6519079855
 11
10.614966791109
 21
68.6519079855
  0
LINE
  5
1E4
100
AcDbEntity
  8
1
  6
CONTINUOUS
 62
           3
100
AcDbLine
 10
14.614966791109
 20
313.6519079855
 11
10.614966791109
 21
313.6519079855
  0
LINE
  5
1E3
100
AcDbEntity
  8
1
  6
CONTINUOUS
 62
           3
100
AcDbLine
 10
8.614966791109
 20
313.6519079855
 11
8.614966791109
 21
68.6519079855
  0
LINE
  5
1E2
100
AcDbEntity
  8
1
  6
DOT_CENTER
 62
           2
100
AcDbLine
 10
4.886223811192
 20
301.6519079855
 11
14.021227415435
 21
301.6519079855
  0
LINE
  5
1E1
100
AcDbEntity
  8
1
  6
DOT_CENTER
 62
           2
100
AcDbLine
 10
4.313363583087
 20
80.6519079855
 11
13.643509145307
 21
80.6519079855
  0
LINE
  5
1E0
100
AcDbEntity
  8
1
  6
DOT_CENTER
 62
           2
100
AcDbLine
 10
5.109839423765
 20
113.6519079855
 11
14.098638197122
 21
113.6519079855
  0
LINE
  5
1DF
100
AcDbEntity
  8
1
  6
CONTINUOUS
 62
           3
100
AcDbLine
 10
8.614966791109
 20
181.6519079855
 11
-7.385033208891
 21
181.6519079855
  0
LINE
  5
1DE
100
AcDbEntity
  8
1
  6
CONTINUOUS
 62
           3
100
AcDbLine
 10
-7.385033208891
 20
181.6519079855
 11
-7.385033208891
 21
145.6519079855
  0
LINE
  5
1DD
100
AcDbEntity
  8
1
  6
CONTINUOUS
 62
           3
100
AcDbLine
 10
-7.385033208891
 20
145.6519079855
 11
8.614966791109
 21
145.6519079855
  0
LINE
  5
1DC
100
AcDbEntity
  8
1
  6
CONTINUOUS
 62
           3
100
AcDbLine
 10
57.614966791109
 20
286.1519079855
 11
57.614966791109
 21
183.565868213446
  0
LINE
  5
1DB
100
AcDbEntity
  8
1
  6
CONTINUOUS
 62
           3
100
AcDbLine
 10
57.614966791109
 20
102.6519079855
 11
10.614966791109
 21
102.6519079855
  0
LINE
  5
1DA
100
AcDbEntity
  8
1
  6
DOT_CENTER
 62
           2
100
AcDbLine
 10
42.614966791109
 20
145.474115401342
 11
42.614966791109
 21
106.715416611602
  0
LINE
  5
1D9
100
AcDbEntity
  8
1
  6
CONTINUOUS
 62
           3
100
AcDbLine
 10
-7.385033208891
 20
-34.234961394169
 11
-7.385033208891
 21
-42.234961394169
  0
LINE
  5
1D8
100
AcDbEntity
  8
1
  6
CONTINUOUS
 62
           3
100
AcDbLine
 10
-4.385032926891
 20
-34.234961394169
 11
-7.385033208891
 21
-34.234961394169
  0
LINE
  5
1D7
100
AcDbEntity
  8
1
  6
CONTINUOUS
 62
           3
100
AcDbLine
 10
57.614966791109
 20
-30.484961394169
 11
10.614966791109
 21
-30.484961394169
  0
LINE
  5
1D6
100
AcDbEntity
  8
1
  6
CONTINUOUS
 62
           3
100
AcDbLine
 10
12.364966791109
 20
-32.234961394169
 11
12.364966791109
 21
-34.034961258174
  0
LINE
  5
1D5
100
AcDbEntity
  8
1
  6
CONTINUOUS
 62
           3
100
AcDbLine
 10
12.364966791109
 20
-43.834961394169
 11
10.614966791109
 21
-43.834961394169
  0
LINE
  5
1D4
100
AcDbEntity
  8
1
  6
CONTINUOUS
 62
           3
100
AcDbLine
 10
57.614966791109
 20
-45.984961394169
 11
10.614966791109
 21
-45.984961394169
  0
LINE
  5
1D3
100
AcDbEntity
  8
1
  6
DOT_CENTER
 62
           2
100
AcDbLine
 10
14.72505385863
 20
-38.234961394169
 11
-9.99916882084
 21
-38.234961394169
  0
LINE
  5
1D2
100
AcDbEntity
  8
1
  6
CONTINUOUS
 62
           3
100
AcDbLine
 10
38.114966791109
 20
221.1519079855
 11
47.114966791109
 21
221.1519079855
  0
LINE
  5
1D1
100
AcDbEntity
  8
1
  6
CONTINUOUS
 62
           3
100
AcDbLine
 10
47.114966791109
 20
221.1519079855
 11
47.114966791109
 21
230.1519079855
  0
LINE
  5
1D0
100
AcDbEntity
  8
1
  6
CONTINUOUS
 62
           3
100
AcDbLine
 10
47.114966791109
 20
230.1519079855
 11
38.114966791109
 21
230.1519079855
  0
LINE
  5
1CF
100
AcDbEntity
  8
1
  6
CONTINUOUS
 62
           3
100
AcDbLine
 10
38.114966791109
 20
230.1519079855
 11
38.114966791109
 21
221.1519079855
  0
LINE
  5
1CE
100
AcDbEntity
  8
1
  6
DOT_CENTER
 62
           2
100
AcDbLine
 10
31.981325085747
 20
225.6519079855
 11
45.864966791109
 21
225.6519079855
  0
LINE
  5
1CD
100
AcDbEntity
  8
1
  6
CONTINUOUS
 62
           3
100
AcDbLine
 10
46.364966791109
 20
204.9019079855
 11
46.364966791109
 21
200.6519079855
  0
LINE
  5
1CC
100
AcDbEntity
  8
1
  6
CONTINUOUS
 62
           3
100
AcDbLine
 10
38.864966791109
 20
200.6519079855
 11
38.864966791109
 21
204.9019079855
  0
LINE
  5
1CB
100
AcDbEntity
  8
1
  6
DOT_CENTER
 62
           2
100
AcDbLine
 10
37.548675867838
 20
204.9019079855
 11
47.817483085998
 21
204.9019079855
  0
LINE
  5
1CA
100
AcDbEntity
  8
1
  6
DOT_CENTER
 62
           2
100
AcDbLine
 10
37.632846418806
 20
200.6519079855
 11
47.901653636966
 21
200.6519079855
  0
LINE
  5
1C9
100
AcDbEntity
  8
1
  6
DOT_CENTER
 62
           2
100
AcDbLine
 10
42.614966791109
 20
195.376894112952
 11
42.614966791109
 21
237.517155854219
  0
LINE
  5
1C8
100
AcDbEntity
  8
1
  6
CONTINUOUS
 62
           3
100
AcDbLine
 10
34.175626962889
 20
240.21256815728
 11
32.054306619329
 21
238.09124781372
  0
LINE
  5
1C7
100
AcDbEntity
  8
1
  6
CONTINUOUS
 62
           3
100
AcDbLine
 10
32.054306619329
 20
240.21256815728
 11
34.175626962889
 21
238.09124781372
  0
LINE
  5
1C6
100
AcDbEntity
  8
1
  6
CONTINUOUS
 62
           3
100
AcDbLine
 10
50.554306619329
 20
202.21256815728
 11
52.675626962889
 21
200.09124781372
  0
LINE
  5
1C5
100
AcDbEntity
  8
1
  6
CONTINUOUS
 62
           3
100
AcDbLine
 10
52.675626962889
 20
202.21256815728
 11
50.554306619329
 21
200.09124781372
  0
LINE
  5
1C4
100
AcDbEntity
  8
1
  6
CONTINUOUS
 62
           3
100
AcDbLine
 10
34.114966791109
 20
286.151907985502
 11
40.614966791109
 21
286.151907985503
  0
LINE
  5
1C3
100
AcDbEntity
  8
1
  6
CONTINUOUS
 62
           3
100
AcDbLine
 10
40.614966791109
 20
286.051907985507
 11
40.614966791109
 21
286.151907985503
  0
LINE
  5
1C2
100
AcDbEntity
  8
1
  6
CONTINUOUS
 62
           3
100
AcDbLine
 10
38.914966791105
 20
285.551907985507
 11
40.114966791107
 21
285.55190798551
  0
LINE
  5
1C1
100
AcDbEntity
  8
1
  6
CONTINUOUS
 62
           3
100
AcDbLine
 10
38.114966791106
 20
284.751907985507
 11
38.114966791107
 21
284.351907984729
  0
LINE
  5
1C0
100
AcDbEntity
  8
1
  6
CONTINUOUS
 62
           3
100
AcDbLine
 10
47.114966791106
 20
284.3519079855
 11
47.114966791106
 21
284.751907984376
  0
LINE
  5
1BF
100
AcDbEntity
  8
1
  6
CONTINUOUS
 62
           3
100
AcDbLine
 10
45.114966791104
 20
285.551907985508
 11
46.314966791104
 21
285.551907985508
  0
LINE
  5
1BE
100
AcDbEntity
  8
1
  6
CONTINUOUS
 62
           3
100
AcDbLine
 10
44.614966791107
 20
286.151907985503
 11
57.614966791109
 21
286.1519079855
  0
LINE
  5
1BD
100
AcDbEntity
  8
1
  6
CONTINUOUS
 62
           3
100
AcDbLine
 10
44.614966791107
 20
286.151907985503
 11
44.614966791107
 21
286.051907985505
  0
LINE
  5
1BC
100
AcDbEntity
  8
1
  6
CONTINUOUS
 62
           3
100
AcDbLine
 10
40.614966791109
 20
286.151907985503
 11
44.614966791107
 21
286.151907985503
  0
LINE
  5
1BB
100
AcDbEntity
  8
1
  6
CONTINUOUS
 62
           3
100
AcDbLine
 10
47.014966791105
 20
285.139206319086
 11
47.014966791105
 21
284.401907985505
  0
LINE
  5
1BA
100
AcDbEntity
  8
1
  6
CONTINUOUS
 62
           3
100
AcDbLine
 10
47.014966791105
 20
284.401907985505
 11
47.114966791106
 21
284.401907985505
  0
LINE
  5
1B9
100
AcDbEntity
  8
1
  6
CONTINUOUS
 62
           3
100
AcDbLine
 10
38.214966791102
 20
285.139206320116
 11
38.214966791102
 21
284.401907985505
  0
LINE
  5
1B8
100
AcDbEntity
  8
1
  6
CONTINUOUS
 62
           3
100
AcDbLine
 10
38.214966791102
 20
284.401907985505
 11
40.614966791109
 21
284.401907985505
  0
LINE
  5
1B7
100
AcDbEntity
  8
1
  6
CONTINUOUS
 62
           3
100
AcDbLine
 10
38.114966791107
 20
284.401907985505
 11
38.214966791102
 21
284.401907985505
  0
LINE
  5
1B6
100
AcDbEntity
  8
1
  6
CONTINUOUS
 62
           3
100
AcDbLine
 10
44.614966791107
 20
286.051907985505
 11
44.614966791107
 21
284.401907985505
  0
LINE
  5
1B5
100
AcDbEntity
  8
1
  6
CONTINUOUS
 62
           3
100
AcDbLine
 10
44.614966791107
 20
284.401907985505
 11
47.014966791105
 21
284.401907985505
  0
LINE
  5
1B4
100
AcDbEntity
  8
1
  6
CONTINUOUS
 62
           3
100
AcDbLine
 10
40.614966791109
 20
286.051907985507
 11
40.614966791109
 21
284.401907985505
  0
LINE
  5
1B3
100
AcDbEntity
  8
1
  6
CONTINUOUS
 62
           3
100
AcDbLine
 10
40.614966791109
 20
284.401907985505
 11
44.614966791107
 21
284.401907985505
  0
LINE
  5
1B2
100
AcDbEntity
  8
1
  6
CONTINUOUS
 62
           3
100
AcDbLine
 10
46.314966791104
 20
283.551907985505
 11
45.38624808322
 21
283.551907985501
  0
LINE
  5
1B1
100
AcDbEntity
  8
1
  6
CONTINUOUS
 62
           3
100
AcDbLine
 10
34.114966791109
 20
286.151907985502
 11
34.114966791113
 21
280.651907985498
  0
LINE
  5
1B0
100
AcDbEntity
  8
1
  6
CONTINUOUS
 62
           3
100
AcDbLine
 10
32.114966791113
 20
280.651907985498
 11
32.114966791113
 21
278.701907985499
  0
LINE
  5
1AF
100
AcDbEntity
  8
1
  6
CONTINUOUS
 62
           3
100
AcDbLine
 10
13.91496679111
 20
280.6519079855
 11
32.114966791113
 21
280.651907985498
  0
LINE
  5
1AE
100
AcDbEntity
  8
1
  6
DASHED
 62
           2
100
AcDbLine
 10
12.91496679111
 20
277.701907985497
 11
10.614966791109
 21
277.701907985497
  0
LINE
  5
1AD
100
AcDbEntity
  8
1
  6
DASHED
 62
           2
100
AcDbLine
 10
13.91496679111
 20
278.701907985497
 11
13.91496679111
 21
280.6519079855
  0
LINE
  5
1AC
100
AcDbEntity
  8
1
  6
CONTINUOUS
 62
           3
100
AcDbLine
 10
54.914966791108
 20
120.0019079855
 11
54.914966791108
 21
118.5019079855
  0
LINE
  5
1AB
100
AcDbEntity
  8
1
  6
CONTINUOUS
 62
           3
100
AcDbLine
 10
50.31496679111
 20
120.0019079855
 11
50.31496679111
 21
118.5019079855
  0
LINE
  5
1AA
100
AcDbEntity
  8
1
  6
CONTINUOUS
 62
           3
100
AcDbLine
 10
30.31496679111
 20
120.0019079855
 11
30.31496679111
 21
118.5019079855
  0
LINE
  5
1A9
100
AcDbEntity
  8
1
  6
CONTINUOUS
 62
           3
100
AcDbLine
 10
34.914966791108
 20
120.0019079855
 11
34.914966791108
 21
118.5019079855
  0
LINE
  5
1A8
100
AcDbEntity
  8
1
  6
DOT_CENTER
 62
           2
100
AcDbLine
 10
32.614966791109
 20
122.7579079855
 11
32.614966791109
 21
115.3739079855
  0
LINE
  5
1A7
100
AcDbEntity
  8
1
  6
DOT_CENTER
 62
           2
100
AcDbLine
 10
52.614966791109
 20
122.7579079855
 11
52.614966791109
 21
115.3739079855
  0
LINE
  5
1A6
100
AcDbEntity
  8
1
  6
DOT_CENTER
 62
           2
100
AcDbLine
 10
49.474069478713
 20
120.0019079855
 11
55.801069478714
 21
120.0019079855
  0
LINE
  5
1A5
100
AcDbEntity
  8
1
  6
DOT_CENTER
 62
           2
100
AcDbLine
 10
55.560140048445
 20
118.5019079855
 11
49.381140048445
 21
118.5019079855
  0
LINE
  5
1A4
100
AcDbEntity
  8
1
  6
DOT_CENTER
 62
           2
100
AcDbLine
 10
35.560140048445
 20
118.5019079855
 11
29.381140048445
 21
118.5019079855
  0
LINE
  5
1A3
100
AcDbEntity
  8
1
  6
DOT_CENTER
 62
           2
100
AcDbLine
 10
29.474069478713
 20
120.0019079855
 11
35.801069478714
 21
120.0019079855
  0
LINE
  5
1A2
100
AcDbEntity
  8
1
  6
CONTINUOUS
 62
           3
100
AcDbLine
 10
57.614966791109
 20
-30.484961394169
 11
57.614966791109
 21
-45.984961394169
  0
LINE
  5
1A1
100
AcDbEntity
  8
1
  6
CONTINUOUS
 62
           3
100
AcDbLine
 10
34.114966791113
 20
-32.234961394168
 11
32.114966791115
 21
-32.234961394173
  0
LINE
  5
1A0
100
AcDbEntity
  8
1
  6
CONTINUOUS
 62
           3
100
AcDbLine
 10
13.914966791108
 20
-32.234961394171
 11
12.364966791109
 21
-32.234961394169
  0
LINE
  5
19F
100
AcDbEntity
  8
1
  6
CONTINUOUS
 62
           3
100
AcDbLine
 10
34.614966791115
 20
-30.48496139417
 11
50.114966791105
 21
-30.484961394168
  0
LINE
  5
19E
100
AcDbEntity
  8
1
  6
CONTINUOUS
 62
           3
100
AcDbLine
 10
34.114966791113
 20
-30.48496139417
 11
34.11496679111
 21
-44.234961394168
  0
LINE
  5
19D
100
AcDbEntity
  8
1
  6
CONTINUOUS
 62
           3
100
AcDbLine
 10
32.114966791115
 20
-32.234961394173
 11
32.114966791113
 21
-44.234961394168
  0
LINE
  5
19C
100
AcDbEntity
  8
1
  6
CONTINUOUS
 62
           3
100
AcDbLine
 10
32.114966791115
 20
-32.234961394173
 11
13.914966791108
 21
-32.234961394171
  0
LINE
  5
19B
100
AcDbEntity
  8
1
  6
PHANTOM
 62
           4
100
AcDbLine
 10
40.614966791113
 20
-43.384961394169
 11
40.614966791105
 21
-42.449222895309
  0
LINE
  5
19A
100
AcDbEntity
  8
1
  6
PHANTOM
 62
           4
100
AcDbLine
 10
38.914966791106
 20
-43.884961394171
 11
40.114966791107
 21
-43.884961394167
  0
LINE
  5
199
100
AcDbEntity
  8
1
  6
PHANTOM
 62
           4
100
AcDbLine
 10
38.114966791107
 20
-44.68496139417
 11
38.114966791107
 21
-45.084961394943
  0
LINE
  5
198
100
AcDbEntity
  8
1
  6
PHANTOM
 62
           4
100
AcDbLine
 10
46.314966791106
 20
-45.884961394173
 11
38.914966791106
 21
-45.884961394171
  0
LINE
  5
197
100
AcDbEntity
  8
1
  6
PHANTOM
 62
           4
100
AcDbLine
 10
47.114966791103
 20
-45.084961394175
 11
47.114966791107
 21
-44.6849613953
  0
LINE
  5
196
100
AcDbEntity
  8
1
  6
PHANTOM
 62
           4
100
AcDbLine
 10
45.114966791105
 20
-43.884961394169
 11
46.314966791104
 21
-43.884961394167
  0
LINE
  5
195
100
AcDbEntity
  8
1
  6
PHANTOM
 62
           4
100
AcDbLine
 10
44.614966791107
 20
-42.449222895309
 11
44.614966791111
 21
-43.384961394171
  0
LINE
  5
194
100
AcDbEntity
  8
1
  6
CONTINUOUS
 62
           3
100
AcDbLine
 10
57.614966791109
 20
-45.984961394169
 11
57.614966791109
 21
-32.234961394171
  0
LINE
  5
193
100
AcDbEntity
  8
1
  6
CONTINUOUS
 62
           3
100
AcDbLine
 10
57.614966791109
 20
-45.984961394169
 11
34.11496679111
 21
-45.984961394169
  0
LINE
  5
192
100
AcDbEntity
  8
1
  6
CONTINUOUS
 62
           3
100
AcDbLine
 10
34.11496679111
 20
-45.984961394169
 11
32.114966791112
 21
-45.984961394169
  0
LINE
  5
191
100
AcDbEntity
  8
1
  6
CONTINUOUS
 62
           3
100
AcDbLine
 10
32.114966791112
 20
-45.984961394169
 11
13.91496679111
 21
-45.984961394169
  0
LINE
  5
190
100
AcDbEntity
  8
1
  6
CONTINUOUS
 62
           3
100
AcDbLine
 10
13.91496679111
 20
-45.984961394169
 11
13.91496679111
 21
-44.234961394168
  0
LINE
  5
18F
100
AcDbEntity
  8
1
  6
CONTINUOUS
 62
           3
100
AcDbLine
 10
34.11496679111
 20
-44.234961394168
 11
32.114966791113
 21
-44.234961394168
  0
LINE
  5
18E
100
AcDbEntity
  8
1
  6
CONTINUOUS
 62
           3
100
AcDbLine
 10
34.11496679111
 20
-44.234961394168
 11
34.11496679111
 21
-45.984961394169
  0
LINE
  5
18D
100
AcDbEntity
  8
1
  6
CONTINUOUS
 62
           3
100
AcDbLine
 10
32.114966791113
 20
-44.234961394168
 11
32.114966791112
 21
-45.984961394169
  0
LINE
  5
18C
100
AcDbEntity
  8
1
  6
PHANTOM
 62
           4
100
AcDbLine
 10
46.97640461821
 20
-44.234961394168
 11
38.253528963344
 21
-44.234961394168
  0
LINE
  5
18B
100
AcDbEntity
  8
1
  6
CONTINUOUS
 62
           3
100
AcDbLine
 10
13.91496679111
 20
-45.984961394169
 11
10.614966791109
 21
-45.984961394169
  0
LINE
  5
18A
100
AcDbEntity
  8
1
  6
CONTINUOUS
 62
           3
100
AcDbLine
 10
10.614966791109
 20
-45.984961394169
 11
10.614966791109
 21
-44.234961394168
  0
LINE
  5
189
100
AcDbEntity
  8
1
  6
CONTINUOUS
 62
           3
100
AcDbLine
 10
10.614966791109
 20
-44.234961394168
 11
13.91496679111
 21
-44.234961394168
  0
LINE
  5
188
100
AcDbEntity
  8
1
  6
CONTINUOUS
 62
           3
100
AcDbLine
 10
13.91496679111
 20
-44.234961394168
 11
13.91496679111
 21
-43.034961088974
  0
LINE
  5
187
100
AcDbEntity
  8
1
  6
DOT_CENTER
 62
           2
100
AcDbLine
 10
45.864966791109
 20
225.6519079855
 11
53.8386457712
 21
225.6519079855
  0
LINE
  5
186
100
AcDbEntity
  8
1
  6
CONTINUOUS
 62
           3
100
AcDbLine
 10
13.91496679111
 20
280.6519079855
 11
10.614966791109
 21
280.6519079855
  0
LINE
  5
185
100
AcDbEntity
  8
1
  6
CONTINUOUS
 62
           3
100
AcDbLine
 10
14.614966791109
 20
131.085907985499
 11
14.614966791109
 21
284.523845764311
  0
LINE
  5
184
100
AcDbEntity
  8
1
  6
DASHED
 62
           2
100
AcDbLine
 10
10.614966791103
 20
105.6019079855
 11
12.91496679111
 21
105.601907985498
  0
LINE
  5
183
100
AcDbEntity
  8
1
  6
DASHED
 62
           2
100
AcDbLine
 10
13.914966791108
 20
102.651907985499
 11
13.914966791108
 21
104.451907985498
  0
LINE
  5
182
100
AcDbEntity
  8
1
  6
DASHED
 62
           2
100
AcDbLine
 10
13.914966791108
 20
104.601907985501
 11
13.914966791108
 21
104.451907985498
  0
LINE
  5
181
100
AcDbEntity
  8
1
  6
DASHED
 62
           2
100
AcDbLine
 10
14.014966791105
 20
188.501907985499
 11
10.614966791107
 21
188.501907985499
  0
LINE
  5
180
100
AcDbEntity
  8
1
  6
DASHED
 62
           2
100
AcDbLine
 10
14.014966791105
 20
174.401907985501
 11
14.014966791105
 21
188.501907985499
  0
LINE
  5
17F
100
AcDbEntity
  8
1
  6
DASHED
 62
           2
100
AcDbLine
 10
10.614966791105
 20
174.401907985501
 11
14.014966791105
 21
174.401907985501
  0
LINE
  5
17E
100
AcDbEntity
  8
1
  6
CONTINUOUS
 62
           3
100
AcDbLine
 10
37.914966791113
 20
269.7019079855
 11
37.914966791113
 21
255.501907985503
  0
LINE
  5
17D
100
AcDbEntity
  8
1
  6
CONTINUOUS
 62
           3
100
AcDbLine
 10
35.814966791111
 20
270.2019079855
 11
37.414966791113
 21
270.2019079855
  0
LINE
  5
17C
100
AcDbEntity
  8
1
  6
CONTINUOUS
 62
           3
100
AcDbLine
 10
35.314966791111
 20
255.501907985499
 11
35.314966791109
 21
269.7019079855
  0
LINE
  5
17B
100
AcDbEntity
  8
1
  6
CONTINUOUS
 62
           3
100
AcDbLine
 10
37.414966791112
 20
255.001907985501
 11
35.814966791113
 21
255.001907985501
  0
LINE
  5
17A
100
AcDbEntity
  8
1
  6
DOT_CENTER
 62
           2
100
AcDbLine
 10
36.61496679111
 20
253.894214418231
 11
36.61496679111
 21
271.107640872207
  0
LINE
  5
179
100
AcDbEntity
  8
1
  6
CONTINUOUS
 62
           3
100
AcDbLine
 10
18.554306619328
 20
273.712568157281
 11
20.675626962887
 21
271.591247813722
  0
LINE
  5
178
100
AcDbEntity
  8
1
  6
CONTINUOUS
 62
           3
100
AcDbLine
 10
20.675626962887
 20
273.712568157281
 11
18.554306619328
 21
271.591247813722
  0
LINE
  5
177
100
AcDbEntity
  8
1
  6
CONTINUOUS
 62
           3
100
AcDbLine
 10
19.114966521631
 20
241.826907985497
 11
19.114966521631
 21
245.151907985496
  0
LINE
  5
176
100
AcDbEntity
  8
1
  6
CONTINUOUS
 62
           3
100
AcDbLine
 10
19.114966521631
 20
251.151907985496
 11
19.114966521631
 21
254.476907985497
  0
LINE
  5
175
100
AcDbEntity
  8
1
  6
CONTINUOUS
 62
           3
100
AcDbLine
 10
19.114966521631
 20
245.151907985496
 11
19.114966521631
 21
251.151907985496
  0
LINE
  5
174
100
AcDbEntity
  8
1
  6
CONTINUOUS
 62
           3
100
AcDbLine
 10
19.114966521631
 20
251.151907985496
 11
15.614966309192
 21
251.151907985496
  0
LINE
  5
173
100
AcDbEntity
  8
1
  6
CONTINUOUS
 62
           3
100
AcDbLine
 10
19.114966521631
 20
245.151907985496
 11
15.614966309192
 21
245.151907985496
  0
LINE
  5
172
100
AcDbEntity
  8
1
  6
CONTINUOUS
 62
           3
100
AcDbLine
 10
230.415719230376
 20
277.77670100885
 11
230.415719230376
 21
313.6519079855
  0
LINE
  5
171
100
AcDbEntity
  8
1
  6
CONTINUOUS
 62
           3
100
AcDbLine
 10
206.415719230376
 20
269.863798951236
 11
206.415719230376
 21
202.45200525409
  0
LINE
  5
170
100
AcDbEntity
  8
1
  6
CONTINUOUS
 62
           3
100
AcDbLine
 10
32.114966791113
 20
280.651907985498
 11
34.114966791113
 21
280.651907985498
  0
LINE
  5
16F
100
AcDbEntity
  8
1
  6
CONTINUOUS
 62
           3
100
AcDbLine
 10
34.114966791113
 20
280.651907985498
 11
34.114966791115
 21
278.701907985501
  0
LINE
  5
16E
100
AcDbEntity
  8
1
  6
DOT_CENTER
 62
           2
100
AcDbLine
 10
42.614966791109
 20
288.778097418004
 11
42.614966791109
 21
265.737995360392
  0
LINE
  5
16D
100
AcDbEntity
  8
1
  6
CONTINUOUS
 62
           3
100
AcDbLine
 10
46.364966791109
 20
283.55347201437
 11
46.364966791109
 21
284.151907985533
  0
LINE
  5
16C
100
AcDbEntity
  8
1
  6
CONTINUOUS
 62
           3
100
AcDbLine
 10
38.86496679111
 20
283.553472014371
 11
38.86496679111
 21
284.151907985532
  0
LINE
  5
16B
100
AcDbEntity
  8
1
  6
CONTINUOUS
 62
           3
100
AcDbLine
 10
46.364966791109
 20
284.151907985533
 11
47.089563460355
 21
284.151907985535
  0
LINE
  5
16A
100
AcDbEntity
  8
1
  6
CONTINUOUS
 62
           3
100
AcDbLine
 10
38.86496679111
 20
284.151907985532
 11
38.140370121858
 21
284.151907985533
  0
LINE
  5
169
100
AcDbEntity
  8
1
  6
CONTINUOUS
 62
           3
100
AcDbLine
 10
221.665719230377
 20
220.101907985503
 11
221.665719230375
 21
222.701907985502
  0
LINE
  5
168
100
AcDbEntity
  8
1
  6
CONTINUOUS
 62
           3
100
AcDbLine
 10
215.165719230374
 20
222.7019079855
 11
215.165719230375
 21
220.101907985501
  0
LINE
  5
167
100
AcDbEntity
  8
1
  6
CONTINUOUS
 62
           3
100
AcDbLine
 10
221.665719230377
 20
220.101907985503
 11
221.665719230375
 21
216.901907985503
  0
LINE
  5
166
100
AcDbEntity
  8
1
  6
CONTINUOUS
 62
           3
100
AcDbLine
 10
215.165719230374
 20
216.901907985501
 11
215.165719230375
 21
220.101907985501
  0
LINE
  5
165
100
AcDbEntity
  8
1
  6
CONTINUOUS
 62
           2
100
AcDbLine
 10
295.991751410629
 20
-51.037901550748
 11
342.303446582341
 21
-51.037901550748
  0
LINE
  5
164
100
AcDbEntity
  8
1
  6
PHANTOM
 62
           4
100
AcDbLine
 10
218.662959852781
 20
237.451907985503
 11
218.16847860797
 21
237.451907985503
  0
LINE
  5
163
100
AcDbEntity
  8
1
  6
PHANTOM
 62
           4
100
AcDbLine
 10
220.696690447488
 20
260.551907985505
 11
223.16114226428
 21
263.488927291937
  0
LINE
  5
162
100
AcDbEntity
  8
1
  6
PHANTOM
 62
           4
100
AcDbLine
 10
216.134748013256
 20
260.551907985507
 11
213.670296196473
 21
263.488927291941
  0
LINE
  5
161
100
AcDbEntity
  8
1
  6
PHANTOM
 62
           4
100
AcDbLine
 10
218.168478607969
 20
258.851907985504
 11
218.662959852782
 21
258.851907985502
  0
LINE
  5
160
100
AcDbEntity
  8
1
  6
CONTINUOUS
 62
           3
100
AcDbLine
 10
14.614966791109
 20
288.371774444839
 11
14.614966791109
 21
313.6519079855
  0
INSERT
  5
29
100
AcDbEntity
  8
0
100
AcDbBlockReference
  2
WILKA_A4_K
 10
77.563323966536
 20
16.281971856507
 41
2.5
 42
2.5
  0
CIRCLE
  5
30F
100
AcDbEntity
  8
0
 62
           2
100
AcDbCircle
 10
45.386966791107
 20
228.378438846656
 40
0.625
  0
HATCH
  5
310
100
AcDbEntity
  8
0
 62
           2
100
AcDbHatch
 10
0.0
 20
0.0
 30
0.0
210
0.0
220
0.0
230
1.0
  2
SOLID
 70
           1
 71
           1
 91
        1
 92
        1
 93
        1
 72
           2
 10
45.386966791106794
 20
228.3784388466558
 40
0.6250000000000002
 50
-180.0
 51
180.0
 73
           1
 97
        1
330
30F
 75
           0
 76
           1
 98
        1
 10
0.0
 20
0.0
  0
INSERT
  5
4AA
100
AcDbEntity
  8
0
100
AcDbBlockReference
  2
*D31
 10
0.0
 20
0.0
  0
ENDSEC
  0
SECTION
  2
OBJECTS
  0
DICTIONARY
  5
19
100
AcDbDictionary
  3
ACAD_GROUP
350
1A
  3
ACAD_MLINESTYLE
350
1B
  0
DICTIONARY
  5
1A
102
{ACAD_REACTORS
330
19
102
}
100
AcDbDictionary
  0
DICTIONARY
  5
1B
102
{ACAD_REACTORS
330
19
102
}
100
AcDbDictionary
  3
STANDARD
350
1C
  0
MLINESTYLE
  5
1C
102
{ACAD_REACTORS
330
1B
102
}
100
AcDbMlineStyle
  2
STANDARD
 70
           0
  3

 62
           0
 51
90.0
 52
90.0
 71
           2
 49
0.5
 62
         256
  6
BYLAYER
 49
-0.5
 62
         256
  6
BYLAYER
  0
ENDSEC
  0
EOF
