  0
SECTION
  2
HEADER
  9
$ACADVER
  1
AC1009
  9
$INSBASE
 10
0.0
 20
0.0
 30
0.0
  9
$EXTMIN
 10
-65.083862
 20
-203.078217
 30
0.0
  9
$EXTMAX
 10
146.916138
 20
97.195801
 30
0.0
  9
$LIMMIN
 10
-65.083862
 20
-203.078217
  9
$LIMMAX
 10
146.916138
 20
97.195801
  9
$ORTHOMODE
 70
     0
  9
$REGENMODE
 70
     1
  9
$FILLMODE
 70
     1
  9
$QTEXTMODE
 70
     0
  9
$MIRRTEXT
 70
     1
  9
$DRAGMODE
 70
     2
  9
$LTSCALE
 40
1.0
  9
$OSMODE
 70
     0
  9
$ATTMODE
 70
     1
  9
$TEXTSIZE
 40
0.2
  9
$TRACEWID
 40
0.05
  9
$TEXTSTYLE
  7
STANDARD
  9
$CLAYER
  8
0
  9
$CELTYPE
  6
CONTINUOUS
  9
$CECOLOR
 62
   256
  9
$DIMSCALE
 40
1.0
  9
$DIMASZ
 40
0.18
  9
$DIMEXO
 40
0.0625
  9
$DIMDLI
 40
0.38
  9
$DIMRND
 40
0.0
  9
$DIMDLE
 40
0.0
  9
$DIMEXE
 40
0.18
  9
$DIMTP
 40
0.0
  9
$DIMTM
 40
0.0
  9
$DIMTXT
 40
2.5
  9
$DIMCEN
 40
0.09
  9
$DIMTSZ
 40
0.0
  9
$DIMTOL
 70
     0
  9
$DIMLIM
 70
     0
  9
$DIMTIH
 70
     1
  9
$DIMTOH
 70
     1
  9
$DIMSE1
 70
     0
  9
$DIMSE2
 70
     0
  9
$DIMTAD
 70
     0
  9
$DIMZIN
 70
     0
  9
$DIMBLK
  1

  9
$DIMASO
 70
     1
  9
$DIMSHO
 70
     1
  9
$DIMPOST
  1

  9
$DIMAPOST
  1

  9
$DIMALT
 70
     0
  9
$DIMALTD
 70
     2
  9
$DIMALTF
 40
25.4
  9
$DIMLFAC
 40
1.0
  9
$DIMTOFL
 70
     0
  9
$DIMTVP
 40
0.0
  9
$DIMTIX
 70
     0
  9
$DIMSOXD
 70
     0
  9
$DIMSAH
 70
     0
  9
$DIMBLK1
  1

  9
$DIMBLK2
  1

  9
$DIMSTYLE
  2
STANDARD
  9
$DIMCLRD
 70
     0
  9
$DIMCLRE
 70
     0
  9
$DIMCLRT
 70
     0
  9
$DIMTFAC
 40
1.0
  9
$DIMGAP
 40
0.09
  9
$LUNITS
 70
     2
  9
$LUPREC
 70
     6
  9
$AXISMODE
 70
     0
  9
$AXISUNIT
 10
0.0
 20
0.0
  9
$SKETCHINC
 40
0.1
  9
$FILLETRAD
 40
0.0
  9
$AUNITS
 70
     0
  9
$AUPREC
 70
     4
  9
$MENU
  1
acad
  9
$ELEVATION
 40
0.0
  9
$PELEVATION
 40
0.0
  9
$THICKNESS
 40
0.0
  9
$LIMCHECK
 70
     0
  9
$BLIPMODE
 70
     1
  9
$CHAMFERA
 40
0.0
  9
$CHAMFERB
 40
0.0
  9
$SKPOLY
 70
     0
  9
$TDCREATE
 40
0.000000000
  9
$TDUPDATE
 40
0.000000000
  9
$TDINDWG
 40
0.0000000000
  9
$TDUSRTIMER
 40
0.0000000000
  9
$USRTIMER
 70
     1
  9
$ANGBASE
 50
0.0
  9
$ANGDIR
 70
     0
  9
$PDMODE
 70
     0
  9
$PDSIZE
 40
0.0
  9
$PLINEWID
 40
0.0
  9
$COORDS
 70
     0
  9
$SPLFRAME
 70
     0
  9
$SPLINETYPE
 70
     6
  9
$SPLINESEGS
 70
     8
  9
$ATTDIA
 70
     0
  9
$ATTREQ
 70
     1
  9
$HANDLING
 70
     0
  9
$HANDSEED
  5
3
  9
$SURFTAB1
 70
     6
  9
$SURFTAB2
 70
     6
  9
$SURFTYPE
 70
     6
  9
$SURFU
 70
     6
  9
$SURFV
 70
     6
  9
$UCSNAME
  2
MO_001_VIEW_PV_P
  9
$UCSORG
 10
0.0
 20
0.0
 30
0.0
  9
$UCSXDIR
 10
1.0
 20
0.0
 30
0.0
  9
$UCSYDIR
 10
0.0
 20
1.0
 30
0.0
  9
$PUCSNAME
  2

  9
$PUCSORG
 10
0.0
 20
0.0
 30
0.0
  9
$PUCSXDIR
 10
1.0
 20
0.0
 30
0.0
  9
$PUCSYDIR
 10
0.0
 20
1.0
 30
0.0
  9
$USERI1
 70
     0
  9
$USERI2
 70
     0
  9
$USERI3
 70
     0
  9
$USERI4
 70
     0
  9
$USERI5
 70
     0
  9
$USERR1
 40
0.0
  9
$USERR2
 40
0.0
  9
$USERR3
 40
0.0
  9
$USERR4
 40
0.0
  9
$USERR5
 40
0.0
  9
$WORLDVIEW
 70
     1
  9
$SHADEDGE
 70
     3
  9
$SHADEDIF
 70
    70
  9
$TILEMODE
 70
     1
  9
$MAXACTVP
 70
    16
  9
$PINSBASE
 10
0.0
 20
0.0
 30
0.0
  9
$PLIMCHECK
 70
     0
  9
$PEXTMIN
 10
-65.083862
 20
-203.078217
 30
1.000000E+20
  9
$PEXTMAX
 10
146.916138
 20
97.195801
 30
-1.000000E+20
  9
$PLIMMIN
 10
0.0
 20
0.0
  9
$PLIMMAX
 10
12.0
 20
9.0
  9
$UNITMODE
 70
     0
  9
$VISRETAIN
 70
     0
  9
$PLINEGEN
 70
     0
  9
$PSLTSCALE
 70
     1
  9
$TREEDEPTH
 70
  3020
  9
$DWGCODEPAGE
  3
iso8859-1
  0
ENDSEC
  0
SECTION
  2
TABLES
  0
TABLE
  2
VPORT
 70
     1
  0
VPORT
  2
*ACTIVE
 70
     0
 10
0.0
 20
0.0
 11
1.0
 21
1.0
 12
0.0
 22
0.0
 13
0.0
 23
0.0
 14
6.35
 24
6.35
 15
6.35
 25
6.35
 16
0.0
 26
0.0
 36
1.0
 17
0.0
 27
0.0
 37
0.0
 40
507.999992
 41
1.604229
 42
50.0
 43
0.0
 44
0.0
 50
0.0
 51
0.0
 71
     0
 72
   100
 73
     1
 74
     1
 75
     0
 76
     0
 77
     0
 78
     0
  0
ENDTAB
  0
TABLE
  2
LTYPE
 70
    37
  0
LTYPE
  2
CONTINUOUS
 70
     0
  3
DXF Default line type
 72
    65
 73
     0
 40
0.0
  0
LTYPE
  2
DASHED
 70
     0
  3
DXF Dashed
 72
    65
 73
     2
 40
0.75
 49
0.5
 49
-0.25
  0
LTYPE
  2
HIDDEN
 70
     0
  3
DXF Hidden
 72
    65
 73
     2
 40
0.375
 49
0.25
 49
-0.125
  0
LTYPE
  2
CENTER
 70
     0
  3
DXF Center
 72
    65
 73
     4
 40
2.0
 49
1.25
 49
-0.25
 49
0.25
 49
-0.25
  0
LTYPE
  2
PHANTOM
 70
     0
  3
DXF Phantom
 72
    65
 73
     6
 40
2.5
 49
1.25
 49
-0.25
 49
0.25
 49
-0.25
 49
0.25
 49
-0.25
  0
LTYPE
  2
DOT
 70
     0
  3
DXF DOT
 72
    65
 73
     2
 40
0.25
 49
0.0
 49
-0.25
  0
LTYPE
  2
DASHDOT
 70
     0
  3
DXF Dash Dot
 72
    65
 73
     4
 40
1.0
 49
0.5
 49
-0.25
 49
0.0
 49
-0.25
  0
LTYPE
  2
BORDER
 70
     0
  3
DXF Border
 72
    65
 73
     6
 40
1.75
 49
0.5
 49
-0.25
 49
0.5
 49
-0.25
 49
0.0
 49
-0.25
  0
LTYPE
  2
DIVIDE
 70
     0
  3
DXF Divide
 72
    65
 73
     6
 40
1.25
 49
0.5
 49
-0.25
 49
0.0
 49
-0.25
 49
0.0
 49
-0.25
  0
LTYPE
  2
C_SOLID_L
 70
     0
  3
CADAM Solid Light
 72
    65
 73
     0
 40
0.0
  0
LTYPE
  2
C_SOLID_M
 70
     0
  3
CADAM Solid Medium
 72
    65
 73
     0
 40
0.0
  0
LTYPE
  2
C_SOLID_H
 70
     0
  3
CADAM Solid Heavy
 72
    65
 73
     0
 40
0.0
  0
LTYPE
  2
C_DASHED_L
 70
     0
  3
CADAM Dashed Light
 72
    65
 73
     2
 40
0.375
 49
0.25
 49
-0.125
  0
LTYPE
  2
C_DASHED_M
 70
     0
  3
CADAM Dashed Medium
 72
    65
 73
     2
 40
0.5
 49
0.375
 49
-0.125
  0
LTYPE
  2
C_CENTER_L
 70
     0
  3
CADAM Center Light
 72
    65
 73
     4
 40
2.0
 49
1.25
 49
-0.25
 49
0.25
 49
-0.25
  0
LTYPE
  2
C_PHANTOM_L
 70
     0
  3
CADAM Phantom Light
 72
    65
 73
     6
 40
2.5
 49
1.25
 49
-0.25
 49
0.25
 49
-0.25
 49
0.25
 49
-0.25
  0
LTYPE
  2
C_BREAK_M
 70
     0
  3
CADAM Break Medium
 72
    65
 73
     4
 40
1.0
 49
0.5
 49
-0.25
 49
0.0
 49
-0.25
  0
LTYPE
  2
C_NC
 70
     0
  3
CADAM NC
 72
    65
 73
     0
 40
0.0
  0
LTYPE
  2
DSH1
 70
     2
  3
CADAM Style2 Type 1 Dashed Line
 72
    65
 73
     2
 40
0.075
 49
0.04
 49
-0.035
  0
LTYPE
  2
DSH2
 70
     2
  3
CADAM Style2 Type 2 Dashed Line
 72
    65
 73
     2
 40
0.15
 49
0.11
 49
-0.04
  0
LTYPE
  2
DSH3
 70
     2
  3
CADAM Style2 Type 3 Dashed Line
 72
    65
 73
     2
 40
0.2
 49
0.15
 49
-0.05
  0
LTYPE
  2
DSH4
 70
     2
  3
CADAM Style2 Type 4 Dashed Line
 72
    65
 73
     2
 40
0.36
 49
0.28
 49
-0.08
  0
LTYPE
  2
DSH5
 70
     2
  3
CADAM Style2 Type 5 Dashed Line
 72
    65
 73
     2
 40
0.47
 49
0.39
 49
-0.08
  0
LTYPE
  2
DSH6
 70
     2
  3
CADAM Style2 Type 6 Dashed Line
 72
    65
 73
     2
 40
0.9
 49
0.81
 49
-0.09
  0
LTYPE
  2
PL1
 70
     2
  3
Style 2 Type 1 Phantom Line
 72
    65
 73
     6
 40
1.0
 49
0.6
 49
-0.08
 49
0.08
 49
-0.08
 49
0.08
 49
-0.08
  0
LTYPE
  2
PL2
 70
     2
  3
Style 2 Type 2 Phantom Line
 72
    65
 73
     6
 40
1.08
 49
0.6
 49
-0.08
 49
0.12
 49
-0.08
 49
0.12
 49
-0.08
  0
LTYPE
  2
PL3
 70
     2
  3
Style 2 Type 3 Phantom Line
 72
    65
 73
     6
 40
2.0
 49
1.44
 49
-0.08
 49
0.16
 49
-0.08
 49
0.16
 49
-0.08
  0
LTYPE
  2
CL1
 70
     2
  3
CADAM Style 2 Type 1 Center Line
 72
    65
 73
     4
 40
0.7
 49
0.45
 49
-0.06
 49
0.13
 49
-0.06
  0
LTYPE
  2
CL2
 70
     2
  3
CADAM Style 2 Type 2 Center Line
 72
    65
 73
     4
 40
1.2
 49
1.01
 49
-0.06
 49
0.11
 49
-0.06
  0
LTYPE
  2
CL3
 70
     2
  3
CADAM Style 2 Type 3 Center Line
 72
    65
 73
     4
 40
1.2
 49
0.98
 49
-0.06
 49
0.1
 49
-0.06
  0
LTYPE
  2
CL4
 70
     2
  3
CADAM Style 2 Type 4 Center Line
 72
    65
 73
     4
 40
2.2
 49
1.93
 49
-0.07
 49
0.13
 49
-0.07
  0
LTYPE
  2
CL5
 70
     2
  3
CADAM Style 2 Type 5 Center Line
 72
    65
 73
     4
 40
2.2
 49
1.88
 49
-0.07
 49
0.18
 49
-0.07
  0
LTYPE
  2
SBK1
 70
     2
  3
CADAM Style 2 Type 1 SetBack Line
 72
    65
 73
     8
 40
2.7
 49
0.1
 49
-0.08
 49
0.1
 49
-0.8
 49
0.0
 49
0.0
 49
0.0
 49
0.0
  0
LTYPE
  2
SBK2
 70
     2
  3
CADAM Style 2 Type 2 SetBack Line
 72
    65
 73
     8
 40
3.71
 49
0.13
 49
-0.08
 49
0.13
 49
-0.8
 49
0.0
 49
0.0
 49
0.0
 49
0.0
  0
LTYPE
  2
STCH
 70
     2
  3
CADAM Style2 Stitch Line
 72
    65
 73
     2
 40
0.25
 49
0.0
 49
-0.25
  0
LTYPE
  2
MTCH
 70
     2
  3
CADAM Style2 Match Line
 72
    65
 73
     6
 40
2.0
 49
1.44
 49
-0.8
 49
0.16
 49
-0.08
 49
0.16
 49
-0.08
  0
LTYPE
  2
SLD
 70
     0
  3
CADAM Solid_EXT2
 72
    65
 73
     0
 40
0.0
  0
ENDTAB
  0
TABLE
  2
LAYER
 70
    10
  0
LAYER
  2
0
 70
     0
 62
     7
  6
C_SOLID_M
  0
LAYER
  2
MO_001_NOSHOW
 70
     1
 62
     7
  6
C_SOLID_M
  0
LAYER
  2
MO_001_VIEW_PV
 70
     0
 62
     7
  6
C_SOLID_M
  0
LAYER
  2
MO_001_VIEW_RA
 70
     0
 62
     7
  6
C_SOLID_M
  0
LAYER
  2
MO_001_VIEW_2
 70
     0
 62
     7
  6
C_SOLID_M
  0
LAYER
  2
MO_001_VIEW_1
 70
     0
 62
     7
  6
C_SOLID_M
  0
LAYER
  2
OVERLAY_MAP
 70
     1
 62
     7
  6
C_SOLID_M
  0
LAYER
  2
DITTOS
 70
     0
 62
     7
  6
C_SOLID_M
  0
LAYER
  2
SYMBOLS
 70
     0
 62
     7
  6
C_SOLID_M
  0
LAYER
  2
SETS
 70
     0
 62
     7
  6
C_SOLID_M
  0
ENDTAB
  0
TABLE
  2
STYLE
 70
     1
  0
STYLE
  2
STANDARD
 70
     0
 40
4.1672
 41
1.0
 50
0.0
 71
     0
 42
4.1672
  3
monotxt
  4

  0
ENDTAB
  0
TABLE
  2
VIEW
 70
     0
  0
ENDTAB
  0
TABLE
  2
UCS
 70
     4
  0
UCS
  2
MO_001_VIEW_PV_P
 70
     0
 10
9.5
 20
-6.5
 30
0.0
 11
1.0
 21
0.0
 31
0.0
 12
-0.0000000002051034
 22
1.0
 32
0.0
  0
UCS
  2
MO_001_VIEW_RA_P
 70
     0
 10
145.9161247176516
 20
-200.8042048440044
 30
0.0
 11
1.0
 21
-0.0000000000000007
 31
0.0
 12
-0.0000000002051028
 22
1.0
 32
0.0
  0
UCS
  2
MO_001_VIEW_2_P
 70
     0
 10
109.11794644889785
 20
-6.5000000000321414
 30
0.0
 11
-0.0000000000000008
 21
-1.0
 31
0.0
 12
1.0
 22
0.0000000002051025
 32
0.0
  0
UCS
  2
MO_001_VIEW_1_P
 70
     0
 10
96.937806367236803
 20
-44.086838715739788
 30
0.0
 11
-0.0000000000000008
 21
-1.0
 31
0.0
 12
1.0
 22
0.0000000002051025
 32
0.0
  0
ENDTAB
  0
TABLE
  2
APPID
 70
     1
  0
APPID
  2
ACAD
 70
     0
  0
ENDTAB
  0
TABLE
  2
DIMSTYLE
 70
     1
  0
DIMSTYLE
  2
STANDARD
 70
     0
  3

  4

  5

  6

  7

 40
1.0
 41
0.18
 42
0.0625
 43
0.38
 44
0.18
 45
0.0
 46
0.0
 47
0.0
 48
0.0
140
2.5
141
0.09
142
0.0
143
25.4
144
1.0
145
0.0
146
1.0
147
0.09
 71
     0
 72
     0
 73
     0
 74
     0
 75
     0
 76
     0
 77
     0
 78
     0
170
     0
171
     2
172
     0
173
     0
174
     0
175
     0
176
     0
177
     0
178
     0
  0
ENDTAB
  0
ENDSEC
  0
SECTION
  2
BLOCKS
  0
BLOCK
  8
MO_001_VIEW_PV
  6
C_SOLID_M
  2
*D0
 70
     1
 10
0.0
 20
0.0
 30
0.0
  3
*D0
  0
LINE
  8
MO_001_VIEW_PV
  6
BYBLOCK
 10
-2.500002
 20
-82.562958
 30
0.0
 11
21.499985
 21
-82.562958
 31
0.0
  0
SOLID
  8
MO_001_VIEW_PV
  6
BYBLOCK
 10
0.818258
 20
-81.979446
 30
0.0
 11
-1.992002
 21
-82.562958
 31
0.0
 12
0.818258
 22
-83.146469
 32
0.0
 13
0.818258
 23
-83.146469
 33
0.0
  0
SOLID
  8
MO_001_VIEW_PV
  6
BYBLOCK
 10
18.181725
 20
-83.146469
 30
0.0
 11
20.991985
 21
-82.562958
 31
0.0
 12
18.181725
 22
-81.979446
 32
0.0
 13
18.181725
 23
-81.979446
 33
0.0
  0
LINE
  8
MO_001_VIEW_PV
  6
BYBLOCK
 10
-2.500002
 20
-66.5
 30
0.0
 11
-2.500002
 21
-84.848961
 31
0.0
  0
LINE
  8
MO_001_VIEW_PV
  6
BYBLOCK
 10
21.499985
 20
-66.5
 30
0.0
 11
21.499985
 21
-84.848961
 31
0.0
  0
TEXT
  8
MO_001_VIEW_PV
  6
BYBLOCK
 10
7.357146
 20
-81.937958
 30
0.0
 40
2.5
  1
24
  0
ENDBLK
  8
0
  0
BLOCK
  8
MO_001_VIEW_PV
  6
C_SOLID_M
  2
*D1
 70
     1
 10
0.0
 20
0.0
 30
0.0
  3
*D1
  0
LINE
  8
MO_001_VIEW_PV
  6
BYBLOCK
 10
54.073517
 20
-66.5
 30
0.0
 11
54.073517
 21
53.5
 31
0.0
  0
SOLID
  8
MO_001_VIEW_PV
  6
BYBLOCK
 10
53.490005
 20
-63.18174
 30
0.0
 11
54.073517
 21
-65.992
 31
0.0
 12
54.657028
 22
-63.18174
 32
0.0
 13
54.657028
 23
-63.18174
 33
0.0
  0
SOLID
  8
MO_001_VIEW_PV
  6
BYBLOCK
 10
54.657028
 20
50.18174
 30
0.0
 11
54.073517
 21
52.992
 31
0.0
 12
53.490005
 22
50.18174
 32
0.0
 13
53.490005
 23
50.18174
 33
0.0
  0
LINE
  8
MO_001_VIEW_PV
  6
BYBLOCK
 10
21.499985
 20
-66.5
 30
0.0
 11
56.359516
 21
-66.5
 31
0.0
  0
LINE
  8
MO_001_VIEW_PV
  6
BYBLOCK
 10
21.499985
 20
53.5
 30
0.0
 11
56.359516
 21
53.5
 31
0.0
  0
TEXT
  8
MO_001_VIEW_PV
  6
BYBLOCK
 10
53.448517
 20
-9.892845
 30
0.0
 40
2.5
  1
120
 50
90.0
  0
ENDBLK
  8
0
  0
BLOCK
  8
MO_001_VIEW_PV
  6
C_SOLID_M
  2
*D2
 70
     1
 10
0.0
 20
0.0
 30
0.0
  3
*D2
  0
LINE
  8
MO_001_VIEW_PV
  6
BYBLOCK
 10
37.231674
 20
-54.5
 30
0.0
 11
37.231674
 21
41.5
 31
0.0
  0
SOLID
  8
MO_001_VIEW_PV
  6
BYBLOCK
 10
36.648163
 20
-51.18174
 30
0.0
 11
37.231674
 21
-53.992
 31
0.0
 12
37.815186
 22
-51.18174
 32
0.0
 13
37.815186
 23
-51.18174
 33
0.0
  0
SOLID
  8
MO_001_VIEW_PV
  6
BYBLOCK
 10
37.815186
 20
38.18174
 30
0.0
 11
37.231674
 21
40.992
 31
0.0
 12
36.648163
 22
38.18174
 32
0.0
 13
36.648163
 23
38.18174
 33
0.0
  0
LINE
  8
MO_001_VIEW_PV
  6
BYBLOCK
 10
16.685455
 20
-54.5
 30
0.0
 11
39.517673
 21
-54.5
 31
0.0
  0
LINE
  8
MO_001_VIEW_PV
  6
BYBLOCK
 10
16.000366
 20
41.5
 30
0.0
 11
39.517673
 21
41.5
 31
0.0
  0
TEXT
  8
MO_001_VIEW_PV
  6
BYBLOCK
 10
36.606674
 20
-8.642845
 30
0.0
 40
2.5
  1
96
 50
90.0
  0
ENDBLK
  8
0
  0
BLOCK
  8
MO_001_VIEW_PV
  6
C_SOLID_M
  2
*D3
 70
     1
 10
0.0
 20
0.0
 30
0.0
  3
*D3
  0
TEXT
  8
MO_001_VIEW_PV
  6
BYBLOCK
 10
20.673436
 20
56.420846
 30
0.0
 40
2.5
  1
%%C 5.2
 50
51.3
  0
LINE
  8
MO_001_VIEW_PV
  6
BYBLOCK
 10
7.873049
 20
39.47194
 30
0.0
 11
11.126946
 21
43.528062
 31
0.0
  0
LINE
  8
MO_001_VIEW_PV
  6
BYBLOCK
 10
7.873049
 20
39.47194
 30
0.0
 11
3.899537
 21
34.51879
 31
0.0
  0
LINE
  8
MO_001_VIEW_PV
  6
BYBLOCK
 10
11.126946
 20
43.528062
 30
0.0
 11
15.100458
 21
48.481213
 31
0.0
  0
SOLID
  8
MO_001_VIEW_PV
  6
BYBLOCK
 10
6.251801
 20
36.518486
 30
0.0
 11
7.555168
 21
39.075688
 31
0.0
 12
5.341495
 22
37.248751
 32
0.0
 13
5.341495
 23
37.248751
 33
0.0
  0
SOLID
  8
MO_001_VIEW_PV
  6
BYBLOCK
 10
12.748194
 20
46.481516
 30
0.0
 11
11.444827
 21
43.924314
 31
0.0
 12
13.6585
 22
45.751251
 32
0.0
 13
13.6585
 23
45.751251
 33
0.0
  0
LINE
  8
MO_001_VIEW_PV
  6
BYBLOCK
 10
11.126946
 20
43.528062
 30
0.0
 11
29.036461
 21
65.853033
 31
0.0
  0
ENDBLK
  8
0
  0
BLOCK
  8
MO_001_VIEW_PV
  6
C_SOLID_M
  2
*D4
 70
     1
 10
0.0
 20
0.0
 30
0.0
  3
*D4
  0
TEXT
  8
MO_001_VIEW_PV
  6
BYBLOCK
 10
-17.236662
 20
65.070409
 30
0.0
 40
2.5
  1
%%C 8.3
 50
319.6
  0
LINE
  8
MO_001_VIEW_PV
  6
BYBLOCK
 10
12.660725
 20
38.810708
 30
0.0
 11
6.339272
 21
44.189297
 31
0.0
  0
LINE
  8
MO_001_VIEW_PV
  6
BYBLOCK
 10
12.660725
 20
38.810708
 30
0.0
 11
17.497017
 21
34.695763
 31
0.0
  0
LINE
  8
MO_001_VIEW_PV
  6
BYBLOCK
 10
6.339272
 20
44.189297
 30
0.0
 11
1.502979
 21
48.304242
 31
0.0
  0
SOLID
  8
MO_001_VIEW_PV
  6
BYBLOCK
 10
15.56611
 20
37.104814
 30
0.0
 11
13.047628
 21
38.481512
 31
0.0
 12
14.809852
 22
36.215985
 32
0.0
 13
14.809852
 23
36.215985
 33
0.0
  0
SOLID
  8
MO_001_VIEW_PV
  6
BYBLOCK
 10
3.433886
 20
45.895191
 30
0.0
 11
5.952368
 21
44.518493
 31
0.0
 12
4.190144
 22
46.78402
 32
0.0
 13
4.190144
 23
46.78402
 33
0.0
  0
LINE
  8
MO_001_VIEW_PV
  6
BYBLOCK
 10
6.339272
 20
44.189297
 30
0.0
 11
-18.254366
 21
65.114717
 31
0.0
  0
ENDBLK
  8
0
  0
BLOCK
  8
MO_001_VIEW_2
  6
C_SOLID_L
 62
    95
  2
*X5
 70
     1
 10
0.0
 20
0.0
 30
0.0
  3
*X5
  0
LINE
  8
MO_001_VIEW_2
  6
C_SOLID_L
 62
    95
 10
107.694597
 20
-33.950016
 30
0.0
 11
109.117949
 21
-32.526663
 31
0.0
  0
LINE
  8
MO_001_VIEW_2
  6
C_SOLID_L
 62
    95
 10
106.117948
 20
-31.036531
 30
0.0
 11
109.117949
 21
-28.036531
 31
0.0
  0
ENDBLK
  8
0
  0
BLOCK
  8
MO_001_VIEW_2
  6
C_SOLID_L
 62
     2
  2
*X6
 70
     1
 10
0.0
 20
0.0
 30
0.0
  3
*X6
  0
LINE
  8
MO_001_VIEW_2
  6
C_SOLID_L
 62
     2
 10
110.117947
 20
-40.71847
 30
0.0
 11
109.599583
 21
-40.200106
 31
0.0
  0
LINE
  8
MO_001_VIEW_2
  6
C_SOLID_L
 62
     2
 10
110.754423
 20
-43.600006
 30
0.0
 11
109.117954
 21
-41.963538
 31
0.0
  0
ENDBLK
  8
0
  0
BLOCK
  8
MO_001_VIEW_2
  6
C_SOLID_L
 62
     2
  2
*X7
 70
     1
 10
0.0
 20
0.0
 30
0.0
  3
*X7
  0
LINE
  8
MO_001_VIEW_2
  6
C_SOLID_L
 62
     2
 10
109.117949
 20
-32.991349
 30
0.0
 11
109.126505
 21
-32.999906
 31
0.0
  0
LINE
  8
MO_001_VIEW_2
  6
C_SOLID_L
 62
     2
 10
109.117949
 20
-30.746283
 30
0.0
 11
110.117934
 21
-31.746268
 31
0.0
  0
LINE
  8
MO_001_VIEW_2
  6
C_SOLID_L
 62
     2
 10
109.117952
 20
-28.501225
 30
0.0
 11
111.117948
 21
-30.501222
 31
0.0
  0
LINE
  8
MO_001_VIEW_2
  6
C_SOLID_L
 62
     2
 10
109.117952
 20
-26.256159
 30
0.0
 11
111.117943
 21
-28.25615
 31
0.0
  0
LINE
  8
MO_001_VIEW_2
  6
C_SOLID_L
 62
     2
 10
109.906857
 20
-24.800004
 30
0.0
 11
111.117935
 21
-26.011082
 31
0.0
  0
ENDBLK
  8
0
  0
BLOCK
  8
MO_001_VIEW_2
  6
C_SOLID_L
 62
     1
  2
*X8
 70
     1
 10
0.0
 20
0.0
 30
0.0
  3
*X8
  0
LINE
  8
MO_001_VIEW_2
  6
C_SOLID_L
 62
     1
 10
106.117951
 20
-29.991352
 30
0.0
 11
105.482897
 21
-29.356298
 31
0.0
  0
LINE
  8
MO_001_VIEW_2
  6
C_SOLID_L
 62
     1
 10
106.117946
 20
-32.236412
 30
0.0
 11
104.259757
 21
-30.378223
 31
0.0
  0
LINE
  8
MO_001_VIEW_2
  6
C_SOLID_L
 62
     1
 10
106.117948
 20
-34.481476
 30
0.0
 11
104.117946
 21
-32.481474
 31
0.0
  0
LINE
  8
MO_001_VIEW_2
  6
C_SOLID_L
 62
     1
 10
104.191407
 20
-34.800001
 30
0.0
 11
104.117946
 21
-34.72654
 31
0.0
  0
ENDBLK
  8
0
  0
BLOCK
  8
MO_001_VIEW_2
  6
C_SOLID_L
 62
     1
  2
*X9
 70
     1
 10
0.0
 20
0.0
 30
0.0
  3
*X9
  0
LINE
  8
MO_001_VIEW_2
  6
C_SOLID_L
 62
     1
 10
106.117951
 20
-38.971605
 30
0.0
 11
105.546345
 21
-38.4
 31
0.0
  0
LINE
  8
MO_001_VIEW_2
  6
C_SOLID_L
 62
     1
 10
105.601259
 20
-40.69998
 30
0.0
 11
104.117949
 21
-39.216669
 31
0.0
  0
ENDBLK
  8
0
  0
BLOCK
  8
MO_001_VIEW_2
  6
C_SOLID_M
 62
    95
  2
*X10
 70
     1
 10
0.0
 20
0.0
 30
0.0
  3
*X10
  0
LINE
  8
MO_001_VIEW_2
  6
C_SOLID_M
 62
    95
 10
106.624865
 20
-66.500003
 30
0.0
 11
109.11795
 21
-64.006918
 31
0.0
  0
LINE
  8
MO_001_VIEW_2
  6
C_SOLID_M
 62
    95
 10
106.117947
 20
-62.516789
 30
0.0
 11
109.117949
 21
-59.516787
 31
0.0
  0
LINE
  8
MO_001_VIEW_2
  6
C_SOLID_M
 62
    95
 10
106.117946
 20
-58.026658
 30
0.0
 11
107.044583
 21
-57.100021
 31
0.0
  0
ENDBLK
  8
0
  0
BLOCK
  8
MO_001_VIEW_2
  6
C_SOLID_M
 62
    95
  2
*X11
 70
     1
 10
0.0
 20
0.0
 30
0.0
  3
*X11
  0
LINE
  8
MO_001_VIEW_2
  6
C_SOLID_M
 62
    95
 10
106.117948
 20
-51.036531
 30
0.0
 11
109.117949
 21
-48.036531
 31
0.0
  0
LINE
  8
MO_001_VIEW_2
  6
C_SOLID_M
 62
    95
 10
106.117946
 20
-46.546401
 30
0.0
 11
109.117946
 21
-43.546401
 31
0.0
  0
LINE
  8
MO_001_VIEW_2
  6
C_SOLID_M
 62
    95
 10
106.117948
 20
-42.056277
 30
0.0
 11
108.924222
 21
-39.250004
 31
0.0
  0
ENDBLK
  8
0
  0
BLOCK
  8
MO_001_VIEW_2
  6
C_SOLID_M
  2
*D12
 70
     1
 10
0.0
 20
0.0
 30
0.0
  3
*D12
  0
LINE
  8
MO_001_VIEW_2
  6
BYBLOCK
 10
91.11795
 20
69.241226
 30
0.0
 11
109.11795
 21
69.241226
 31
0.0
  0
SOLID
  8
MO_001_VIEW_2
  6
BYBLOCK
 10
94.436211
 20
69.824738
 30
0.0
 11
91.62595
 21
69.241226
 31
0.0
 12
94.436211
 22
68.657715
 32
0.0
 13
94.436211
 23
68.657715
 33
0.0
  0
SOLID
  8
MO_001_VIEW_2
  6
BYBLOCK
 10
105.79969
 20
68.657715
 30
0.0
 11
108.60995
 21
69.241226
 31
0.0
 12
105.79969
 22
69.824738
 32
0.0
 13
105.79969
 23
69.824738
 33
0.0
  0
LINE
  8
MO_001_VIEW_2
  6
BYBLOCK
 10
91.11795
 20
12.608826
 30
0.0
 11
91.11795
 21
71.527229
 31
0.0
  0
LINE
  8
MO_001_VIEW_2
  6
BYBLOCK
 10
109.11795
 20
53.5
 30
0.0
 11
109.11795
 21
71.527229
 31
0.0
  0
TEXT
  8
MO_001_VIEW_2
  6
BYBLOCK
 10
97.975105
 20
69.866226
 30
0.0
 40
2.5
  1
18
  0
ENDBLK
  8
0
  0
BLOCK
  8
MO_001_VIEW_2
  6
C_SOLID_M
  2
*D13
 70
     1
 10
0.0
 20
0.0
 30
0.0
  3
*D13
  0
TEXT
  8
MO_001_VIEW_2
  6
BYBLOCK
 10
118.178559
 20
61.401672
 30
0.0
 40
2.5
  1
3
  0
LINE
  8
MO_001_VIEW_2
  6
BYBLOCK
 10
106.11795
 20
60.776672
 30
0.0
 11
109.11795
 21
60.776672
 31
0.0
  0
LINE
  8
MO_001_VIEW_2
  6
BYBLOCK
 10
106.11795
 20
60.776672
 30
0.0
 11
99.767951
 21
60.776672
 31
0.0
  0
LINE
  8
MO_001_VIEW_2
  6
BYBLOCK
 10
109.11795
 20
60.776672
 30
0.0
 11
115.46795
 21
60.776672
 31
0.0
  0
SOLID
  8
MO_001_VIEW_2
  6
BYBLOCK
 10
102.79969
 20
60.193161
 30
0.0
 11
105.60995
 21
60.776672
 31
0.0
 12
102.79969
 22
61.360184
 32
0.0
 13
102.79969
 23
61.360184
 33
0.0
  0
SOLID
  8
MO_001_VIEW_2
  6
BYBLOCK
 10
112.436211
 20
61.360184
 30
0.0
 11
109.62595
 21
60.776672
 31
0.0
 12
112.436211
 22
60.193161
 32
0.0
 13
112.436211
 23
60.193161
 33
0.0
  0
LINE
  8
MO_001_VIEW_2
  6
BYBLOCK
 10
106.11795
 20
53.5
 30
0.0
 11
106.11795
 21
63.062672
 31
0.0
  0
LINE
  8
MO_001_VIEW_2
  6
BYBLOCK
 10
109.11795
 20
53.5
 30
0.0
 11
109.11795
 21
63.062672
 31
0.0
  0
LINE
  8
MO_001_VIEW_2
  6
BYBLOCK
 10
109.11795
 20
60.776672
 30
0.0
 11
120.767822
 21
60.776672
 31
0.0
  0
ENDBLK
  8
0
  0
BLOCK
  8
MO_001_VIEW_2
  6
C_SOLID_M
  2
*D14
 70
     1
 10
0.0
 20
0.0
 30
0.0
  3
*D14
  0
TEXT
  8
MO_001_VIEW_2
  6
BYBLOCK
 10
116.883911
 20
37.198753
 30
0.0
 40
2.5
  1
2.00
  0
LINE
  8
MO_001_VIEW_2
  6
BYBLOCK
 10
109.11795
 20
36.573753
 30
0.0
 11
111.11795
 21
36.573753
 31
0.0
  0
LINE
  8
MO_001_VIEW_2
  6
BYBLOCK
 10
109.11795
 20
36.573753
 30
0.0
 11
102.767951
 21
36.573753
 31
0.0
  0
LINE
  8
MO_001_VIEW_2
  6
BYBLOCK
 10
111.11795
 20
36.573753
 30
0.0
 11
117.46795
 21
36.573753
 31
0.0
  0
SOLID
  8
MO_001_VIEW_2
  6
BYBLOCK
 10
105.79969
 20
35.990242
 30
0.0
 11
108.60995
 21
36.573753
 31
0.0
 12
105.79969
 22
37.157265
 32
0.0
 13
105.79969
 23
37.157265
 33
0.0
  0
SOLID
  8
MO_001_VIEW_2
  6
BYBLOCK
 10
114.436211
 20
37.157265
 30
0.0
 11
111.62595
 21
36.573753
 31
0.0
 12
114.436211
 22
35.990242
 32
0.0
 13
114.436211
 23
35.990242
 33
0.0
  0
LINE
  8
MO_001_VIEW_2
  6
BYBLOCK
 10
109.11795
 20
30.599991
 30
0.0
 11
109.11795
 21
38.859753
 31
0.0
  0
LINE
  8
MO_001_VIEW_2
  6
BYBLOCK
 10
111.11795
 20
30.599991
 30
0.0
 11
111.11795
 21
38.859753
 31
0.0
  0
LINE
  8
MO_001_VIEW_2
  6
BYBLOCK
 10
111.11795
 20
36.573753
 30
0.0
 11
126.973175
 21
36.573753
 31
0.0
  0
ENDBLK
  8
0
  0
BLOCK
  8
MO_001_VIEW_1
  6
C_SOLID_L
 62
     2
  2
*X15
 70
     1
 10
0.0
 20
0.0
 30
0.0
  3
*X15
  0
LINE
  8
MO_001_VIEW_1
  6
C_SOLID_L
 62
     2
 10
98.937807
 20
-112.52378
 30
0.0
 11
97.901068
 21
-111.48704
 31
0.0
  0
LINE
  8
MO_001_VIEW_1
  6
C_SOLID_L
 62
     2
 10
100.210745
 20
-118.286844
 30
0.0
 11
96.937819
 21
-115.013918
 31
0.0
  0
ENDBLK
  8
0
  0
BLOCK
  8
MO_001_VIEW_1
  6
C_SOLID_L
 62
     1
  2
*X16
 70
     1
 10
0.0
 20
0.0
 30
0.0
  3
*X16
  0
LINE
  8
MO_001_VIEW_1
  6
C_SOLID_L
 62
     1
 10
86.937808
 20
-111.74137
 30
0.0
 11
87.683239
 21
-112.486801
 31
0.0
  0
LINE
  8
MO_001_VIEW_1
  6
C_SOLID_L
 62
     1
 10
86.937805
 20
-109.945315
 30
0.0
 11
89.479283
 21
-112.486793
 31
0.0
  0
LINE
  8
MO_001_VIEW_1
  6
C_SOLID_L
 62
     1
 10
86.937803
 20
-108.149261
 30
0.0
 11
90.937807
 21
-112.149265
 31
0.0
  0
LINE
  8
MO_001_VIEW_1
  6
C_SOLID_L
 62
     1
 10
88.571452
 20
-107.986859
 30
0.0
 11
90.937804
 21
-110.353211
 31
0.0
  0
LINE
  8
MO_001_VIEW_1
  6
C_SOLID_L
 62
     1
 10
90.367506
 20
-107.986862
 30
0.0
 11
90.937801
 21
-108.557156
 31
0.0
  0
ENDBLK
  8
0
  0
BLOCK
  8
MO_001_VIEW_1
  6
C_SOLID_L
 62
    95
  2
*X17
 70
     1
 10
0.0
 20
0.0
 30
0.0
  3
*X17
  0
LINE
  8
MO_001_VIEW_1
  6
C_SOLID_L
 62
    95
 10
93.010362
 20
-121.465211
 30
0.0
 11
96.937812
 21
-117.537762
 31
0.0
  0
LINE
  8
MO_001_VIEW_1
  6
C_SOLID_L
 62
    95
 10
90.937796
 20
-114.557513
 30
0.0
 11
95.908476
 21
-109.586833
 31
0.0
  0
ENDBLK
  8
0
  0
BLOCK
  8
MO_001_VIEW_1
  6
C_SOLID_L
 62
    95
  2
*X18
 70
     1
 10
0.0
 20
0.0
 30
0.0
  3
*X18
  0
LINE
  8
MO_001_VIEW_1
  6
C_SOLID_L
 62
    95
 10
93.010712
 20
-98.98686
 30
0.0
 11
96.937811
 21
-95.05976
 31
0.0
  0
LINE
  8
MO_001_VIEW_1
  6
C_SOLID_L
 62
    95
 10
90.937798
 20
-92.07953
 30
0.0
 11
96.651412
 21
-86.365916
 31
0.0
  0
ENDBLK
  8
0
  0
BLOCK
  8
MO_001_VIEW_1
  6
C_SOLID_L
 62
     2
  2
*X19
 70
     1
 10
0.0
 20
0.0
 30
0.0
  3
*X19
  0
LINE
  8
MO_001_VIEW_1
  6
C_SOLID_L
 62
     2
 10
96.93782
 20
-93.902589
 30
0.0
 11
98.937789
 21
-95.902559
 31
0.0
  0
LINE
  8
MO_001_VIEW_1
  6
C_SOLID_L
 62
     2
 10
96.937807
 20
-89.412448
 30
0.0
 11
100.612008
 21
-93.08665
 31
0.0
  0
LINE
  8
MO_001_VIEW_1
  6
C_SOLID_L
 62
     2
 10
98.302364
 20
-86.286878
 30
0.0
 11
100.937809
 21
-88.922322
 31
0.0
  0
ENDBLK
  8
0
  0
BLOCK
  8
MO_001_VIEW_1
  6
C_SOLID_L
 62
     1
  2
*X20
 70
     1
 10
0.0
 20
0.0
 30
0.0
  3
*X20
  0
LINE
  8
MO_001_VIEW_1
  6
C_SOLID_L
 62
     1
 10
90.937786
 20
-87.902556
 30
0.0
 11
90.910175
 21
-87.874946
 31
0.0
  0
LINE
  8
MO_001_VIEW_1
  6
C_SOLID_L
 62
     1
 10
90.937787
 20
-90.147621
 30
0.0
 11
89.431528
 21
-88.641362
 31
0.0
  0
LINE
  8
MO_001_VIEW_1
  6
C_SOLID_L
 62
     1
 10
90.937794
 20
-92.392692
 30
0.0
 11
88.049851
 21
-89.504749
 31
0.0
  0
LINE
  8
MO_001_VIEW_1
  6
C_SOLID_L
 62
     1
 10
90.9378
 20
-94.637762
 30
0.0
 11
86.765049
 21
-90.465011
 31
0.0
  0
LINE
  8
MO_001_VIEW_1
  6
C_SOLID_L
 62
     1
 10
90.937796
 20
-96.882822
 30
0.0
 11
86.937802
 21
-92.882828
 31
0.0
  0
LINE
  8
MO_001_VIEW_1
  6
C_SOLID_L
 62
     1
 10
90.937802
 20
-99.127892
 30
0.0
 11
86.937798
 21
-95.127888
 31
0.0
  0
LINE
  8
MO_001_VIEW_1
  6
C_SOLID_L
 62
     1
 10
90.151679
 20
-100.586833
 30
0.0
 11
86.937804
 21
-97.372959
 31
0.0
  0
LINE
  8
MO_001_VIEW_1
  6
C_SOLID_L
 62
     1
 10
87.906619
 20
-100.586837
 30
0.0
 11
86.9378
 21
-99.618018
 31
0.0
  0
ENDBLK
  8
0
  0
ENDSEC
  0
SECTION
  2
ENTITIES
  0
VIEWPORT
  8
0
  6
CONTINUOUS
 62
     0
 67
     1
 68
     1
 10
0.0
 20
0.0
 30
0.0
 40
1000.0
 41
1000.0
 69
     1
1001
ACAD
1000
MVIEW
1002
{
1070
    16
1010
0.0
1020
0.0
1030
0.0
1010
0.0
1020
0.0
1030
1.0
1040
0.0
1040
1000.0
1040
0.0
1040
0.0
1040
50.0
1040
0.0
1040
0.0
1070
     0
1070
   100
1070
     1
1070
     1
1070
     0
1070
     0
1070
     0
1070
     0
1040
0.0
1040
0.0
1040
0.0
1040
1.0
1040
1.0
1040
0.0
1040
0.0
1070
     0
1002
{
1002
}
1002
}
  0
TEXT
  8
OVERLAY_MAP
  6
C_SOLID_L
 10
0.0
 20
6.35
 30
0.0
 40
4.1672
  1
Model Overlay Name
  0
TEXT
  8
OVERLAY_MAP
  6
C_SOLID_L
 10
126.999998
 20
0.0
 30
0.0
 40
4.1672
  1
Number
  0
TEXT
  8
OVERLAY_MAP
  6
C_SOLID_L
 10
177.799997
 20
0.0
 30
0.0
 40
4.1672
  1
File Text
  0
TEXT
  8
OVERLAY_MAP
  6
C_SOLID_L
 10
0.0
 20
-6.35
 30
0.0
 40
4.1672
  1
F:\tb_gruppen\709\uebele\629510_schweiz 
  0
TEXT
  8
OVERLAY_MAP
  6
C_SOLID_L
 10
126.999998
 20
-6.35
 30
0.0
 40
4.1672
  1
001
  0
TEXT
  8
OVERLAY_MAP
  6
C_SOLID_L
 10
177.799997
 20
-6.35
 30
0.0
 40
4.1672
  1
                                                         KOkogu114308053
  0
POINT
  8
MO_001_VIEW_PV
  6
C_SOLID_M
 10
9.5
 20
-6.5
 30
0.0
  0
LINE
  8
MO_001_VIEW_PV
  6
C_CENTER_L
 62
    77
 10
15.961151
 20
22.600006
 30
0.0
 11
2.993866
 21
22.600006
 31
0.0
  0
CIRCLE
  8
MO_001_VIEW_PV
  6
C_SOLID_H
 62
    77
 10
9.5
 20
22.600006
 30
0.0
 40
4.5
  0
LINE
  8
MO_001_VIEW_PV
  6
C_SOLID_H
 62
    77
 10
9.699994
 20
18.104447
 30
0.0
 11
9.699994
 21
21.983468
 31
0.0
  0
LINE
  8
MO_001_VIEW_PV
  6
C_SOLID_H
 62
    77
 10
9.3
 20
18.104447
 30
0.0
 11
9.3
 21
21.983466
 31
0.0
  0
LINE
  8
MO_001_VIEW_PV
  6
C_SOLID_H
 62
    77
 10
11.000047
 20
24.466063
 30
0.0
 11
9.499992
 21
25.332004
 31
0.0
  0
LINE
  8
MO_001_VIEW_PV
  6
C_SOLID_H
 62
    77
 10
9.500001
 20
21.868014
 30
0.0
 11
7.999946
 21
22.733954
 31
0.0
  0
LINE
  8
MO_001_VIEW_PV
  6
C_SOLID_H
 62
    77
 10
8.000054
 20
24.466113
 30
0.0
 11
7.999956
 21
22.73395
 31
0.0
  0
LINE
  8
MO_001_VIEW_PV
  6
C_SOLID_H
 62
    77
 10
11.000054
 20
24.466065
 30
0.0
 11
10.999956
 21
22.733887
 31
0.0
  0
LINE
  8
MO_001_VIEW_PV
  6
C_SOLID_H
 62
    77
 10
10.99996
 20
22.733906
 30
0.0
 11
9.500013
 21
21.868024
 31
0.0
  0
LINE
  8
MO_001_VIEW_PV
  6
C_SOLID_H
 62
    77
 10
9.500015
 20
25.332013
 30
0.0
 11
8.000054
 21
24.466124
 31
0.0
  0
CIRCLE
  8
MO_001_VIEW_PV
  6
C_SOLID_H
 62
    77
 10
9.5
 20
23.600006
 30
0.0
 40
1.5
  0
LINE
  8
MO_001_VIEW_PV
  6
C_CENTER_L
 62
    77
 10
15.961151
 20
-37.600006
 30
0.0
 11
2.993866
 21
-37.600006
 31
0.0
  0
CIRCLE
  8
MO_001_VIEW_PV
  6
C_SOLID_H
 62
    77
 10
9.5
 20
-37.600006
 30
0.0
 40
4.5
  0
LINE
  8
MO_001_VIEW_PV
  6
C_SOLID_H
 62
    77
 10
9.699997
 20
-42.095565
 30
0.0
 11
9.699997
 21
-38.216552
 31
0.0
  0
LINE
  8
MO_001_VIEW_PV
  6
C_SOLID_H
 62
    77
 10
9.300003
 20
-42.095565
 30
0.0
 11
9.300003
 21
-38.216537
 31
0.0
  0
LINE
  8
MO_001_VIEW_PV
  6
C_SOLID_H
 62
    77
 10
11.00006
 20
-35.733947
 30
0.0
 11
9.500005
 21
-34.868006
 31
0.0
  0
LINE
  8
MO_001_VIEW_PV
  6
C_SOLID_H
 62
    77
 10
9.500013
 20
-38.331996
 30
0.0
 11
7.999958
 21
-37.466056
 31
0.0
  0
LINE
  8
MO_001_VIEW_PV
  6
C_SOLID_H
 62
    77
 10
8.000059
 20
-35.733898
 30
0.0
 11
7.999961
 21
-37.46606
 31
0.0
  0
LINE
  8
MO_001_VIEW_PV
  6
C_SOLID_H
 62
    77
 10
11.000059
 20
-35.733946
 30
0.0
 11
10.999961
 21
-37.466124
 31
0.0
  0
LINE
  8
MO_001_VIEW_PV
  6
C_SOLID_H
 62
    77
 10
10.999952
 20
-37.466124
 30
0.0
 11
9.500005
 21
-38.332006
 31
0.0
  0
LINE
  8
MO_001_VIEW_PV
  6
C_SOLID_H
 62
    77
 10
9.500007
 20
-34.868016
 30
0.0
 11
8.000059
 21
-35.733898
 31
0.0
  0
CIRCLE
  8
MO_001_VIEW_PV
  6
C_SOLID_H
 62
    77
 10
9.5
 20
-36.600006
 30
0.0
 40
1.5
  0
LINE
  8
MO_001_VIEW_PV
  6
C_CENTER_L
 62
     2
 10
2.75
 20
23.600006
 30
0.0
 11
16.25
 21
23.600006
 31
0.0
  0
LINE
  8
MO_001_VIEW_PV
  6
C_CENTER_L
 62
     2
 10
10.500014
 20
28.953522
 30
0.0
 11
10.500014
 21
16.768128
 31
0.0
  0
LINE
  8
MO_001_VIEW_PV
  6
C_CENTER_L
 62
     2
 10
8.500014
 20
28.862458
 30
0.0
 11
8.500014
 21
16.783051
 31
0.0
  0
LINE
  8
MO_001_VIEW_PV
  6
C_SOLID_H
 62
     2
 10
7.950012
 20
27.150101
 30
0.0
 11
11.050003
 21
27.150101
 31
0.0
  0
LINE
  8
MO_001_VIEW_PV
  6
C_SOLID_H
 62
     2
 10
4.950011
 20
23.650101
 30
0.0
 11
4.950011
 21
23.549912
 31
0.0
  0
LINE
  8
MO_001_VIEW_PV
  6
C_SOLID_H
 62
     2
 10
14.050002
 20
23.650101
 30
0.0
 11
14.050002
 21
23.549912
 31
0.0
  0
ARC
  8
MO_001_VIEW_PV
  6
C_SOLID_H
 62
     2
 10
9.5
 20
22.550003
 30
0.0
 40
4.549998
 50
179.37033
 51
360.629671
  0
ARC
  8
MO_001_VIEW_PV
  6
C_SOLID_H
 62
     2
 10
9.5
 20
24.650009
 30
0.0
 40
4.549998
 50
0.0
 51
180.629653
  0
LINE
  8
MO_001_VIEW_PV
  6
C_SOLID_H
 62
     2
 10
14.050002
 20
24.65001
 30
0.0
 11
14.050002
 21
22.550004
 31
0.0
  0
LINE
  8
MO_001_VIEW_PV
  6
C_SOLID_H
 62
     2
 10
4.950011
 20
24.650009
 30
0.0
 11
4.950011
 21
22.550003
 31
0.0
  0
LINE
  8
MO_001_VIEW_PV
  6
C_SOLID_H
 62
     2
 10
14.050001
 20
-36.650101
 30
0.0
 11
14.050001
 21
-36.549912
 31
0.0
  0
ARC
  8
MO_001_VIEW_PV
  6
C_SOLID_H
 62
     2
 10
7.950012
 20
23.049911
 30
0.0
 40
3.0
 50
179.999964
 51
190.59397
  0
ARC
  8
MO_001_VIEW_PV
  6
C_SOLID_H
 62
     2
 10
11.050003
 20
23.049911
 30
0.0
 40
3.0
 50
349.404242
 51
0.000001
  0
ARC
  8
MO_001_VIEW_PV
  6
C_SOLID_H
 62
     2
 10
7.950012
 20
24.150101
 30
0.0
 40
3.0
 50
89.999982
 51
179.999964
  0
ARC
  8
MO_001_VIEW_PV
  6
C_SOLID_H
 62
     2
 10
11.050003
 20
24.150101
 30
0.0
 40
3.0
 50
0.0
 51
89.999982
  0
LINE
  8
MO_001_VIEW_PV
  6
C_CENTER_L
 62
     2
 10
2.75
 20
22.5
 30
0.0
 11
16.25
 21
22.5
 31
0.0
  0
LINE
  8
MO_001_VIEW_PV
  6
C_CENTER_L
 62
     2
 10
2.75
 20
-36.600006
 30
0.0
 11
16.25
 21
-36.600006
 31
0.0
  0
LINE
  8
MO_001_VIEW_PV
  6
C_CENTER_L
 62
     2
 10
10.500013
 20
-41.953522
 30
0.0
 11
10.500014
 21
-29.768128
 31
0.0
  0
LINE
  8
MO_001_VIEW_PV
  6
C_CENTER_L
 62
     2
 10
8.500013
 20
-41.862458
 30
0.0
 11
8.500014
 21
-29.783051
 31
0.0
  0
LINE
  8
MO_001_VIEW_PV
  6
C_SOLID_H
 62
     2
 10
4.95001
 20
-36.650101
 30
0.0
 11
4.95001
 21
-36.549912
 31
0.0
  0
LINE
  8
MO_001_VIEW_PV
  6
C_SOLID_H
 62
     2
 10
14.050001
 20
-36.650101
 30
0.0
 11
14.050001
 21
-36.549912
 31
0.0
  0
ARC
  8
MO_001_VIEW_PV
  6
C_SOLID_H
 62
     2
 10
9.5
 20
-35.550003
 30
0.0
 40
4.549998
 50
359.370329
 51
180.629653
  0
ARC
  8
MO_001_VIEW_PV
  6
C_SOLID_H
 62
     2
 10
9.5
 20
-37.650009
 30
0.0
 40
4.549998
 50
179.37033
 51
360.0
  0
LINE
  8
MO_001_VIEW_PV
  6
C_SOLID_H
 62
     2
 10
14.050001
 20
-37.65001
 30
0.0
 11
14.050001
 21
-35.550004
 31
0.0
  0
LINE
  8
MO_001_VIEW_PV
  6
C_SOLID_H
 62
     2
 10
4.95001
 20
-37.650009
 30
0.0
 11
4.950011
 21
-35.550003
 31
0.0
  0
LINE
  8
MO_001_VIEW_PV
  6
C_SOLID_H
 62
     2
 10
7.950012
 20
-33.049911
 30
0.0
 11
11.050003
 21
-33.049911
 31
0.0
  0
ARC
  8
MO_001_VIEW_PV
  6
C_SOLID_H
 62
     2
 10
7.950012
 20
-36.049911
 30
0.0
 40
3.0
 50
89.999982
 51
180.000019
  0
ARC
  8
MO_001_VIEW_PV
  6
C_SOLID_H
 62
     2
 10
11.050003
 20
-36.049911
 30
0.0
 40
3.0
 50
0.0
 51
90.000037
  0
ARC
  8
MO_001_VIEW_PV
  6
C_SOLID_H
 62
     2
 10
7.950012
 20
-37.150101
 30
0.0
 40
3.0
 50
180.000036
 51
190.593933
  0
ARC
  8
MO_001_VIEW_PV
  6
C_SOLID_H
 62
     2
 10
11.050003
 20
-37.150101
 30
0.0
 40
3.0
 50
349.404242
 51
359.999946
  0
LINE
  8
MO_001_VIEW_PV
  6
C_CENTER_L
 62
     2
 10
2.75
 20
-37.700012
 30
0.0
 11
16.25
 21
-37.700012
 31
0.0
  0
LINE
  8
MO_001_VIEW_PV
  6
C_SOLID_H
 62
     2
 10
3.800003
 20
8.5
 30
0.0
 11
3.800004
 21
-21.5
 31
0.0
  0
LINE
  8
MO_001_VIEW_PV
  6
C_SOLID_H
 62
     2
 10
15.199997
 20
8.500001
 30
0.0
 11
15.199998
 21
-21.499999
 31
0.0
  0
ARC
  8
MO_001_VIEW_PV
  6
C_SOLID_H
 62
     2
 10
8.800003
 20
-21.5
 30
0.0
 40
5.0
 50
180.000036
 51
270.000018
  0
ARC
  8
MO_001_VIEW_PV
  6
C_SOLID_H
 62
     2
 10
10.199997
 20
-21.5
 30
0.0
 40
5.0
 50
269.999963
 51
359.999963
  0
LINE
  8
MO_001_VIEW_PV
  6
C_SOLID_H
 62
     2
 10
8.800003
 20
-26.5
 30
0.0
 11
10.199997
 21
-26.5
 31
0.0
  0
LINE
  8
MO_001_VIEW_PV
  6
C_SOLID_H
 62
     2
 10
15.96637
 20
-21.5
 30
0.0
 11
15.96637
 21
8.5
 31
0.0
  0
LINE
  8
MO_001_VIEW_PV
  6
C_SOLID_H
 62
     2
 10
2.999986
 20
-21.5
 30
0.0
 11
2.999984
 21
8.5
 31
0.0
  0
ARC
  8
MO_001_VIEW_PV
  6
C_SOLID_H
 62
     2
 10
8.800003
 20
-21.5
 30
0.0
 40
5.800014
 50
180.000036
 51
270.000018
  0
LINE
  8
MO_001_VIEW_PV
  6
C_SOLID_H
 62
     2
 10
8.800003
 20
-27.300018
 30
0.0
 11
10.199997
 21
-27.300018
 31
0.0
  0
ARC
  8
MO_001_VIEW_PV
  6
C_SOLID_H
 62
     2
 10
10.199997
 20
-21.5
 30
0.0
 40
5.800018
 50
269.999963
 51
359.999963
  0
ARC
  8
MO_001_VIEW_PV
  6
C_SOLID_H
 62
     2
 10
8.800003
 20
8.5
 30
0.0
 40
5.0
 50
89.999982
 51
179.999964
  0
ARC
  8
MO_001_VIEW_PV
  6
C_SOLID_H
 62
     2
 10
10.199997
 20
8.5
 30
0.0
 40
5.0
 50
0.0
 51
90.000037
  0
LINE
  8
MO_001_VIEW_PV
  6
C_SOLID_H
 62
     2
 10
8.800003
 20
13.5
 30
0.0
 11
10.199997
 21
13.5
 31
0.0
  0
ARC
  8
MO_001_VIEW_PV
  6
C_SOLID_H
 62
     2
 10
8.800003
 20
8.5
 30
0.0
 40
5.800014
 50
89.999982
 51
179.999964
  0
LINE
  8
MO_001_VIEW_PV
  6
C_SOLID_H
 62
     2
 10
8.800003
 20
14.300018
 30
0.0
 11
10.199997
 21
14.300018
 31
0.0
  0
ARC
  8
MO_001_VIEW_PV
  6
C_SOLID_H
 62
     2
 10
10.199997
 20
8.5
 30
0.0
 40
5.800018
 50
0.0
 51
90.000037
  0
LINE
  8
MO_001_VIEW_PV
  6
C_SOLID_H
 62
    26
 10
-2.500002
 20
-66.5
 30
0.0
 11
-2.500002
 21
53.5
 31
0.0
  0
LINE
  8
MO_001_VIEW_PV
  6
C_SOLID_H
 62
    26
 10
-2.500002
 20
53.5
 30
0.0
 11
21.499985
 21
53.5
 31
0.0
  0
LINE
  8
MO_001_VIEW_PV
  6
C_CENTER_L
 62
    26
 10
-4.384216
 20
-6.5
 30
0.0
 11
23.684357
 21
-6.5
 31
0.0
  0
LINE
  8
MO_001_VIEW_PV
  6
C_DASHED_L
 62
    26
 10
3.000001
 20
-19.035995
 30
0.0
 11
3.0
 21
6.035997
 31
0.0
  0
LINE
  8
MO_001_VIEW_PV
  6
C_DASHED_L
 62
    26
 10
16.0
 20
-19.035995
 30
0.0
 11
15.999999
 21
6.035997
 31
0.0
  0
LINE
  8
MO_001_VIEW_PV
  6
C_DASHED_L
 62
    26
 10
13.500013
 20
-27.0
 30
0.0
 11
5.50865
 21
-27.0
 31
0.0
  0
LINE
  8
MO_001_VIEW_PV
  6
C_DASHED_L
 62
    26
 10
4.031429
 20
-25.760473
 30
0.0
 11
3.151908
 21
-20.772464
 31
0.0
  0
ARC
  8
MO_001_VIEW_PV
  6
C_DASHED_L
 62
    26
 10
12.999998
 20
-19.035995
 30
0.0
 40
10.0
 50
179.999964
 51
189.999962
  0
ARC
  8
MO_001_VIEW_PV
  6
C_DASHED_L
 62
    26
 10
5.50865
 20
-25.5
 30
0.0
 40
1.5
 50
189.999979
 51
269.999909
  0
LINE
  8
MO_001_VIEW_PV
  6
C_DASHED_L
 62
    26
 10
14.968565
 20
-25.760473
 30
0.0
 11
15.848083
 21
-20.772479
 31
0.0
  0
ARC
  8
MO_001_VIEW_PV
  6
C_DASHED_L
 62
    26
 10
5.999998
 20
-19.035995
 30
0.0
 40
10.0
 50
350.000019
 51
0.000018
  0
ARC
  8
MO_001_VIEW_PV
  6
C_DASHED_L
 62
    26
 10
13.491346
 20
-25.5
 30
0.0
 40
1.5
 50
270.000073
 51
350.000019
  0
LINE
  8
MO_001_VIEW_PV
  6
C_DASHED_L
 62
    26
 10
13.500013
 20
14.0
 30
0.0
 11
5.50865
 21
14.0
 31
0.0
  0
LINE
  8
MO_001_VIEW_PV
  6
C_DASHED_L
 62
    26
 10
4.03144
 20
12.760484
 30
0.0
 11
3.15192
 21
7.772476
 31
0.0
  0
ARC
  8
MO_001_VIEW_PV
  6
C_DASHED_L
 62
    26
 10
12.999998
 20
6.035995
 30
0.0
 40
10.0
 50
170.000021
 51
180.000019
  0
ARC
  8
MO_001_VIEW_PV
  6
C_DASHED_L
 62
    26
 10
5.50865
 20
12.5
 30
0.0
 40
1.5
 50
90.000091
 51
170.000021
  0
LINE
  8
MO_001_VIEW_PV
  6
C_DASHED_L
 62
    26
 10
14.968567
 20
12.760455
 30
0.0
 11
15.848088
 21
7.77244
 31
0.0
  0
ARC
  8
MO_001_VIEW_PV
  6
C_DASHED_L
 62
    26
 10
5.999998
 20
6.035995
 30
0.0
 40
10.0
 50
0.0
 51
9.99996
  0
ARC
  8
MO_001_VIEW_PV
  6
C_DASHED_L
 62
    26
 10
13.491346
 20
12.5
 30
0.0
 40
1.5
 50
9.99996
 51
89.999927
  0
LINE
  8
MO_001_VIEW_PV
  6
C_CENTER_L
 62
    26
 10
9.500003
 20
-72.072235
 30
0.0
 11
9.499997
 21
56.015641
 31
0.0
  0
LINE
  8
MO_001_VIEW_PV
  6
C_SOLID_H
 62
    26
 10
21.499985
 20
-66.5
 30
0.0
 11
21.499985
 21
53.5
 31
0.0
  0
LINE
  8
MO_001_VIEW_PV
  6
C_SOLID_H
 62
    26
 10
-2.500002
 20
-66.5
 30
0.0
 11
21.499985
 21
-66.5
 31
0.0
  0
LINE
  8
MO_001_VIEW_PV
  6
C_CENTER_L
 62
    26
 10
2.52693
 20
-54.5
 30
0.0
 11
16.685455
 21
-54.5
 31
0.0
  0
LINE
  8
MO_001_VIEW_PV
  6
C_CENTER_L
 62
    26
 10
3.440382
 20
41.5
 30
0.0
 11
16.000366
 21
41.5
 31
0.0
  0
CIRCLE
  8
MO_001_VIEW_PV
  6
C_SOLID_H
 62
    26
 10
9.499997
 20
41.5
 30
0.0
 40
4.15
  0
CIRCLE
  8
MO_001_VIEW_PV
  6
C_SOLID_H
 62
    26
 10
9.500002
 20
-54.5
 30
0.0
 40
4.15
  0
CIRCLE
  8
MO_001_VIEW_PV
  6
C_SOLID_H
 62
    26
 10
9.500002
 20
-54.5
 30
0.0
 40
2.599999
  0
CIRCLE
  8
MO_001_VIEW_PV
  6
C_SOLID_H
 62
    26
 10
9.499997
 20
41.5
 30
0.0
 40
2.599999
  0
LINE
  8
MO_001_VIEW_PV
  6
C_SOLID_H
 62
     2
 10
1.000002
 20
-35.100006
 30
0.0
 11
0.999999
 21
22.100004
 31
0.0
  0
LINE
  8
MO_001_VIEW_PV
  6
C_SOLID_H
 62
     2
 10
18.000002
 20
-35.100005
 30
0.0
 11
17.999999
 21
22.100005
 31
0.0
  0
ARC
  8
MO_001_VIEW_PV
  6
C_SOLID_H
 62
     2
 10
9.499999
 20
22.100006
 30
0.0
 40
8.5
 50
0.0
 51
179.999964
  0
ARC
  8
MO_001_VIEW_PV
  6
C_SOLID_H
 62
     2
 10
9.500002
 20
-35.100006
 30
0.0
 40
8.5
 50
180.000036
 51
0.000003
  0
DIMENSION
  8
MO_001_VIEW_PV
  6
C_SOLID_M
  2
*D0
 10
9.499991
 20
-82.562958
 30
0.0
 11
9.499991
 21
-82.562958
 31
0.0
  1
24
 13
21.499985
 23
-66.5
 33
0.0
 14
-2.500002
 24
-66.5
 34
0.0
  3
STANDARD
  0
DIMENSION
  8
MO_001_VIEW_PV
  6
C_SOLID_M
  2
*D1
 10
54.073517
 20
-6.5
 30
0.0
 11
54.073517
 21
-6.5
 31
0.0
  1
120
 13
21.499985
 23
53.5
 33
0.0
 14
21.499985
 24
-66.5
 34
0.0
 50
89.999523
  3
STANDARD
  0
DIMENSION
  8
MO_001_VIEW_PV
  6
C_SOLID_M
  2
*D2
 10
37.231674
 20
-6.5
 30
0.0
 11
37.231674
 21
-6.5
 31
0.0
  1
96
 13
16.000366
 23
41.5
 33
0.0
 14
16.685455
 24
-54.5
 34
0.0
 50
89.999523
  3
STANDARD
  0
DIMENSION
  8
MO_001_VIEW_PV
  6
C_SOLID_M
  2
*D3
 10
11.126946
 20
43.528061
 30
0.0
 11
24.845663
 21
60.629025
 31
0.0
 70
     3
  1
%%C 5.2
 15
7.873048
 25
39.471939
 35
0.0
  3
STANDARD
  0
DIMENSION
  8
MO_001_VIEW_PV
  6
C_SOLID_M
  2
*D4
 10
6.339271
 20
44.189294
 30
0.0
 11
-13.15411
 21
60.775177
 31
0.0
 70
     3
  1
%%C 8.3
 15
12.660724
 25
38.810706
 35
0.0
  3
STANDARD
  0
LINE
  8
MO_001_VIEW_RA
  6
C_SOLID_M
 10
140.916138
 20
91.195801
 30
0.0
 11
140.916138
 21
-139.804199
 31
0.0
  0
LINE
  8
MO_001_VIEW_RA
  6
C_SOLID_M
 10
-39.083862
 20
91.195801
 30
0.0
 11
-39.083862
 21
-139.804199
 31
0.0
  0
LINE
  8
MO_001_VIEW_RA
  6
C_SOLID_M
 10
-39.083862
 20
91.195801
 30
0.0
 11
140.916138
 21
91.195801
 31
0.0
  0
LINE
  8
MO_001_VIEW_RA
  6
C_SOLID_L
 10
145.916138
 20
96.195801
 30
0.0
 11
145.916138
 21
-200.804199
 31
0.0
  0
LINE
  8
MO_001_VIEW_RA
  6
C_SOLID_L
 10
-64.083862
 20
96.195801
 30
0.0
 11
145.916138
 21
96.195801
 31
0.0
  0
LINE
  8
MO_001_VIEW_RA
  6
C_SOLID_L
 10
-64.083862
 20
-200.804199
 30
0.0
 11
145.916138
 21
-200.804199
 31
0.0
  0
LINE
  8
MO_001_VIEW_RA
  6
C_SOLID_L
 10
-64.083862
 20
96.195801
 30
0.0
 11
-64.083862
 21
-200.804199
 31
0.0
  0
LINE
  8
MO_001_VIEW_RA
  6
C_SOLID_L
 10
-63.083862
 20
-52.304199
 30
0.0
 11
-49.083862
 21
-52.304199
 31
0.0
  0
LINE
  8
MO_001_VIEW_RA
  6
C_SOLID_M
 10
-59.083862
 20
-108.804199
 30
0.0
 11
-39.083862
 21
-108.804199
 31
0.0
  0
LINE
  8
MO_001_VIEW_RA
  6
C_SOLID_M
 10
-59.083862
 20
-108.804199
 30
0.0
 11
-59.083862
 21
-168.804199
 31
0.0
  0
LINE
  8
MO_001_VIEW_RA
  6
C_SOLID_M
 10
-59.083862
 20
-114.804199
 30
0.0
 11
-39.083862
 21
-114.804199
 31
0.0
  0
LINE
  8
MO_001_VIEW_RA
  6
C_SOLID_M
 10
-59.083862
 20
-120.804199
 30
0.0
 11
-39.083862
 21
-120.804199
 31
0.0
  0
LINE
  8
MO_001_VIEW_RA
  6
C_SOLID_M
 10
-59.083862
 20
-126.804199
 30
0.0
 11
-39.083862
 21
-126.804199
 31
0.0
  0
LINE
  8
MO_001_VIEW_RA
  6
C_SOLID_M
 10
-59.083862
 20
-132.804199
 30
0.0
 11
-39.083862
 21
-132.804199
 31
0.0
  0
LINE
  8
MO_001_VIEW_RA
  6
C_SOLID_M
 10
-59.083862
 20
-138.804199
 30
0.0
 11
-39.083862
 21
-138.804199
 31
0.0
  0
LINE
  8
MO_001_VIEW_RA
  6
C_SOLID_M
 10
-59.083862
 20
-144.804199
 30
0.0
 11
-39.083862
 21
-144.804199
 31
0.0
  0
LINE
  8
MO_001_VIEW_RA
  6
C_SOLID_M
 10
-59.083862
 20
-150.804199
 30
0.0
 11
-39.083862
 21
-150.804199
 31
0.0
  0
LINE
  8
MO_001_VIEW_RA
  6
C_SOLID_M
 10
-49.083862
 20
-114.804199
 30
0.0
 11
-49.083862
 21
-150.804199
 31
0.0
  0
LINE
  8
MO_001_VIEW_RA
  6
C_SOLID_M
 10
-59.083862
 20
-156.804199
 30
0.0
 11
-39.083862
 21
-156.804199
 31
0.0
  0
LINE
  8
MO_001_VIEW_RA
  6
C_SOLID_M
 10
-59.083862
 20
-162.804199
 30
0.0
 11
-39.083862
 21
-162.804199
 31
0.0
  0
LINE
  8
MO_001_VIEW_RA
  6
C_SOLID_M
 10
-59.083862
 20
-168.804199
 30
0.0
 11
-39.083862
 21
-168.804199
 31
0.0
  0
LINE
  8
MO_001_VIEW_RA
  6
C_NC
 10
146.916138
 20
97.195801
 30
0.0
 11
146.916138
 21
-201.804199
 31
0.0
  0
LINE
  8
MO_001_VIEW_RA
  6
C_NC
 10
-65.083862
 20
97.195801
 30
0.0
 11
146.916138
 21
97.195801
 31
0.0
  0
LINE
  8
MO_001_VIEW_RA
  6
C_SOLID_M
 10
-39.083878
 20
-139.804199
 30
0.0
 11
-39.083878
 21
-181.016113
 31
0.0
  0
LINE
  8
MO_001_VIEW_RA
  6
C_SOLID_M
 10
75.916031
 20
-183.804199
 30
0.0
 11
140.916138
 21
-183.804199
 31
0.0
  0
LINE
  8
MO_001_VIEW_RA
  6
C_SOLID_M
 10
113.916138
 20
-175.804199
 30
0.0
 11
113.916138
 21
-183.804199
 31
0.0
  0
LINE
  8
MO_001_VIEW_RA
  6
C_SOLID_M
 10
82.916031
 20
-188.304199
 30
0.0
 11
82.916031
 21
-195.804199
 31
0.0
  0
LINE
  8
MO_001_VIEW_RA
  6
C_SOLID_H
 10
-9.083982
 20
-195.304199
 30
0.0
 11
140.916138
 21
-195.304199
 31
0.0
  0
LINE
  8
MO_001_VIEW_RA
  6
C_SOLID_H
 10
-9.083982
 20
-176.304199
 30
0.0
 11
140.916138
 21
-176.304199
 31
0.0
  0
LINE
  8
MO_001_VIEW_RA
  6
C_SOLID_H
 10
-8.583982
 20
-175.804199
 30
0.0
 11
-8.583982
 21
-195.804199
 31
0.0
  0
LINE
  8
MO_001_VIEW_RA
  6
C_SOLID_H
 10
140.416138
 20
-175.804199
 30
0.0
 11
140.416138
 21
-195.804199
 31
0.0
  0
LINE
  8
MO_001_VIEW_RA
  6
C_SOLID_H
 10
75.416031
 20
-175.804199
 30
0.0
 11
75.416031
 21
-195.804199
 31
0.0
  0
LINE
  8
MO_001_VIEW_RA
  6
C_SOLID_M
 10
119.216187
 20
-180.238525
 30
0.0
 11
119.216187
 21
-183.804199
 31
0.0
  0
LINE
  8
MO_001_VIEW_RA
  6
C_SOLID_M
 10
124.516235
 20
-182.272949
 30
0.0
 11
124.516235
 21
-183.804199
 31
0.0
  0
LINE
  8
MO_001_VIEW_RA
  6
C_SOLID_M
 10
129.816284
 20
-180.193359
 30
0.0
 11
129.816284
 21
-183.804199
 31
0.0
  0
LINE
  8
MO_001_VIEW_RA
  6
C_SOLID_M
 10
135.116333
 20
-182.227783
 30
0.0
 11
135.116333
 21
-183.804199
 31
0.0
  0
LINE
  8
MO_001_VIEW_RA
  6
C_SOLID_M
 10
103.316284
 20
-175.804199
 30
0.0
 11
103.316284
 21
-183.804199
 31
0.0
  0
LINE
  8
MO_001_VIEW_RA
  6
C_SOLID_M
 10
108.616333
 20
-182.179688
 30
0.0
 11
108.616333
 21
-183.804199
 31
0.0
  0
LINE
  8
MO_001_VIEW_RA
  6
C_SOLID_M
 10
132.916138
 20
-183.804199
 30
0.0
 11
132.916138
 21
-195.804199
 31
0.0
  0
LINE
  8
MO_001_VIEW_RA
  6
C_SOLID_M
 10
87.916031
 20
-195.804199
 30
0.0
 11
87.916031
 21
-193.304199
 31
0.0
  0
LINE
  8
MO_001_VIEW_RA
  6
C_SOLID_M
 10
97.916031
 20
-195.804199
 30
0.0
 11
97.916031
 21
-193.304199
 31
0.0
  0
LINE
  8
MO_001_VIEW_RA
  6
C_SOLID_M
 10
102.916138
 20
-195.804199
 30
0.0
 11
102.916138
 21
-193.304199
 31
0.0
  0
LINE
  8
MO_001_VIEW_RA
  6
C_SOLID_M
 10
112.916138
 20
-195.804199
 30
0.0
 11
112.916138
 21
-193.304199
 31
0.0
  0
LINE
  8
MO_001_VIEW_RA
  6
C_SOLID_M
 10
127.916138
 20
-195.804199
 30
0.0
 11
127.916138
 21
-193.304199
 31
0.0
  0
LINE
  8
MO_001_VIEW_RA
  6
C_SOLID_M
 10
92.916031
 20
-193.304199
 30
0.0
 11
92.916031
 21
-195.804199
 31
0.0
  0
LINE
  8
MO_001_VIEW_RA
  6
C_SOLID_M
 10
122.916138
 20
-195.804199
 30
0.0
 11
122.916138
 21
-183.804199
 31
0.0
  0
LINE
  8
MO_001_VIEW_RA
  6
C_SOLID_M
 10
117.916138
 20
-195.804199
 30
0.0
 11
117.916138
 21
-183.804199
 31
0.0
  0
LINE
  8
MO_001_VIEW_RA
  6
C_SOLID_M
 10
107.916138
 20
-195.804199
 30
0.0
 11
107.916138
 21
-188.304199
 31
0.0
  0
LINE
  8
MO_001_VIEW_RA
  6
C_SOLID_H
 10
-9.083982
 20
-175.804199
 30
0.0
 11
140.916138
 21
-175.804199
 31
0.0
  0
LINE
  8
MO_001_VIEW_RA
  6
C_SOLID_H
 10
-9.083982
 20
-195.804199
 30
0.0
 11
140.916138
 21
-195.804199
 31
0.0
  0
LINE
  8
MO_001_VIEW_RA
  6
C_SOLID_M
 10
-9.083982
 20
-175.804199
 30
0.0
 11
-39.083878
 21
-175.804199
 31
0.0
  0
LINE
  8
MO_001_VIEW_RA
  6
C_SOLID_M
 10
-9.083982
 20
-195.804199
 30
0.0
 11
-39.083878
 21
-195.804199
 31
0.0
  0
LINE
  8
MO_001_VIEW_RA
  6
C_SOLID_H
 10
-9.083982
 20
-175.804199
 30
0.0
 11
-9.083982
 21
-195.804199
 31
0.0
  0
LINE
  8
MO_001_VIEW_RA
  6
C_SOLID_H
 10
75.916031
 20
-175.804199
 30
0.0
 11
75.916031
 21
-195.804199
 31
0.0
  0
LINE
  8
MO_001_VIEW_RA
  6
C_SOLID_H
 10
140.916138
 20
-175.804199
 30
0.0
 11
140.916138
 21
-195.804199
 31
0.0
  0
LINE
  8
MO_001_VIEW_RA
  6
C_SOLID_M
 10
140.916138
 20
-175.804199
 30
0.0
 11
140.916138
 21
-139.804199
 31
0.0
  0
LINE
  8
MO_001_VIEW_RA
  6
C_SOLID_M
 10
-39.083878
 20
-181.016113
 30
0.0
 11
-39.083878
 21
-195.804199
 31
0.0
  0
LINE
  8
MO_001_VIEW_RA
  6
C_SOLID_H
 10
-32.839273
 20
-187.371748
 30
0.0
 11
-31.039239
 21
-189.171813
 31
0.0
  0
LINE
  8
MO_001_VIEW_RA
  6
C_SOLID_H
 10
-31.039383
 20
-189.171875
 30
0.0
 11
-35.239365
 21
-189.171875
 31
0.0
  0
LINE
  8
MO_001_VIEW_RA
  6
C_SOLID_H
 10
-35.239365
 20
-189.171875
 30
0.0
 11
-35.239365
 21
-193.371826
 31
0.0
  0
LINE
  8
MO_001_VIEW_RA
  6
C_SOLID_H
 10
-35.23934
 20
-193.371766
 30
0.0
 11
-37.039389
 21
-191.571717
 31
0.0
  0
LINE
  8
MO_001_VIEW_RA
  6
C_SOLID_H
 10
-37.039383
 20
-191.572021
 30
0.0
 11
-37.039383
 21
-187.371826
 31
0.0
  0
LINE
  8
MO_001_VIEW_RA
  6
C_SOLID_H
 10
-34.639359
 20
-191.572021
 30
0.0
 11
-34.639359
 21
-189.771973
 31
0.0
  0
LINE
  8
MO_001_VIEW_RA
  6
C_SOLID_H
 10
-34.639359
 20
-189.771973
 30
0.0
 11
-32.839371
 21
-189.771973
 31
0.0
  0
LINE
  8
MO_001_VIEW_RA
  6
C_SOLID_H
 10
-32.839466
 20
-189.771872
 30
0.0
 11
-31.039431
 21
-191.571937
 31
0.0
  0
LINE
  8
MO_001_VIEW_RA
  6
C_SOLID_H
 10
-31.039383
 20
-191.572021
 30
0.0
 11
-32.839371
 21
-191.572021
 31
0.0
  0
LINE
  8
MO_001_VIEW_RA
  6
C_SOLID_H
 10
-34.639185
 20
-191.571906
 30
0.0
 11
-32.839324
 21
-193.371798
 31
0.0
  0
LINE
  8
MO_001_VIEW_RA
  6
C_SOLID_H
 10
-32.839371
 20
-193.371826
 30
0.0
 11
-32.839371
 21
-191.572021
 31
0.0
  0
LINE
  8
MO_001_VIEW_RA
  6
C_SOLID_H
 10
-20.917465
 20
-178.44043
 30
0.0
 11
-20.917465
 21
-182.840332
 31
0.0
  0
LINE
  8
MO_001_VIEW_RA
  6
C_SOLID_H
 10
-19.917465
 20
-178.44043
 30
0.0
 11
-19.917465
 21
-182.840332
 31
0.0
  0
LINE
  8
MO_001_VIEW_RA
  6
C_SOLID_H
 10
-22.817368
 20
-178.44043
 30
0.0
 11
-22.817368
 21
-181.040283
 31
0.0
  0
LINE
  8
MO_001_VIEW_RA
  6
C_SOLID_H
 10
-18.017319
 20
-178.44043
 30
0.0
 11
-18.017319
 21
-182.840332
 31
0.0
  0
LINE
  8
MO_001_VIEW_RA
  6
C_SOLID_H
 10
-24.217514
 20
-181.040283
 30
0.0
 11
-24.217514
 21
-182.440186
 31
0.0
  0
LINE
  8
MO_001_VIEW_RA
  6
C_SOLID_H
 10
-28.617447
 20
-181.040283
 30
0.0
 11
-24.488266
 21
-181.040283
 31
0.0
  0
LINE
  8
MO_001_VIEW_RA
  6
C_SOLID_H
 10
-28.617447
 20
-182.440186
 30
0.0
 11
-26.368149
 21
-182.440186
 31
0.0
  0
LINE
  8
MO_001_VIEW_RA
  6
C_SOLID_H
 10
-22.817368
 20
-178.44043
 30
0.0
 11
-20.917465
 21
-178.44043
 31
0.0
  0
LINE
  8
MO_001_VIEW_RA
  6
C_SOLID_M
 10
-28.617447
 20
-181.040283
 30
0.0
 11
-28.617447
 21
-182.440186
 31
0.0
  0
LINE
  8
MO_001_VIEW_RA
  6
C_SOLID_H
 10
-26.491636
 20
-180.814426
 30
0.0
 11
-25.205156
 21
-179.527976
 31
0.0
  0
LINE
  8
MO_001_VIEW_RA
  6
C_SOLID_H
 10
-24.217514
 20
-181.040283
 30
0.0
 11
-22.817368
 21
-181.040283
 31
0.0
  0
LINE
  8
MO_001_VIEW_RA
  6
C_SOLID_H
 10
-24.217514
 20
-182.440186
 30
0.0
 11
-22.817368
 21
-182.440186
 31
0.0
  0
LINE
  8
MO_001_VIEW_RA
  6
C_SOLID_H
 10
-22.817368
 20
-182.440186
 30
0.0
 11
-22.817368
 21
-182.840332
 31
0.0
  0
LINE
  8
MO_001_VIEW_RA
  6
C_SOLID_H
 10
-19.917465
 20
-178.44043
 30
0.0
 11
-18.017319
 21
-178.44043
 31
0.0
  0
LINE
  8
MO_001_VIEW_RA
  6
C_SOLID_H
 10
-37.039341
 20
-187.371725
 30
0.0
 11
-32.839267
 21
-187.371755
 31
0.0
  0
ARC
  8
MO_001_VIEW_RA
  6
C_SOLID_H
 10
-27.917435
 20
-181.740234
 30
0.0
 40
1.7
 50
32.99633
 51
335.683799
  0
ARC
  8
MO_001_VIEW_RA
  6
C_SOLID_H
 10
-20.417465
 20
-182.840332
 30
0.0
 40
0.5
 50
180.000036
 51
359.999983
  0
ARC
  8
MO_001_VIEW_RA
  6
C_SOLID_H
 10
-20.417465
 20
-182.840332
 30
0.0
 40
2.4
 50
180.000036
 51
359.999983
  0
ARC
  8
MO_001_VIEW_RA
  6
C_SOLID_H
 10
-27.917435
 20
-181.740234
 30
0.0
 40
3.5
 50
39.202315
 51
371.536882
  0
LINE
  8
MO_001_VIEW_RA
  6
C_SOLID_M
 10
-29.286331
 20
-188.377441
 30
0.0
 11
-29.286331
 21
-192.377441
 31
0.0
  0
LINE
  8
MO_001_VIEW_RA
  6
C_SOLID_M
 10
-29.286331
 20
-188.377441
 30
0.0
 11
-26.4879
 21
-188.377441
 31
0.0
  0
LINE
  8
MO_001_VIEW_RA
  6
C_SOLID_M
 10
-28.686325
 20
-190.057373
 30
0.0
 11
-26.839462
 21
-190.057373
 31
0.0
  0
LINE
  8
MO_001_VIEW_RA
  6
C_SOLID_M
 10
-28.686325
 20
-188.977295
 30
0.0
 11
-26.4879
 21
-188.977295
 31
0.0
  0
LINE
  8
MO_001_VIEW_RA
  6
C_SOLID_M
 10
-28.686325
 20
-188.977295
 30
0.0
 11
-28.686325
 21
-190.057373
 31
0.0
  0
LINE
  8
MO_001_VIEW_RA
  6
C_SOLID_M
 10
-28.686325
 20
-190.657227
 30
0.0
 11
-28.686325
 21
-192.377441
 31
0.0
  0
LINE
  8
MO_001_VIEW_RA
  6
C_SOLID_M
 10
-29.286331
 20
-192.377441
 30
0.0
 11
-28.686325
 21
-192.377441
 31
0.0
  0
LINE
  8
MO_001_VIEW_RA
  6
C_SOLID_M
 10
-28.686325
 20
-190.657227
 30
0.0
 11
-26.839462
 21
-190.657227
 31
0.0
  0
LINE
  8
MO_001_VIEW_RA
  6
C_SOLID_M
 10
-26.4879
 20
-188.377441
 30
0.0
 11
-26.4879
 21
-188.977295
 31
0.0
  0
LINE
  8
MO_001_VIEW_RA
  6
C_SOLID_M
 10
-26.839462
 20
-190.057373
 30
0.0
 11
-26.839462
 21
-190.657227
 31
0.0
  0
LINE
  8
MO_001_VIEW_RA
  6
C_SOLID_M
 10
-26.006332
 20
-188.377441
 30
0.0
 11
-26.006332
 21
-192.377441
 31
0.0
  0
LINE
  8
MO_001_VIEW_RA
  6
C_SOLID_M
 10
-26.006332
 20
-188.377441
 30
0.0
 11
-22.982895
 21
-188.377441
 31
0.0
  0
LINE
  8
MO_001_VIEW_RA
  6
C_SOLID_M
 10
-26.006332
 20
-192.377441
 30
0.0
 11
-22.982895
 21
-192.377441
 31
0.0
  0
LINE
  8
MO_001_VIEW_RA
  6
C_SOLID_M
 10
-25.406326
 20
-190.057373
 30
0.0
 11
-23.286331
 21
-190.057373
 31
0.0
  0
LINE
  8
MO_001_VIEW_RA
  6
C_SOLID_M
 10
-23.286331
 20
-190.057373
 30
0.0
 11
-23.286331
 21
-190.537354
 31
0.0
  0
LINE
  8
MO_001_VIEW_RA
  6
C_SOLID_M
 10
-25.406326
 20
-188.977295
 30
0.0
 11
-22.982895
 21
-188.977295
 31
0.0
  0
LINE
  8
MO_001_VIEW_RA
  6
C_SOLID_M
 10
-25.406326
 20
-191.777344
 30
0.0
 11
-22.982895
 21
-191.777344
 31
0.0
  0
LINE
  8
MO_001_VIEW_RA
  6
C_SOLID_M
 10
-25.406326
 20
-188.977295
 30
0.0
 11
-25.406326
 21
-190.057373
 31
0.0
  0
LINE
  8
MO_001_VIEW_RA
  6
C_SOLID_M
 10
-25.406326
 20
-190.537354
 30
0.0
 11
-25.406326
 21
-191.777344
 31
0.0
  0
LINE
  8
MO_001_VIEW_RA
  6
C_SOLID_M
 10
-25.406326
 20
-190.537354
 30
0.0
 11
-23.286331
 21
-190.537354
 31
0.0
  0
LINE
  8
MO_001_VIEW_RA
  6
C_SOLID_M
 10
-22.982895
 20
-191.777344
 30
0.0
 11
-22.982895
 21
-192.377441
 31
0.0
  0
LINE
  8
MO_001_VIEW_RA
  6
C_SOLID_M
 10
-22.982895
 20
-188.377441
 30
0.0
 11
-22.982895
 21
-188.977295
 31
0.0
  0
LINE
  8
MO_001_VIEW_RA
  6
C_SOLID_M
 10
-22.406235
 20
-188.377441
 30
0.0
 11
-22.406235
 21
-192.377441
 31
0.0
  0
LINE
  8
MO_001_VIEW_RA
  6
C_SOLID_M
 10
-21.806229
 20
-192.377441
 30
0.0
 11
-22.406235
 21
-192.377441
 31
0.0
  0
LINE
  8
MO_001_VIEW_RA
  6
C_SOLID_M
 10
-20.326248
 20
-188.377441
 30
0.0
 11
-22.406235
 21
-188.377441
 31
0.0
  0
LINE
  8
MO_001_VIEW_RA
  6
C_SOLID_M
 10
-19.458908
 20
-190.970962
 30
0.0
 11
-19.28619
 21
-192.377634
 31
0.0
  0
LINE
  8
MO_001_VIEW_RA
  6
C_SOLID_M
 10
-21.806229
 20
-190.697266
 30
0.0
 11
-20.627853
 21
-190.697266
 31
0.0
  0
LINE
  8
MO_001_VIEW_RA
  6
C_SOLID_M
 10
-19.890747
 20
-192.377441
 30
0.0
 11
-19.28624
 21
-192.377441
 31
0.0
  0
ARC
  8
MO_001_VIEW_RA
  6
C_SOLID_M
 10
-20.094177
 20
-191.048584
 30
0.0
 40
0.64
 50
6.999995
 51
69.534659
  0
LINE
  8
MO_001_VIEW_RA
  6
C_SOLID_M
 10
-20.52623
 20
-188.977295
 30
0.0
 11
-21.806229
 21
-188.977295
 31
0.0
  0
LINE
  8
MO_001_VIEW_RA
  6
C_SOLID_M
 10
-21.806229
 20
-190.697266
 30
0.0
 11
-21.806229
 21
-192.377441
 31
0.0
  0
LINE
  8
MO_001_VIEW_RA
  6
C_SOLID_M
 10
-21.806229
 20
-188.977295
 30
0.0
 11
-21.806229
 21
-190.217285
 31
0.0
  0
LINE
  8
MO_001_VIEW_RA
  6
C_SOLID_M
 10
-21.806229
 20
-190.217285
 30
0.0
 11
-20.52623
 21
-190.217285
 31
0.0
  0
ARC
  8
MO_001_VIEW_RA
  6
C_SOLID_M
 10
-20.52623
 20
-189.597412
 30
0.0
 40
0.620001
 50
270.000018
 51
89.999982
  0
ARC
  8
MO_001_VIEW_RA
  6
C_SOLID_M
 10
-20.37648
 20
-189.474365
 30
0.0
 40
1.098217
 50
297.439183
 51
87.377954
  0
LINE
  8
MO_001_VIEW_RA
  6
C_SOLID_M
 10
-20.032305
 20
-191.224371
 30
0.0
 11
-19.89071
 21
-192.377576
 31
0.0
  0
ARC
  8
MO_001_VIEW_RA
  6
C_SOLID_M
 10
-20.627853
 20
-191.297363
 30
0.0
 40
0.6
 50
6.999995
 51
89.999982
  0
LINE
  8
MO_001_VIEW_RA
  6
C_SOLID_M
 10
-15.771242
 20
-191.064798
 30
0.0
 11
-15.122679
 21
-191.07003
 31
0.0
  0
LINE
  8
MO_001_VIEW_RA
  6
C_SOLID_M
 10
-15.78055
 20
-189.672363
 30
0.0
 11
-15.127077
 21
-189.672363
 31
0.0
  0
POLYLINE
  8
MO_001_VIEW_RA
  6
C_SOLID_M
 66
     1
 10
0.0
 20
0.0
 30
0.0
  0
VERTEX
  8
MO_001_VIEW_RA
  6
C_SOLID_M
 10
-15.127062
 20
-189.672348
 30
0.0
  0
VERTEX
  8
MO_001_VIEW_RA
  6
C_SOLID_M
 10
-15.26841
 20
-189.358902
 30
0.0
  0
VERTEX
  8
MO_001_VIEW_RA
  6
C_SOLID_M
 10
-15.458641
 20
-189.076248
 30
0.0
  0
VERTEX
  8
MO_001_VIEW_RA
  6
C_SOLID_M
 10
-15.692008
 20
-188.832901
 30
0.0
  0
VERTEX
  8
MO_001_VIEW_RA
  6
C_SOLID_M
 10
-15.961461
 20
-188.636215
 30
0.0
  0
VERTEX
  8
MO_001_VIEW_RA
  6
C_SOLID_M
 10
-16.258858
 20
-188.492142
 30
0.0
  0
VERTEX
  8
MO_001_VIEW_RA
  6
C_SOLID_M
 10
-16.575212
 20
-188.405029
 30
0.0
  0
VERTEX
  8
MO_001_VIEW_RA
  6
C_SOLID_M
 10
-16.900969
 20
-188.377502
 30
0.0
  0
VERTEX
  8
MO_001_VIEW_RA
  6
C_SOLID_M
 10
-17.226282
 20
-188.4104
 30
0.0
  0
VERTEX
  8
MO_001_VIEW_RA
  6
C_SOLID_M
 10
-17.541327
 20
-188.502747
 30
0.0
  0
VERTEX
  8
MO_001_VIEW_RA
  6
C_SOLID_M
 10
-17.83658
 20
-188.651718
 30
0.0
  0
VERTEX
  8
MO_001_VIEW_RA
  6
C_SOLID_M
 10
-18.103127
 20
-188.852829
 30
0.0
  0
VERTEX
  8
MO_001_VIEW_RA
  6
C_SOLID_M
 10
-18.332909
 20
-189.100021
 30
0.0
  0
VERTEX
  8
MO_001_VIEW_RA
  6
C_SOLID_M
 10
-18.518986
 20
-189.385788
 30
0.0
  0
VERTEX
  8
MO_001_VIEW_RA
  6
C_SOLID_M
 10
-18.655735
 20
-189.701523
 30
0.0
  0
VERTEX
  8
MO_001_VIEW_RA
  6
C_SOLID_M
 10
-18.739025
 20
-190.037689
 30
0.0
  0
VERTEX
  8
MO_001_VIEW_RA
  6
C_SOLID_M
 10
-18.766342
 20
-190.384109
 30
0.0
  0
VERTEX
  8
MO_001_VIEW_RA
  6
C_SOLID_M
 10
-18.736856
 20
-190.730331
 30
0.0
  0
VERTEX
  8
MO_001_VIEW_RA
  6
C_SOLID_M
 10
-18.651461
 20
-191.065887
 30
0.0
  0
VERTEX
  8
MO_001_VIEW_RA
  6
C_SOLID_M
 10
-18.512735
 20
-191.380646
 30
0.0
  0
VERTEX
  8
MO_001_VIEW_RA
  6
C_SOLID_M
 10
-18.324871
 20
-191.6651
 30
0.0
  0
VERTEX
  8
MO_001_VIEW_RA
  6
C_SOLID_M
 10
-18.093544
 20
-191.910645
 30
0.0
  0
VERTEX
  8
MO_001_VIEW_RA
  6
C_SOLID_M
 10
-17.825745
 20
-192.109863
 30
0.0
  0
VERTEX
  8
MO_001_VIEW_RA
  6
C_SOLID_M
 10
-17.529564
 20
-192.256744
 30
0.0
  0
VERTEX
  8
MO_001_VIEW_RA
  6
C_SOLID_M
 10
-17.213947
 20
-192.346848
 30
0.0
  0
VERTEX
  8
MO_001_VIEW_RA
  6
C_SOLID_M
 10
-16.888435
 20
-192.377441
 30
0.0
  0
VERTEX
  8
MO_001_VIEW_RA
  6
C_SOLID_M
 10
-16.562859
 20
-192.34761
 30
0.0
  0
VERTEX
  8
MO_001_VIEW_RA
  6
C_SOLID_M
 10
-16.247057
 20
-192.258255
 30
0.0
  0
VERTEX
  8
MO_001_VIEW_RA
  6
C_SOLID_M
 10
-15.950569
 20
-192.112076
 30
0.0
  0
VERTEX
  8
MO_001_VIEW_RA
  6
C_SOLID_M
 10
-15.682356
 20
-191.913483
 30
0.0
  0
VERTEX
  8
MO_001_VIEW_RA
  6
C_SOLID_M
 10
-15.450519
 20
-191.668488
 30
0.0
  0
VERTEX
  8
MO_001_VIEW_RA
  6
C_SOLID_M
 10
-15.262063
 20
-191.384476
 30
0.0
  0
VERTEX
  8
MO_001_VIEW_RA
  6
C_SOLID_M
 10
-15.122683
 20
-191.070053
 30
0.0
  0
SEQEND
  8
MO_001_VIEW_RA
  6
C_SOLID_M
  0
POLYLINE
  8
MO_001_VIEW_RA
  6
C_SOLID_M
 66
     1
 10
0.0
 20
0.0
 30
0.0
  0
VERTEX
  8
MO_001_VIEW_RA
  6
C_SOLID_M
 10
-15.780546
 20
-189.672348
 30
0.0
  0
VERTEX
  8
MO_001_VIEW_RA
  6
C_SOLID_M
 10
-15.909461
 20
-189.472809
 30
0.0
  0
VERTEX
  8
MO_001_VIEW_RA
  6
C_SOLID_M
 10
-16.068127
 20
-189.300827
 30
0.0
  0
VERTEX
  8
MO_001_VIEW_RA
  6
C_SOLID_M
 10
-16.251713
 20
-189.161652
 30
0.0
  0
VERTEX
  8
MO_001_VIEW_RA
  6
C_SOLID_M
 10
-16.454628
 20
-189.059479
 30
0.0
  0
VERTEX
  8
MO_001_VIEW_RA
  6
C_SOLID_M
 10
-16.670692
 20
-188.997467
 30
0.0
  0
VERTEX
  8
MO_001_VIEW_RA
  6
C_SOLID_M
 10
-16.893324
 20
-188.977463
 30
0.0
  0
VERTEX
  8
MO_001_VIEW_RA
  6
C_SOLID_M
 10
-17.115744
 20
-189.000107
 30
0.0
  0
VERTEX
  8
MO_001_VIEW_RA
  6
C_SOLID_M
 10
-17.331177
 20
-189.064697
 30
0.0
  0
VERTEX
  8
MO_001_VIEW_RA
  6
C_SOLID_M
 10
-17.533062
 20
-189.169281
 30
0.0
  0
VERTEX
  8
MO_001_VIEW_RA
  6
C_SOLID_M
 10
-17.71525
 20
-189.310638
 30
0.0
  0
VERTEX
  8
MO_001_VIEW_RA
  6
C_SOLID_M
 10
-17.872194
 20
-189.484497
 30
0.0
  0
VERTEX
  8
MO_001_VIEW_RA
  6
C_SOLID_M
 10
-17.999115
 20
-189.685562
 30
0.0
  0
VERTEX
  8
MO_001_VIEW_RA
  6
C_SOLID_M
 10
-18.092144
 20
-189.907684
 30
0.0
  0
VERTEX
  8
MO_001_VIEW_RA
  6
C_SOLID_M
 10
-18.148451
 20
-190.144119
 30
0.0
  0
VERTEX
  8
MO_001_VIEW_RA
  6
C_SOLID_M
 10
-18.166319
 20
-190.38765
 30
0.0
  0
VERTEX
  8
MO_001_VIEW_RA
  6
C_SOLID_M
 10
-18.145203
 20
-190.63089
 30
0.0
  0
VERTEX
  8
MO_001_VIEW_RA
  6
C_SOLID_M
 10
-18.085749
 20
-190.866394
 30
0.0
  0
VERTEX
  8
MO_001_VIEW_RA
  6
C_SOLID_M
 10
-17.989765
 20
-191.087006
 30
0.0
  0
VERTEX
  8
MO_001_VIEW_RA
  6
C_SOLID_M
 10
-17.860178
 20
-191.286011
 30
0.0
  0
VERTEX
  8
MO_001_VIEW_RA
  6
C_SOLID_M
 10
-17.70093
 20
-191.457352
 30
0.0
  0
VERTEX
  8
MO_001_VIEW_RA
  6
C_SOLID_M
 10
-17.516874
 20
-191.595795
 30
0.0
  0
VERTEX
  8
MO_001_VIEW_RA
  6
C_SOLID_M
 10
-17.313614
 20
-191.697144
 30
0.0
  0
VERTEX
  8
MO_001_VIEW_RA
  6
C_SOLID_M
 10
-17.097343
 20
-191.758286
 30
0.0
  0
VERTEX
  8
MO_001_VIEW_RA
  6
C_SOLID_M
 10
-16.874645
 20
-191.777374
 30
0.0
  0
VERTEX
  8
MO_001_VIEW_RA
  6
C_SOLID_M
 10
-16.652304
 20
-191.75383
 30
0.0
  0
VERTEX
  8
MO_001_VIEW_RA
  6
C_SOLID_M
 10
-16.437092
 20
-191.68837
 30
0.0
  0
VERTEX
  8
MO_001_VIEW_RA
  6
C_SOLID_M
 10
-16.235561
 20
-191.582977
 30
0.0
  0
VERTEX
  8
MO_001_VIEW_RA
  6
C_SOLID_M
 10
-16.05385
 20
-191.440872
 30
0.0
  0
VERTEX
  8
MO_001_VIEW_RA
  6
C_SOLID_M
 10
-15.897495
 20
-191.266388
 30
0.0
  0
VERTEX
  8
MO_001_VIEW_RA
  6
C_SOLID_M
 10
-15.771256
 20
-191.064819
 30
0.0
  0
SEQEND
  8
MO_001_VIEW_RA
  6
C_SOLID_M
  0
POLYLINE
  8
MO_001_VIEW_RA
  6
C_SOLID_M
 66
     1
 10
0.0
 20
0.0
 30
0.0
  0
VERTEX
  8
MO_001_VIEW_RA
  6
C_SOLID_M
 10
-13.002219
 20
-192.377441
 30
0.0
  0
VERTEX
  8
MO_001_VIEW_RA
  6
C_SOLID_M
 10
-12.676042
 20
-192.346359
 30
0.0
  0
VERTEX
  8
MO_001_VIEW_RA
  6
C_SOLID_M
 10
-12.359883
 20
-192.255524
 30
0.0
  0
VERTEX
  8
MO_001_VIEW_RA
  6
C_SOLID_M
 10
-12.063336
 20
-192.107712
 30
0.0
  0
VERTEX
  8
MO_001_VIEW_RA
  6
C_SOLID_M
 10
-11.7954
 20
-191.907394
 30
0.0
  0
VERTEX
  8
MO_001_VIEW_RA
  6
C_SOLID_M
 10
-11.564204
 20
-191.66066
 30
0.0
  0
VERTEX
  8
MO_001_VIEW_RA
  6
C_SOLID_M
 10
-11.376763
 20
-191.374985
 30
0.0
  0
VERTEX
  8
MO_001_VIEW_RA
  6
C_SOLID_M
 10
-11.238767
 20
-191.059036
 30
0.0
  0
VERTEX
  8
MO_001_VIEW_RA
  6
C_SOLID_M
 10
-11.1544
 20
-190.722412
 30
0.0
  0
VERTEX
  8
MO_001_VIEW_RA
  6
C_SOLID_M
 10
-11.126225
 20
-190.37532
 30
0.0
  0
VERTEX
  8
MO_001_VIEW_RA
  6
C_SOLID_M
 10
-11.155094
 20
-190.02829
 30
0.0
  0
VERTEX
  8
MO_001_VIEW_RA
  6
C_SOLID_M
 10
-11.240134
 20
-189.691849
 30
0.0
  0
VERTEX
  8
MO_001_VIEW_RA
  6
C_SOLID_M
 10
-11.378762
 20
-189.376221
 30
0.0
  0
VERTEX
  8
MO_001_VIEW_RA
  6
C_SOLID_M
 10
-11.566773
 20
-189.090958
 30
0.0
  0
VERTEX
  8
MO_001_VIEW_RA
  6
C_SOLID_M
 10
-11.798463
 20
-188.844742
 30
0.0
  0
VERTEX
  8
MO_001_VIEW_RA
  6
C_SOLID_M
 10
-12.066799
 20
-188.645035
 30
0.0
  0
VERTEX
  8
MO_001_VIEW_RA
  6
C_SOLID_M
 10
-12.363641
 20
-188.497894
 30
0.0
  0
VERTEX
  8
MO_001_VIEW_RA
  6
C_SOLID_M
 10
-12.67998
 20
-188.407791
 30
0.0
  0
VERTEX
  8
MO_001_VIEW_RA
  6
C_SOLID_M
 10
-13.00622
 20
-188.377441
 30
0.0
  0
VERTEX
  8
MO_001_VIEW_RA
  6
C_SOLID_M
 10
-13.332458
 20
-188.407791
 30
0.0
  0
VERTEX
  8
MO_001_VIEW_RA
  6
C_SOLID_M
 10
-13.648799
 20
-188.497894
 30
0.0
  0
VERTEX
  8
MO_001_VIEW_RA
  6
C_SOLID_M
 10
-13.945641
 20
-188.645035
 30
0.0
  0
VERTEX
  8
MO_001_VIEW_RA
  6
C_SOLID_M
 10
-14.213977
 20
-188.844742
 30
0.0
  0
VERTEX
  8
MO_001_VIEW_RA
  6
C_SOLID_M
 10
-14.445666
 20
-189.090958
 30
0.0
  0
VERTEX
  8
MO_001_VIEW_RA
  6
C_SOLID_M
 10
-14.633677
 20
-189.376205
 30
0.0
  0
VERTEX
  8
MO_001_VIEW_RA
  6
C_SOLID_M
 10
-14.772305
 20
-189.691849
 30
0.0
  0
VERTEX
  8
MO_001_VIEW_RA
  6
C_SOLID_M
 10
-14.857346
 20
-190.02829
 30
0.0
  0
VERTEX
  8
MO_001_VIEW_RA
  6
C_SOLID_M
 10
-14.886215
 20
-190.37532
 30
0.0
  0
VERTEX
  8
MO_001_VIEW_RA
  6
C_SOLID_M
 10
-14.85804
 20
-190.722412
 30
0.0
  0
VERTEX
  8
MO_001_VIEW_RA
  6
C_SOLID_M
 10
-14.773673
 20
-191.059036
 30
0.0
  0
VERTEX
  8
MO_001_VIEW_RA
  6
C_SOLID_M
 10
-14.635676
 20
-191.374985
 30
0.0
  0
VERTEX
  8
MO_001_VIEW_RA
  6
C_SOLID_M
 10
-14.448236
 20
-191.66066
 30
0.0
  0
VERTEX
  8
MO_001_VIEW_RA
  6
C_SOLID_M
 10
-14.21704
 20
-191.907394
 30
0.0
  0
VERTEX
  8
MO_001_VIEW_RA
  6
C_SOLID_M
 10
-13.949103
 20
-192.107712
 30
0.0
  0
VERTEX
  8
MO_001_VIEW_RA
  6
C_SOLID_M
 10
-13.652556
 20
-192.255524
 30
0.0
  0
VERTEX
  8
MO_001_VIEW_RA
  6
C_SOLID_M
 10
-13.336398
 20
-192.346359
 30
0.0
  0
VERTEX
  8
MO_001_VIEW_RA
  6
C_SOLID_M
 10
-13.010221
 20
-192.377441
 30
0.0
  0
SEQEND
  8
MO_001_VIEW_RA
  6
C_SOLID_M
  0
POLYLINE
  8
MO_001_VIEW_RA
  6
C_SOLID_M
 66
     1
 10
0.0
 20
0.0
 30
0.0
  0
VERTEX
  8
MO_001_VIEW_RA
  6
C_SOLID_M
 10
-13.002222
 20
-191.777435
 30
0.0
  0
VERTEX
  8
MO_001_VIEW_RA
  6
C_SOLID_M
 10
-12.780233
 20
-191.755447
 30
0.0
  0
VERTEX
  8
MO_001_VIEW_RA
  6
C_SOLID_M
 10
-12.565098
 20
-191.691666
 30
0.0
  0
VERTEX
  8
MO_001_VIEW_RA
  6
C_SOLID_M
 10
-12.363338
 20
-191.588043
 30
0.0
  0
VERTEX
  8
MO_001_VIEW_RA
  6
C_SOLID_M
 10
-12.181074
 20
-191.447708
 30
0.0
  0
VERTEX
  8
MO_001_VIEW_RA
  6
C_SOLID_M
 10
-12.023832
 20
-191.274918
 30
0.0
  0
VERTEX
  8
MO_001_VIEW_RA
  6
C_SOLID_M
 10
-11.89638
 20
-191.074921
 30
0.0
  0
VERTEX
  8
MO_001_VIEW_RA
  6
C_SOLID_M
 10
-11.802583
 20
-190.85376
 30
0.0
  0
VERTEX
  8
MO_001_VIEW_RA
  6
C_SOLID_M
 10
-11.745285
 20
-190.618149
 30
0.0
  0
VERTEX
  8
MO_001_VIEW_RA
  6
C_SOLID_M
 10
-11.726225
 20
-190.375259
 30
0.0
  0
VERTEX
  8
MO_001_VIEW_RA
  6
C_SOLID_M
 10
-11.745978
 20
-190.132416
 30
0.0
  0
VERTEX
  8
MO_001_VIEW_RA
  6
C_SOLID_M
 10
-11.803948
 20
-189.897018
 30
0.0
  0
VERTEX
  8
MO_001_VIEW_RA
  6
C_SOLID_M
 10
-11.898376
 20
-189.676178
 30
0.0
  0
VERTEX
  8
MO_001_VIEW_RA
  6
C_SOLID_M
 10
-12.026399
 20
-189.476608
 30
0.0
  0
VERTEX
  8
MO_001_VIEW_RA
  6
C_SOLID_M
 10
-12.184134
 20
-189.304367
 30
0.0
  0
VERTEX
  8
MO_001_VIEW_RA
  6
C_SOLID_M
 10
-12.366796
 20
-189.164642
 30
0.0
  0
VERTEX
  8
MO_001_VIEW_RA
  6
C_SOLID_M
 10
-12.568851
 20
-189.061707
 30
0.0
  0
VERTEX
  8
MO_001_VIEW_RA
  6
C_SOLID_M
 10
-12.784167
 20
-188.998672
 30
0.0
  0
VERTEX
  8
MO_001_VIEW_RA
  6
C_SOLID_M
 10
-13.006218
 20
-188.977448
 30
0.0
  0
VERTEX
  8
MO_001_VIEW_RA
  6
C_SOLID_M
 10
-13.228268
 20
-188.998672
 30
0.0
  0
VERTEX
  8
MO_001_VIEW_RA
  6
C_SOLID_M
 10
-13.443584
 20
-189.061707
 30
0.0
  0
VERTEX
  8
MO_001_VIEW_RA
  6
C_SOLID_M
 10
-13.645638
 20
-189.164642
 30
0.0
  0
VERTEX
  8
MO_001_VIEW_RA
  6
C_SOLID_M
 10
-13.828303
 20
-189.304352
 30
0.0
  0
VERTEX
  8
MO_001_VIEW_RA
  6
C_SOLID_M
 10
-13.986038
 20
-189.476608
 30
0.0
  0
VERTEX
  8
MO_001_VIEW_RA
  6
C_SOLID_M
 10
-14.114061
 20
-189.676178
 30
0.0
  0
VERTEX
  8
MO_001_VIEW_RA
  6
C_SOLID_M
 10
-14.208489
 20
-189.897018
 30
0.0
  0
VERTEX
  8
MO_001_VIEW_RA
  6
C_SOLID_M
 10
-14.26646
 20
-190.132416
 30
0.0
  0
VERTEX
  8
MO_001_VIEW_RA
  6
C_SOLID_M
 10
-14.286215
 20
-190.375244
 30
0.0
  0
VERTEX
  8
MO_001_VIEW_RA
  6
C_SOLID_M
 10
-14.267155
 20
-190.618149
 30
0.0
  0
VERTEX
  8
MO_001_VIEW_RA
  6
C_SOLID_M
 10
-14.209858
 20
-190.853745
 30
0.0
  0
VERTEX
  8
MO_001_VIEW_RA
  6
C_SOLID_M
 10
-14.116062
 20
-191.074905
 30
0.0
  0
VERTEX
  8
MO_001_VIEW_RA
  6
C_SOLID_M
 10
-13.98861
 20
-191.274918
 30
0.0
  0
VERTEX
  8
MO_001_VIEW_RA
  6
C_SOLID_M
 10
-13.831368
 20
-191.447708
 30
0.0
  0
VERTEX
  8
MO_001_VIEW_RA
  6
C_SOLID_M
 10
-13.649105
 20
-191.588043
 30
0.0
  0
VERTEX
  8
MO_001_VIEW_RA
  6
C_SOLID_M
 10
-13.447346
 20
-191.691666
 30
0.0
  0
VERTEX
  8
MO_001_VIEW_RA
  6
C_SOLID_M
 10
-13.232211
 20
-191.755447
 30
0.0
  0
VERTEX
  8
MO_001_VIEW_RA
  6
C_SOLID_M
 10
-13.010222
 20
-191.777435
 30
0.0
  0
SEQEND
  8
MO_001_VIEW_RA
  6
C_SOLID_M
  0
LINE
  8
MO_001_VIEW_RA
  6
C_SOLID_M
 10
-13.010236
 20
-191.777344
 30
0.0
 11
-13.002225
 21
-191.777344
 31
0.0
  0
LINE
  8
MO_001_VIEW_RA
  6
C_SOLID_M
 10
-13.010235
 20
-192.37744
 30
0.0
 11
-13.00224
 21
-192.37744
 31
0.0
  0
TEXT
  8
MO_001_VIEW_RA
  6
C_SOLID_L
 10
-43.484611
 20
-81.733817
 30
0.0
 40
1.2
  1
droits de reproduction reserves selon loi du 11.03.1957
 50
89.9
  0
TEXT
  8
MO_001_VIEW_RA
  6
C_SOLID_L
 10
-41.484611
 20
-86.733817
 30
0.0
 40
1.2
  1
Für diese Unterlage behalten wir uns alle Rechte nach DIN 34 vor
 50
89.9
  0
TEXT
  8
MO_001_VIEW_RA
  6
C_SOLID_L
 10
-57.298148
 20
-118.804199
 30
0.0
 40
2.0
  1
ORD.
  0
TEXT
  8
MO_001_VIEW_RA
  6
C_SOLID_L
 10
-47.298148
 20
-118.804199
 30
0.0
 40
2.0
  1
REG.
  0
TEXT
  8
MO_001_VIEW_RA
  6
C_SOLID_L
 10
-58.798148
 20
-130.804199
 30
0.0
 40
2.0
  1
.
  0
TEXT
  8
MO_001_VIEW_RA
  6
C_SOLID_L
 10
-58.798148
 20
-136.804199
 30
0.0
 40
2.0
  1
.
  0
TEXT
  8
MO_001_VIEW_RA
  6
C_SOLID_L
 10
-58.798148
 20
-142.804199
 30
0.0
 40
2.0
  1
.
  0
TEXT
  8
MO_001_VIEW_RA
  6
C_SOLID_L
 10
-58.798148
 20
-148.804199
 30
0.0
 40
2.0
  1
.
  0
TEXT
  8
MO_001_VIEW_RA
  6
C_SOLID_L
 10
-46.798148
 20
-130.804199
 30
0.0
 40
2.0
  1
.
  0
TEXT
  8
MO_001_VIEW_RA
  6
C_SOLID_L
 10
-46.798148
 20
-136.804199
 30
0.0
 40
2.0
  1
.
  0
TEXT
  8
MO_001_VIEW_RA
  6
C_SOLID_L
 10
-46.798148
 20
-142.804199
 30
0.0
 40
2.0
  1
.
  0
TEXT
  8
MO_001_VIEW_RA
  6
C_SOLID_L
 10
-46.798148
 20
-148.804199
 30
0.0
 40
2.0
  1
.
  0
TEXT
  8
MO_001_VIEW_RA
  6
C_SOLID_L
 10
-53.962033
 20
-155.080078
 30
0.0
 40
2.5
  1
FERCO
 41
0.833333
  0
TEXT
  8
MO_001_VIEW_RA
  6
C_SOLID_L
 10
-51.758252
 20
-161.121094
 30
0.0
 40
2.5
  1
GU
 41
0.833333
  0
TEXT
  8
MO_001_VIEW_RA
  6
C_SOLID_L
 10
77.380317
 20
-178.554199
 30
0.0
 40
1.5
  1
SK-NR.-ETUDE NR.
  0
TEXT
  8
MO_001_VIEW_RA
  6
C_SOLID_L
 10
115.380424
 20
-178.554199
 30
0.0
 40
1.5
  1
TEILE-NR.-PREFIX
  0
TEXT
  8
MO_001_VIEW_RA
  6
C_SOLID_L
 10
77.380317
 20
-186.054199
 30
0.0
 40
1.5
  1
ZEICHNUNGS-NR.-NUMERO
  0
TEXT
  8
MO_001_VIEW_RA
  6
C_SOLID_L
 10
-6.798267
 20
-180.804199
 30
0.0
 40
2.0
  1
BENENNUNG
  0
TEXT
  8
MO_001_VIEW_RA
  6
C_SOLID_L
 10
-6.855361
 20
-188.604199
 30
0.0
 40
1.599999
  1
DESIGNATION
  0
TEXT
  8
MO_001_VIEW_RA
  6
C_SOLID_L
 10
-6.65541
 20
-193.304199
 30
0.0
 40
3.0
  1
GACHE
  0
TEXT
  8
MO_001_VIEW_RA
  6
C_SOLID_L
 10
133.477347
 20
-185.984863
 30
0.0
 40
1.5
  1
FORM.
  0
TEXT
  8
MO_001_VIEW_RA
  6
C_SOLID_L
 10
124.080375
 20
-186.054199
 30
0.0
 40
1.5
  1
BL-OV
  0
TEXT
  8
MO_001_VIEW_RA
  6
C_SOLID_L
 10
104.207153
 20
-178.639648
 30
0.0
 40
1.5
  1
PR-GR
 41
1.333333
  0
TEXT
  8
MO_001_VIEW_RA
  6
C_SOLID_L
 10
77.166031
 20
-181.804199
 30
0.0
 40
2.0
  1
.
 41
1.25
  0
TEXT
  8
MO_001_VIEW_RA
  6
C_SOLID_L
 10
104.716187
 20
-182.952881
 30
0.0
 40
3.0
  1
L032521
 41
1.766666
  0
TEXT
  8
MO_001_VIEW_RA
  6
C_SOLID_L
 10
78.866226
 20
-193.804199
 30
0.0
 40
5.0
  1
629510990004
  0
TEXT
  8
MO_001_VIEW_RA
  6
C_SOLID_L
 10
13.952214
 20
-181.88779
 30
0.0
 40
4.167181
  1
Schließplatte flach
 41
0.770952
  0
TEXT
  8
MO_001_VIEW_RA
  6
C_SOLID_L
 10
14.101512
 20
-188.278171
 30
0.0
 40
4.167181
  1
SF, einstellbar
 41
0.873687
  0
POINT
  8
MO_001_VIEW_2
  6
C_SOLID_M
 10
109.117935
 20
-6.5
 30
0.0
  0
LINE
  8
MO_001_VIEW_2
  6
C_SOLID_H
 62
    95
 10
109.11795
 20
53.5
 30
0.0
 11
106.11795
 21
53.5
 31
0.0
  0
LINE
  8
MO_001_VIEW_2
  6
C_CENTER_L
 62
    95
 10
111.581924
 20
41.499985
 30
0.0
 11
103.43251
 21
41.499985
 31
0.0
  0
LINE
  8
MO_001_VIEW_2
  6
C_SOLID_H
 62
    95
 10
109.11795
 20
-27.0
 30
0.0
 11
106.11795
 21
-27.0
 31
0.0
  0
LINE
  8
MO_001_VIEW_2
  6
C_SOLID_H
 62
    95
 10
109.11795
 20
-50.350021
 30
0.0
 11
108.717957
 21
-50.350021
 31
0.0
  0
LINE
  8
MO_001_VIEW_2
  6
C_SOLID_H
 62
    95
 10
107.417953
 20
-51.900009
 30
0.0
 11
106.11795
 21
-51.900009
 31
0.0
  0
LINE
  8
MO_001_VIEW_2
  6
C_CENTER_L
 62
    95
 10
111.581924
 20
-54.499954
 30
0.0
 11
103.43251
 21
-54.499954
 31
0.0
  0
LINE
  8
MO_001_VIEW_2
  6
C_SOLID_H
 62
    95
 10
107.417953
 20
-57.100021
 30
0.0
 11
106.11795
 21
-57.100021
 31
0.0
  0
LINE
  8
MO_001_VIEW_2
  6
C_SOLID_H
 62
    95
 10
109.11795
 20
-58.650009
 30
0.0
 11
108.717957
 21
-58.650009
 31
0.0
  0
LINE
  8
MO_001_VIEW_2
  6
C_SOLID_H
 62
    95
 10
109.11795
 20
-66.5
 30
0.0
 11
106.11795
 21
-66.5
 31
0.0
  0
LINE
  8
MO_001_VIEW_2
  6
C_SOLID_H
 62
    95
 10
109.11795
 20
53.5
 30
0.0
 11
109.11795
 21
30.599991
 31
0.0
  0
LINE
  8
MO_001_VIEW_2
  6
C_SOLID_H
 62
    95
 10
106.11795
 20
53.5
 30
0.0
 11
106.11795
 21
27.699982
 31
0.0
  0
LINE
  8
MO_001_VIEW_2
  6
C_SOLID_H
 62
    95
 10
108.717957
 20
-50.350021
 30
0.0
 11
108.717957
 21
-58.650009
 31
0.0
  0
LINE
  8
MO_001_VIEW_2
  6
C_SOLID_H
 62
    95
 10
107.417953
 20
-51.900009
 30
0.0
 11
107.417953
 21
-57.100021
 31
0.0
  0
LINE
  8
MO_001_VIEW_2
  6
C_SOLID_H
 62
    95
 10
107.417952
 20
-57.100025
 30
0.0
 11
108.717951
 21
-58.650008
 31
0.0
  0
LINE
  8
MO_001_VIEW_2
  6
C_SOLID_H
 62
    95
 10
107.417952
 20
-51.900004
 30
0.0
 11
108.717957
 21
-50.350014
 31
0.0
  0
LINE
  8
MO_001_VIEW_2
  6
C_CENTER_L
 62
    77
 10
113.297272
 20
-36.600006
 30
0.0
 11
101.838593
 21
-36.600006
 31
0.0
  0
LINE
  8
MO_001_VIEW_2
  6
C_SOLID_H
 62
    95
 10
109.11795
 20
-33.950012
 30
0.0
 11
106.11795
 21
-33.950012
 31
0.0
  0
LINE
  8
MO_001_VIEW_2
  6
C_SOLID_H
 62
    95
 10
109.11795
 20
-39.25
 30
0.0
 11
106.11795
 21
-39.25
 31
0.0
  0
LINE
  8
MO_001_VIEW_2
  6
C_SOLID_H
 62
     2
 10
111.11795
 20
30.599991
 30
0.0
 11
111.11795
 21
-33.100006
 31
0.0
  0
LINE
  8
MO_001_VIEW_2
  6
C_SOLID_H
 62
     2
 10
111.117948
 20
-43.600011
 30
0.0
 11
109.117964
 21
-43.600011
 31
0.0
  0
LINE
  8
MO_001_VIEW_2
  6
C_SOLID_H
 62
     2
 10
111.117964
 20
-30.999914
 30
0.0
 11
110.117949
 21
-30.999914
 31
0.0
  0
LINE
  8
MO_001_VIEW_2
  6
C_SOLID_H
 62
     2
 10
110.117949
 20
-40.200109
 30
0.0
 11
109.117949
 21
-40.200109
 31
0.0
  0
LINE
  8
MO_001_VIEW_2
  6
C_SOLID_H
 62
     2
 10
110.117949
 20
-32.999914
 30
0.0
 11
109.117964
 21
-32.999914
 31
0.0
  0
LINE
  8
MO_001_VIEW_2
  6
C_SOLID_H
 62
     2
 10
109.11795
 20
30.599991
 30
0.0
 11
109.11795
 21
-33.100006
 31
0.0
  0
LINE
  8
MO_001_VIEW_2
  6
C_SOLID_H
 62
     2
 10
109.117952
 20
-24.800013
 30
0.0
 11
110.317949
 21
-24.800013
 31
0.0
  0
LINE
  8
MO_001_VIEW_2
  6
C_SOLID_H
 62
     2
 10
111.117952
 20
30.599989
 30
0.0
 11
109.117952
 21
30.59999
 31
0.0
  0
LINE
  8
MO_001_VIEW_2
  6
C_SOLID_H
 62
     2
 10
111.11795
 20
-42.150009
 30
0.0
 11
110.11795
 21
-42.150009
 31
0.0
  0
LINE
  8
MO_001_VIEW_2
  6
C_SOLID_H
 62
     2
 10
110.11795
 20
-30.999908
 30
0.0
 11
110.11795
 21
-33.100006
 31
0.0
  0
LINE
  8
MO_001_VIEW_2
  6
C_SOLID_H
 62
     2
 10
110.317947
 20
-6.5
 30
0.0
 11
110.317947
 21
-24.800018
 31
0.0
  0
LINE
  8
MO_001_VIEW_2
  6
C_SOLID_H
 62
     2
 10
110.317935
 20
-24.799987
 30
0.0
 11
111.11794
 21
-25.599993
 31
0.0
  0
CIRCLE
  8
MO_001_VIEW_2
  6
C_CENTER_L
 10
109.800659
 20
-36.600006
 30
0.0
 40
9.0
  0
LINE
  8
MO_001_VIEW_2
  6
C_SOLID_H
 62
    95
 10
109.11795
 20
-43.600006
 30
0.0
 11
109.11795
 21
-66.5
 31
0.0
  0
LINE
  8
MO_001_VIEW_2
  6
C_CENTER_L
 62
    77
 10
101.63312
 20
23.600006
 30
0.0
 11
108.678744
 21
23.600005
 31
0.0
  0
LINE
  8
MO_001_VIEW_2
  6
C_SOLID_H
 62
    95
 10
106.11795
 20
-40.699982
 30
0.0
 11
106.11795
 21
-66.5
 31
0.0
  0
LINE
  8
MO_001_VIEW_2
  6
C_SOLID_H
 62
    77
 10
111.11795
 20
-33.100006
 30
0.0
 11
109.11795
 21
-33.100006
 31
0.0
  0
LINE
  8
MO_001_VIEW_2
  6
C_SOLID_H
 62
    77
 10
110.11795
 20
-40.100006
 30
0.0
 11
109.11795
 21
-40.100006
 31
0.0
  0
LINE
  8
MO_001_VIEW_2
  6
C_SOLID_H
 62
    77
 10
109.11795
 20
-34.0
 30
0.0
 11
107.11795
 21
-34.0
 31
0.0
  0
LINE
  8
MO_001_VIEW_2
  6
C_SOLID_H
 62
    77
 10
109.11795
 20
-39.200012
 30
0.0
 11
107.11795
 21
-39.200012
 31
0.0
  0
LINE
  8
MO_001_VIEW_2
  6
C_SOLID_H
 62
    77
 10
107.11795
 20
-34.800003
 30
0.0
 11
104.11795
 21
-34.800003
 31
0.0
  0
LINE
  8
MO_001_VIEW_2
  6
C_SOLID_H
 62
    77
 10
107.11795
 20
-38.400009
 30
0.0
 11
104.11795
 21
-38.400009
 31
0.0
  0
LINE
  8
MO_001_VIEW_2
  6
C_SOLID_H
 62
    77
 10
107.11795
 20
-34.0
 30
0.0
 11
107.11795
 21
-39.200012
 31
0.0
  0
LINE
  8
MO_001_VIEW_2
  6
C_SOLID_H
 62
     2
 10
111.11795
 20
-42.100006
 30
0.0
 11
111.11795
 21
-43.600006
 31
0.0
  0
LINE
  8
MO_001_VIEW_2
  6
C_SOLID_H
 62
    77
 10
111.11795
 20
-33.100006
 30
0.0
 11
111.11795
 21
-42.100006
 31
0.0
  0
LINE
  8
MO_001_VIEW_2
  6
C_SOLID_H
 62
     2
 10
110.11795
 20
-42.100006
 30
0.0
 11
110.11795
 21
-42.150009
 31
0.0
  0
LINE
  8
MO_001_VIEW_2
  6
C_SOLID_H
 62
     2
 10
109.11795
 20
-40.100006
 30
0.0
 11
109.11795
 21
-43.600006
 31
0.0
  0
LINE
  8
MO_001_VIEW_2
  6
C_SOLID_H
 62
    77
 10
109.11795
 20
-33.100006
 30
0.0
 11
109.11795
 21
-40.100006
 31
0.0
  0
LINE
  8
MO_001_VIEW_2
  6
C_SOLID_H
 62
    77
 10
110.11795
 20
-33.100006
 30
0.0
 11
110.11795
 21
-42.100006
 31
0.0
  0
ARC
  8
MO_001_VIEW_2
  6
C_SOLID_H
 62
    77
 10
107.546555
 20
-36.600006
 30
0.0
 40
4.128596
 50
146.145284
 51
213.854753
  0
LINE
  8
MO_001_VIEW_2
  6
C_SOLID_H
 62
    77
 10
104.11795
 20
-34.300003
 30
0.0
 11
104.11795
 21
-38.900009
 31
0.0
  0
LINE
  8
MO_001_VIEW_2
  6
C_SOLID_H
 62
    77
 10
111.11795
 20
-42.100006
 30
0.0
 11
110.11795
 21
-42.100006
 31
0.0
  0
ARC
  8
MO_001_VIEW_2
  6
C_SOLID_H
 62
    77
 10
107.546555
 20
23.599995
 30
0.0
 40
4.128596
 50
146.14523
 51
213.854698
  0
LINE
  8
MO_001_VIEW_2
  6
C_SOLID_H
 62
     1
 10
106.11795
 20
27.699921
 30
0.0
 11
106.11795
 21
14.300232
 31
0.0
  0
LINE
  8
MO_001_VIEW_2
  6
C_CENTER_L
 62
     1
 10
114.382049
 20
-6.500005
 30
0.0
 11
89.662811
 21
-6.500004
 31
0.0
  0
LINE
  8
MO_001_VIEW_2
  6
C_SOLID_H
 62
     1
 10
104.11795
 20
-40.699982
 30
0.0
 11
106.11795
 21
-40.699982
 31
0.0
  0
LINE
  8
MO_001_VIEW_2
  6
C_CENTER_L
 62
     1
 10
102.862122
 20
-36.449997
 30
0.0
 11
107.365631
 21
-36.449997
 31
0.0
  0
LINE
  8
MO_001_VIEW_2
  6
C_SOLID_H
 62
     1
 10
104.117962
 20
-40.699976
 30
0.0
 11
104.117968
 21
27.69992
 31
0.0
  0
LINE
  8
MO_001_VIEW_2
  6
C_SOLID_H
 62
     1
 10
104.117968
 20
27.69992
 30
0.0
 11
106.117968
 21
27.69992
 31
0.0
  0
LINE
  8
MO_001_VIEW_2
  6
C_CENTER_L
 62
     1
 10
103.211718
 20
23.44992
 30
0.0
 11
107.632967
 21
23.44992
 31
0.0
  0
LINE
  8
MO_001_VIEW_2
  6
C_SOLID_H
 62
     1
 10
106.11795
 20
14.300232
 30
0.0
 11
106.11795
 21
-40.699982
 31
0.0
  0
ARC
  8
MO_001_VIEW_2
  6
C_SOLID_H
 62
     1
 10
102.11795
 20
17.411591
 30
0.0
 40
2.0
 50
274.99999
 51
359.999818
  0
ARC
  8
MO_001_VIEW_2
  6
C_SOLID_M
 62
     1
 10
105.86795
 20
14.97908
 30
0.0
 40
0.25
 50
274.99999
 51
359.99949
  0
LINE
  8
MO_001_VIEW_2
  6
C_SOLID_H
 62
     1
 10
102.29227
 20
15.419122
 30
0.0
 11
92.943641
 21
14.601224
 31
0.0
  0
LINE
  8
MO_001_VIEW_2
  6
C_SOLID_H
 62
     1
 10
91.11795
 20
12.608826
 30
0.0
 11
91.11795
 21
-25.608826
 31
0.0
  0
ARC
  8
MO_001_VIEW_2
  6
C_SOLID_H
 62
     1
 10
93.11795
 20
12.608826
 30
0.0
 40
2.0
 50
95.000008
 51
180.000073
  0
ARC
  8
MO_001_VIEW_2
  6
C_SOLID_H
 62
     1
 10
102.11795
 20
-30.411499
 30
0.0
 40
2.0
 50
0.0
 51
85.00001
  0
LINE
  8
MO_001_VIEW_2
  6
C_SOLID_H
 62
     1
 10
102.29227
 20
-28.41913
 30
0.0
 11
92.943642
 21
-27.601231
 31
0.0
  0
ARC
  8
MO_001_VIEW_2
  6
C_SOLID_H
 62
     1
 10
93.11795
 20
-25.608826
 30
0.0
 40
2.0
 50
179.999909
 51
264.999974
  0
POLYLINE
  8
MO_001_VIEW_2
  6
C_SOLID_M
 62
     1
 66
     1
 10
0.0
 20
0.0
 30
0.0
  0
VERTEX
  8
MO_001_VIEW_2
  6
C_SOLID_M
 62
     1
 10
104.117966
 20
-30.411499
 30
0.0
  0
VERTEX
  8
MO_001_VIEW_2
  6
C_SOLID_M
 62
     1
 10
104.253354
 20
-30.387835
 30
0.0
  0
VERTEX
  8
MO_001_VIEW_2
  6
C_SOLID_M
 62
     1
 10
104.38504
 20
-30.348831
 30
0.0
  0
VERTEX
  8
MO_001_VIEW_2
  6
C_SOLID_M
 62
     1
 10
104.51866
 20
-30.288734
 30
0.0
  0
VERTEX
  8
MO_001_VIEW_2
  6
C_SOLID_M
 62
     1
 10
104.644511
 20
-30.212257
 30
0.0
  0
VERTEX
  8
MO_001_VIEW_2
  6
C_SOLID_M
 62
     1
 10
104.76282
 20
-30.123097
 30
0.0
  0
VERTEX
  8
MO_001_VIEW_2
  6
C_SOLID_M
 62
     1
 10
104.87381
 20
-30.024948
 30
0.0
  0
VERTEX
  8
MO_001_VIEW_2
  6
C_SOLID_M
 62
     1
 10
105.033328
 20
-29.862756
 30
0.0
  0
VERTEX
  8
MO_001_VIEW_2
  6
C_SOLID_M
 62
     1
 10
105.185913
 20
-29.695175
 30
0.0
  0
VERTEX
  8
MO_001_VIEW_2
  6
C_SOLID_M
 62
     1
 10
105.420704
 20
-29.437589
 30
0.0
  0
VERTEX
  8
MO_001_VIEW_2
  6
C_SOLID_M
 62
     1
 10
105.645233
 20
-29.171066
 30
0.0
  0
VERTEX
  8
MO_001_VIEW_2
  6
C_SOLID_M
 62
     1
 10
105.77947
 20
-28.985721
 30
0.0
  0
VERTEX
  8
MO_001_VIEW_2
  6
C_SOLID_M
 62
     1
 10
105.902472
 20
-28.792345
 30
0.0
  0
VERTEX
  8
MO_001_VIEW_2
  6
C_SOLID_M
 62
     1
 10
106.015034
 20
-28.592556
 30
0.0
  0
VERTEX
  8
MO_001_VIEW_2
  6
C_SOLID_M
 62
     1
 10
106.11795
 20
-28.38797
 30
0.0
  0
SEQEND
  8
MO_001_VIEW_2
  6
C_SOLID_M
 62
     1
  0
TEXT
  8
MO_001_VIEW_2
  6
C_SOLID_L
 10
119.289004
 20
-28.532257
 30
0.0
 40
4.0
  1
X
  0
POLYLINE
  8
MO_001_NOSHOW
  6
C_SOLID_M
 66
     1
 10
0.0
 20
0.0
 30
0.0
 70
     4
 75
     6
  0
VERTEX
  8
MO_001_NOSHOW
  6
C_SOLID_M
 10
104.117966
 20
-30.411499
 30
0.0
 50
7.009617
  0
VERTEX
  8
MO_001_NOSHOW
  6
C_SOLID_M
 10
104.38504
 20
-30.348831
 30
0.0
 50
20.221002
  0
VERTEX
  8
MO_001_NOSHOW
  6
C_SOLID_M
 10
104.87381
 20
-30.024948
 30
0.0
 50
43.355752
  0
VERTEX
  8
MO_001_NOSHOW
  6
C_SOLID_M
 10
105.185913
 20
-29.695175
 30
0.0
 50
47.745391
  0
VERTEX
  8
MO_001_NOSHOW
  6
C_SOLID_M
 10
105.645233
 20
-29.171066
 30
0.0
 50
52.222827
  0
VERTEX
  8
MO_001_NOSHOW
  6
C_SOLID_M
 10
106.11795
 20
-28.38797
 30
0.0
 50
64.524826
  0
SEQEND
  8
MO_001_NOSHOW
  6
C_SOLID_M
  0
DIMENSION
  8
MO_001_VIEW_2
  6
C_SOLID_M
  2
*D12
 10
100.11795
 20
69.241226
 30
0.0
 11
100.11795
 21
69.241226
 31
0.0
  1
18
 13
109.11795
 23
53.5
 33
0.0
 14
91.11795
 24
12.608826
 34
0.0
 50
89.999523
  3
STANDARD
  0
DIMENSION
  8
MO_001_VIEW_2
  6
C_SOLID_M
  2
*D13
 10
119.071404
 20
60.776672
 30
0.0
 11
119.071404
 21
60.776672
 31
0.0
  1
3
 13
109.11795
 23
53.5
 33
0.0
 14
106.11795
 24
53.5
 34
0.0
 50
89.999523
  3
STANDARD
  0
DIMENSION
  8
MO_001_VIEW_2
  6
C_SOLID_M
  2
*D14
 10
121.526756
 20
36.573753
 30
0.0
 11
121.526756
 21
36.573753
 31
0.0
  1
2.00
 13
111.11795
 23
30.599991
 33
0.0
 14
109.11795
 24
30.599991
 34
0.0
 50
89.999523
  3
STANDARD
  0
POINT
  8
MO_001_VIEW_1
  6
C_SOLID_M
 10
86.937805
 20
-97.386856
 30
0.0
  0
LINE
  8
MO_001_VIEW_1
  6
C_CENTER_L
 62
    77
 10
105.296448
 20
-104.28685
 30
0.0
 11
82.379089
 21
-104.28685
 31
0.0
  0
LINE
  8
MO_001_VIEW_1
  6
C_SOLID_H
 62
    95
 10
96.937805
 20
-98.986862
 30
0.0
 11
90.937805
 21
-98.986862
 31
0.0
  0
LINE
  8
MO_001_VIEW_1
  6
C_SOLID_H
 62
    95
 10
96.937805
 20
-109.586838
 30
0.0
 11
90.937805
 21
-109.586838
 31
0.0
  0
LINE
  8
MO_001_VIEW_1
  6
C_SOLID_H
 62
     2
 10
100.937805
 20
-86.480698
 30
0.0
 11
100.937805
 21
-97.28685
 31
0.0
  0
LINE
  8
MO_001_VIEW_1
  6
C_SOLID_H
 62
     2
 10
100.9378
 20
-118.286855
 30
0.0
 11
96.93783
 21
-118.286855
 31
0.0
  0
LINE
  8
MO_001_VIEW_1
  6
C_SOLID_H
 62
     2
 10
100.937831
 20
-93.086659
 30
0.0
 11
98.937801
 21
-93.086659
 31
0.0
  0
LINE
  8
MO_001_VIEW_1
  6
C_SOLID_H
 62
     2
 10
98.9378
 20
-111.48705
 30
0.0
 11
96.9378
 21
-111.48705
 31
0.0
  0
LINE
  8
MO_001_VIEW_1
  6
C_SOLID_H
 62
     2
 10
98.937801
 20
-97.086659
 30
0.0
 11
96.937831
 21
-97.086659
 31
0.0
  0
LINE
  8
MO_001_VIEW_1
  6
C_SOLID_H
 62
     2
 10
96.937805
 20
-86.338715
 30
0.0
 11
96.937805
 21
-97.28685
 31
0.0
  0
LINE
  8
MO_001_VIEW_1
  6
C_SOLID_H
 62
     2
 10
100.937805
 20
-115.386856
 30
0.0
 11
98.937805
 21
-115.386856
 31
0.0
  0
LINE
  8
MO_001_VIEW_1
  6
C_SOLID_H
 62
     2
 10
98.937805
 20
-93.086655
 30
0.0
 11
98.937805
 21
-97.28685
 31
0.0
  0
CIRCLE
  8
MO_001_VIEW_1
  6
C_CENTER_L
 10
98.303223
 20
-104.28685
 30
0.0
 40
18.0
  0
LINE
  8
MO_001_VIEW_1
  6
C_SOLID_H
 62
    95
 10
96.937805
 20
-118.28685
 30
0.0
 11
96.937805
 21
-122.234985
 31
0.0
  0
LINE
  8
MO_001_VIEW_1
  6
C_SOLID_H
 62
    14
 10
82.937805
 20
-113.086868
 30
0.0
 11
82.937805
 21
-113.662567
 31
0.0
  0
LINE
  8
MO_001_VIEW_1
  6
C_SOLID_H
 62
    14
 10
90.937805
 20
-113.086868
 30
0.0
 11
82.600998
 21
-113.086868
 31
0.0
  0
LINE
  8
MO_001_VIEW_1
  6
C_SOLID_H
 62
     1
 10
86.937805
 20
-112.486801
 30
0.0
 11
90.937805
 21
-112.486801
 31
0.0
  0
LINE
  8
MO_001_VIEW_1
  6
C_SOLID_H
 62
     1
 10
90.937795
 20
-112.48681
 30
0.0
 11
90.937795
 21
-107.886865
 31
0.0
  0
LINE
  8
MO_001_VIEW_1
  6
C_SOLID_H
 62
     1
 10
86.937805
 20
-100.586838
 30
0.0
 11
90.937805
 21
-100.586838
 31
0.0
  0
LINE
  8
MO_001_VIEW_1
  6
C_SOLID_H
 62
     1
 10
86.937805
 20
-107.986862
 30
0.0
 11
90.937805
 21
-107.986862
 31
0.0
  0
LINE
  8
MO_001_VIEW_1
  6
C_SOLID_H
 62
    95
 10
90.937805
 20
-112.486801
 30
0.0
 11
90.937805
 21
-120.710938
 31
0.0
  0
LINE
  8
MO_001_VIEW_1
  6
C_SOLID_H
 62
    77
 10
100.937805
 20
-97.28685
 30
0.0
 11
96.937805
 21
-97.28685
 31
0.0
  0
LINE
  8
MO_001_VIEW_1
  6
C_SOLID_H
 62
    77
 10
98.937805
 20
-111.28685
 30
0.0
 11
96.937805
 21
-111.28685
 31
0.0
  0
LINE
  8
MO_001_VIEW_1
  6
C_SOLID_H
 62
    77
 10
96.937805
 20
-99.086838
 30
0.0
 11
92.937805
 21
-99.086838
 31
0.0
  0
LINE
  8
MO_001_VIEW_1
  6
C_SOLID_H
 62
    77
 10
96.937805
 20
-109.486862
 30
0.0
 11
92.937805
 21
-109.486862
 31
0.0
  0
LINE
  8
MO_001_VIEW_1
  6
C_SOLID_H
 62
    77
 10
92.937805
 20
-100.686844
 30
0.0
 11
86.937805
 21
-100.686844
 31
0.0
  0
LINE
  8
MO_001_VIEW_1
  6
C_SOLID_H
 62
    77
 10
92.937805
 20
-107.886856
 30
0.0
 11
86.937805
 21
-107.886856
 31
0.0
  0
LINE
  8
MO_001_VIEW_1
  6
C_SOLID_H
 62
    77
 10
92.937805
 20
-99.086838
 30
0.0
 11
92.937805
 21
-109.486862
 31
0.0
  0
LINE
  8
MO_001_VIEW_1
  6
C_SOLID_H
 62
     2
 10
100.937805
 20
-115.28685
 30
0.0
 11
100.937805
 21
-118.28685
 31
0.0
  0
LINE
  8
MO_001_VIEW_1
  6
C_SOLID_H
 62
    77
 10
100.937805
 20
-97.28685
 30
0.0
 11
100.937805
 21
-115.28685
 31
0.0
  0
LINE
  8
MO_001_VIEW_1
  6
C_SOLID_H
 62
     2
 10
98.937805
 20
-115.28685
 30
0.0
 11
98.937805
 21
-115.386856
 31
0.0
  0
LINE
  8
MO_001_VIEW_1
  6
C_SOLID_H
 62
     2
 10
96.937805
 20
-111.28685
 30
0.0
 11
96.937805
 21
-118.28685
 31
0.0
  0
LINE
  8
MO_001_VIEW_1
  6
C_SOLID_H
 62
    77
 10
96.937805
 20
-97.28685
 30
0.0
 11
96.937805
 21
-111.28685
 31
0.0
  0
LINE
  8
MO_001_VIEW_1
  6
C_SOLID_H
 62
    77
 10
98.937805
 20
-97.28685
 30
0.0
 11
98.937805
 21
-115.28685
 31
0.0
  0
ARC
  8
MO_001_VIEW_1
  6
C_SOLID_H
 62
    77
 10
93.795013
 20
-104.28685
 30
0.0
 40
8.257193
 50
146.145284
 51
213.854753
  0
LINE
  8
MO_001_VIEW_1
  6
C_SOLID_H
 62
     1
 10
86.937805
 20
-91.909836
 30
0.0
 11
86.937805
 21
-100.686844
 31
0.0
  0
LINE
  8
MO_001_VIEW_1
  6
C_SOLID_H
 62
    77
 10
86.937805
 20
-99.686844
 30
0.0
 11
86.937805
 21
-108.886856
 31
0.0
  0
LINE
  8
MO_001_VIEW_1
  6
C_SOLID_H
 62
    77
 10
100.937805
 20
-115.28685
 30
0.0
 11
98.937805
 21
-115.28685
 31
0.0
  0
LINE
  8
MO_001_VIEW_1
  6
C_SOLID_H
 62
     1
 10
90.937796
 20
-100.686852
 30
0.0
 11
90.937797
 21
-87.862771
 31
0.0
  0
LINE
  8
MO_001_VIEW_1
  6
C_DASHED_L
 62
    77
 10
100.537811
 20
-107.520035
 30
0.0
 11
100.537811
 21
-115.28685
 31
0.0
  0
LINE
  8
MO_001_VIEW_1
  6
C_DASHED_L
 62
    77
 10
100.937805
 20
-100.822739
 30
0.0
 11
97.937805
 21
-100.822739
 31
0.0
  0
LINE
  8
MO_001_VIEW_1
  6
C_DASHED_L
 62
    77
 10
100.937805
 20
-102.554794
 30
0.0
 11
97.937805
 21
-102.554794
 31
0.0
  0
LINE
  8
MO_001_VIEW_1
  6
C_DASHED_L
 62
    77
 10
100.937805
 20
-106.01889
 30
0.0
 11
97.937805
 21
-106.01889
 31
0.0
  0
LINE
  8
MO_001_VIEW_1
  6
C_DASHED_L
 62
    77
 10
100.537811
 20
-107.750946
 30
0.0
 11
97.937805
 21
-107.750946
 31
0.0
  0
LINE
  8
MO_001_VIEW_1
  6
C_DASHED_L
 62
    77
 10
97.937798
 20
-100.822717
 30
0.0
 11
95.937791
 21
-104.286831
 31
0.0
  0
LINE
  8
MO_001_VIEW_1
  6
C_DASHED_L
 62
    77
 10
95.937799
 20
-104.286836
 30
0.0
 11
97.937807
 21
-107.750951
 31
0.0
  0
LINE
  8
MO_001_VIEW_1
  6
C_DASHED_L
 62
    77
 10
100.937805
 20
-107.520035
 30
0.0
 11
100.537811
 21
-107.520035
 31
0.0
  0
ARC
  8
MO_001_VIEW_1
  6
C_DASHED_L
 62
    77
 10
99.312836
 20
-101.688751
 30
0.0
 40
1.625035
 50
147.797097
 51
212.204197
  0
ARC
  8
MO_001_VIEW_1
  6
C_DASHED_L
 62
    77
 10
103.81279
 20
-104.286835
 30
0.0
 40
6.124981
 50
163.573632
 51
196.426514
  0
ARC
  8
MO_001_VIEW_1
  6
C_DASHED_L
 62
    77
 10
99.31282
 20
-106.884918
 30
0.0
 40
1.625009
 50
147.795841
 51
212.204142
  0
ARC
  8
MO_001_VIEW_1
  6
C_SOLID_H
 62
     1
 10
82.937805
 20
-91.909836
 30
0.0
 40
4.0
 50
0.0
 51
20.15177
  0
LINE
  8
MO_001_VIEW_1
  6
C_SOLID_H
 62
     1
 10
86.937805
 20
-107.886856
 30
0.0
 11
86.937805
 21
-112.486801
 31
0.0
  0
TEXT
  8
MO_001_VIEW_1
  6
C_SOLID_L
 10
114.986758
 20
-120.236679
 30
0.0
 40
4.0
  1
X 2:1
  0
INSERT
  8
MO_001_VIEW_2
  6
C_SOLID_M
 62
    95
  2
*X5
 10
0.0
 20
0.0
 30
0.0
  0
INSERT
  8
MO_001_VIEW_2
  6
C_SOLID_M
 62
     2
  2
*X6
 10
0.0
 20
0.0
 30
0.0
  0
INSERT
  8
MO_001_VIEW_2
  6
C_SOLID_M
 62
     2
  2
*X7
 10
0.0
 20
0.0
 30
0.0
  0
INSERT
  8
MO_001_VIEW_2
  6
C_SOLID_M
 62
     1
  2
*X8
 10
0.0
 20
0.0
 30
0.0
  0
INSERT
  8
MO_001_VIEW_2
  6
C_SOLID_M
 62
     1
  2
*X9
 10
0.0
 20
0.0
 30
0.0
  0
INSERT
  8
MO_001_VIEW_2
  6
C_SOLID_M
 62
    95
  2
*X10
 10
0.0
 20
0.0
 30
0.0
  0
INSERT
  8
MO_001_VIEW_2
  6
C_SOLID_M
 62
    95
  2
*X11
 10
0.0
 20
0.0
 30
0.0
  0
INSERT
  8
MO_001_VIEW_1
  6
C_SOLID_M
 62
     2
  2
*X15
 10
0.0
 20
0.0
 30
0.0
  0
INSERT
  8
MO_001_VIEW_1
  6
C_SOLID_M
 62
     1
  2
*X16
 10
0.0
 20
0.0
 30
0.0
  0
INSERT
  8
MO_001_VIEW_1
  6
C_SOLID_M
 62
    95
  2
*X17
 10
0.0
 20
0.0
 30
0.0
  0
INSERT
  8
MO_001_VIEW_1
  6
C_SOLID_M
 62
    95
  2
*X18
 10
0.0
 20
0.0
 30
0.0
  0
INSERT
  8
MO_001_VIEW_1
  6
C_SOLID_M
 62
     2
  2
*X19
 10
0.0
 20
0.0
 30
0.0
  0
INSERT
  8
MO_001_VIEW_1
  6
C_SOLID_M
 62
     1
  2
*X20
 10
0.0
 20
0.0
 30
0.0
  0
ENDSEC
  0
EOF
