  0
SECTION
  2
HEADER
  9
$ACADVER
  1
AC1015
  9
$ACADMAINTVER
 70
    14
  9
$DWGCODEPAGE
  3
ANSI_1252
  9
$INSBASE
 10
0.0
 20
0.0
 30
0.0
  9
$EXTMIN
 10
30.22666666666666
 20
8.227321825682992
 30
0.0
  9
$EXTMAX
 10
189.8000000000001
 20
282.8
 30
0.0
  9
$LIMMIN
 10
0.0
 20
0.0
  9
$LIMMAX
 10
210.0
 20
297.0
  9
$ORTHOMODE
 70
     0
  9
$REGENMODE
 70
     1
  9
$FILLMODE
 70
     1
  9
$QTEXTMODE
 70
     0
  9
$MIRRTEXT
 70
     1
  9
$LTSCALE
 40
8.0
  9
$ATTMODE
 70
     1
  9
$TEXTSIZE
 40
6.799999999999999
  9
$TRACEWID
 40
0.05
  9
$TEXTSTYLE
  7
ROMANS
  9
$CLAYER
  8
LAYER1
  9
$CELTYPE
  6
ByLayer
  9
$CECOLOR
 62
   256
  9
$CELTSCALE
 40
1.0
  9
$DISPSILH
 70
     0
  9
$DIMSCALE
 40
1.9
  9
$DIMASZ
 40
3.5
  9
$DIMEXO
 40
1.6
  9
$DIMDLI
 40
0.0
  9
$DIMRND
 40
0.0
  9
$DIMDLE
 40
0.0
  9
$DIMEXE
 40
1.8
  9
$DIMTP
 40
0.0
  9
$DIMTM
 40
0.0
  9
$DIMTXT
 40
3.399999999999999
  9
$DIMCEN
 40
1.5
  9
$DIMTSZ
 40
0.0
  9
$DIMTOL
 70
     0
  9
$DIMLIM
 70
     0
  9
$DIMTIH
 70
     0
  9
$DIMTOH
 70
     0
  9
$DIMSE1
 70
     0
  9
$DIMSE2
 70
     0
  9
$DIMTAD
 70
     1
  9
$DIMZIN
 70
     8
  9
$DIMBLK
  1

  9
$DIMASO
 70
     1
  9
$DIMSHO
 70
     1
  9
$DIMPOST
  1

  9
$DIMAPOST
  1

  9
$DIMALT
 70
     0
  9
$DIMALTD
 70
     2
  9
$DIMALTF
 40
25.4
  9
$DIMLFAC
 40
1.0
  9
$DIMTOFL
 70
     1
  9
$DIMTVP
 40
0.0
  9
$DIMTIX
 70
     1
  9
$DIMSOXD
 70
     0
  9
$DIMSAH
 70
     0
  9
$DIMBLK1
  1

  9
$DIMBLK2
  1

  9
$DIMSTYLE
  2
Standard
  9
$DIMCLRD
 70
     2
  9
$DIMCLRE
 70
     2
  9
$DIMCLRT
 70
     3
  9
$DIMTFAC
 40
0.5
  9
$DIMGAP
 40
1.0
  9
$DIMJUST
 70
     0
  9
$DIMSD1
 70
     0
  9
$DIMSD2
 70
     0
  9
$DIMTOLJ
 70
     1
  9
$DIMTZIN
 70
     8
  9
$DIMALTZ
 70
     8
  9
$DIMALTTZ
 70
     8
  9
$DIMUPT
 70
     0
  9
$DIMDEC
 70
     2
  9
$DIMTDEC
 70
     2
  9
$DIMALTU
 70
     2
  9
$DIMALTTD
 70
     2
  9
$DIMTXSTY
  7
STANDARD
  9
$DIMAUNIT
 70
     0
  9
$DIMADEC
 70
     0
  9
$DIMALTRND
 40
0.0
  9
$DIMAZIN
 70
     0
  9
$DIMDSEP
 70
    46
  9
$DIMATFIT
 70
     3
  9
$DIMFRAC
 70
     0
  9
$DIMLDRBLK
  1

  9
$DIMLUNIT
 70
     2
  9
$DIMLWD
 70
    -2
  9
$DIMLWE
 70
    -2
  9
$DIMTMOVE
 70
     2
  9
$LUNITS
 70
     2
  9
$LUPREC
 70
     2
  9
$SKETCHINC
 40
0.1
  9
$FILLETRAD
 40
0.0
  9
$AUNITS
 70
     0
  9
$AUPREC
 70
     0
  9
$MENU
  1
CADIM
  9
$ELEVATION
 40
0.0
  9
$PELEVATION
 40
0.0
  9
$THICKNESS
 40
0.0
  9
$LIMCHECK
 70
     0
  9
$CHAMFERA
 40
0.0
  9
$CHAMFERB
 40
0.0
  9
$CHAMFERC
 40
0.0
  9
$CHAMFERD
 40
0.0
  9
$SKPOLY
 70
     0
  9
$TDCREATE
 40
2449973.318550694
  9
$TDUCREATE
 40
2449973.235217361
  9
$TDUPDATE
 40
2449973.330249652
  9
$TDUUPDATE
 40
2449973.246916319
  9
$TDINDWG
 40
0.0124758102
  9
$TDUSRTIMER
 40
0.0124758102
  9
$USRTIMER
 70
     1
  9
$ANGBASE
 50
0.0
  9
$ANGDIR
 70
     0
  9
$PDMODE
 70
     0
  9
$PDSIZE
 40
0.0
  9
$PLINEWID
 40
0.0
  9
$SPLFRAME
 70
     0
  9
$SPLINETYPE
 70
     6
  9
$SPLINESEGS
 70
     8
  9
$HANDSEED
  5
106
  9
$SURFTAB1
 70
     6
  9
$SURFTAB2
 70
     6
  9
$SURFTYPE
 70
     6
  9
$SURFU
 70
     6
  9
$SURFV
 70
     6
  9
$UCSBASE
  2

  9
$UCSNAME
  2

  9
$UCSORG
 10
0.0
 20
0.0
 30
0.0
  9
$UCSXDIR
 10
1.0
 20
0.0
 30
0.0
  9
$UCSYDIR
 10
0.0
 20
1.0
 30
0.0
  9
$UCSORTHOREF
  2

  9
$UCSORTHOVIEW
 70
     0
  9
$UCSORGTOP
 10
0.0
 20
0.0
 30
0.0
  9
$UCSORGBOTTOM
 10
0.0
 20
0.0
 30
0.0
  9
$UCSORGLEFT
 10
0.0
 20
0.0
 30
0.0
  9
$UCSORGRIGHT
 10
0.0
 20
0.0
 30
0.0
  9
$UCSORGFRONT
 10
0.0
 20
0.0
 30
0.0
  9
$UCSORGBACK
 10
0.0
 20
0.0
 30
0.0
  9
$PUCSBASE
  2

  9
$PUCSNAME
  2

  9
$PUCSORG
 10
0.0
 20
0.0
 30
0.0
  9
$PUCSXDIR
 10
1.0
 20
0.0
 30
0.0
  9
$PUCSYDIR
 10
0.0
 20
1.0
 30
0.0
  9
$PUCSORTHOREF
  2

  9
$PUCSORTHOVIEW
 70
     0
  9
$PUCSORGTOP
 10
0.0
 20
0.0
 30
0.0
  9
$PUCSORGBOTTOM
 10
0.0
 20
0.0
 30
0.0
  9
$PUCSORGLEFT
 10
0.0
 20
0.0
 30
0.0
  9
$PUCSORGRIGHT
 10
0.0
 20
0.0
 30
0.0
  9
$PUCSORGFRONT
 10
0.0
 20
0.0
 30
0.0
  9
$PUCSORGBACK
 10
0.0
 20
0.0
 30
0.0
  9
$USERI1
 70
     0
  9
$USERI2
 70
     0
  9
$USERI3
 70
     0
  9
$USERI4
 70
     0
  9
$USERI5
 70
     0
  9
$USERR1
 40
0.0
  9
$USERR2
 40
0.0
  9
$USERR3
 40
0.0
  9
$USERR4
 40
0.0
  9
$USERR5
 40
0.0
  9
$WORLDVIEW
 70
     1
  9
$SHADEDGE
 70
     3
  9
$SHADEDIF
 70
    70
  9
$TILEMODE
 70
     1
  9
$MAXACTVP
 70
    16
  9
$PINSBASE
 10
0.0
 20
0.0
 30
0.0
  9
$PLIMCHECK
 70
     0
  9
$PEXTMIN
 10
1.000000000000000E+20
 20
1.000000000000000E+20
 30
1.000000000000000E+20
  9
$PEXTMAX
 10
-1.000000000000000E+20
 20
-1.000000000000000E+20
 30
-1.000000000000000E+20
  9
$PLIMMIN
 10
0.0
 20
0.0
  9
$PLIMMAX
 10
12.0
 20
9.0
  9
$UNITMODE
 70
     0
  9
$VISRETAIN
 70
     0
  9
$PLINEGEN
 70
     0
  9
$PSLTSCALE
 70
     1
  9
$TREEDEPTH
 70
  3020
  9
$CMLSTYLE
  2
Standard
  9
$CMLJUST
 70
     0
  9
$CMLSCALE
 40
1.0
  9
$PROXYGRAPHICS
 70
     1
  9
$MEASUREMENT
 70
     0
  9
$CELWEIGHT
370
    -1
  9
$ENDCAPS
280
     0
  9
$JOINSTYLE
280
     0
  9
$LWDISPLAY
290
     0
  9
$INSUNITS
 70
     0
  9
$HYPERLINKBASE
  1

  9
$STYLESHEET
  1

  9
$XEDIT
290
     1
  9
$CEPSNTYPE
380
     0
  9
$PSTYLEMODE
290
     1
  9
$FINGERPRINTGUID
  2
{8C7914AB-37A3-49DA-BC47-6D2F5DB5D98F}
  9
$VERSIONGUID
  2
{0FD6C6AA-9759-415F-8D0E-32491C3794A4}
  9
$EXTNAMES
290
     1
  9
$PSVPSCALE
 40
0.0
  9
$OLESTARTUP
290
     0
  0
ENDSEC
  0
SECTION
  2
CLASSES
  0
CLASS
  1
ACDBDICTIONARYWDFLT
  2
AcDbDictionaryWithDefault
  3
AutoCAD 2000
 90
        0
280
     0
281
     0
  0
CLASS
  1
ACDBPLACEHOLDER
  2
AcDbPlaceHolder
  3
AutoCAD 2000
 90
        0
280
     0
281
     0
  0
CLASS
  1
LAYOUT
  2
AcDbLayout
  3
AutoCAD 2000
 90
        0
280
     0
281
     0
  0
CLASS
  1
ACME_DOCUMENT
  2
AcMeDbDoc
  3
AcMeServices
 90
    32768
280
     0
281
     0
  0
CLASS
  1
AMGSETTINGSOBJ
  2
AmgSettingsObj
  3
"AcadM|Product Description: AutoCAD Mechanical 2000|Company: Autodesk"
 90
        0
280
     0
281
     0
  0
CLASS
  1
ACMESCOPE
  2
AcMeScope
  3
AcMeServices
 90
        0
280
     0
281
     0
  0
CLASS
  1
ACMECOMMANDHISTORY
  2
AcMeCommandHistory
  3
AcMeServices
 90
    32768
280
     0
281
     0
  0
CLASS
  1
ACIMSYSVARMAN
  2
AcImSysVarManager
  3
AcMeServices
 90
        0
280
     0
281
     0
  0
CLASS
  1
ACIMREALSYSVAR
  2
AcImRealSysVar
  3
AcMeServices
 90
    32768
280
     0
281
     0
  0
CLASS
  1
ACIMINTSYSVAR
  2
AcImIntSysVar
  3
AcMeServices
 90
    32768
280
     0
281
     0
  0
CLASS
  1
ACMEDRAWINGMAN
  2
AcMeDrawingMan
  3
AcMeServices
 90
    32768
280
     0
281
     0
  0
CLASS
  1
ACMEVIEW
  2
AcMeView
  3
AcMeServices
 90
    32768
280
     0
281
     0
  0
CLASS
  1
ACDBENTITYCACHE
  2
AcMeEntityCache
  3
AcMeServices
 90
    32768
280
     0
281
     0
  0
CLASS
  1
GSMANAGER
  2
AcMeGSManager
  3
AcMeServices
 90
    32768
280
     0
281
     0
  0
CLASS
  1
AMDTINTERNALREACTOR
  2
AmdtInternalReactor
  3
AcMeServices
 90
    32768
280
     0
281
     0
  0
CLASS
  1
ACMESTATEMGR
  2
AcMeStateMgr
  3
AcMeServices
 90
        0
280
     0
281
     0
  0
CLASS
  1
ACGREFMASTER
  2
AcGrefMaster
  3
AcAttribServices
 90
        0
280
     0
281
     0
  0
CLASS
  1
ACME_DATABASE
  2
AcMeDbDatabase
  3
AcMeServices
 90
    32768
280
     0
281
     0
  0
CLASS
  1
ACRFINSADJUSTERMGR
  2
AcRfInsAdjusterMgr
  3
AcMeServices
 90
    32768
280
     0
281
     0
  0
CLASS
  1
ACGREFACADMASTER
  2
AcGrefacadMaster
  3
AcGrefServices
 90
    32768
280
     0
281
     0
  0
CLASS
  1
AMIMASTER
  2
AmiMaster
  3
AmiServices
 90
    32768
280
     0
281
     0
  0
CLASS
  1
ACMDATADICTIONARY
  2
AcmDataDictionary
  3
"AcmSymBB|Product Description: AutoCAD Mechanical 2000|Company: Autodesk"
 90
    32768
280
     0
281
     0
  0
CLASS
  1
ACMDATAENTRYBLOCK
  2
AcmDataEntryBlock
  3
"AcmSymBB|Product Description: AutoCAD Mechanical 2000|Company: Autodesk"
 90
    32768
280
     0
281
     0
  0
CLASS
  1
ACIMSTRSYSVAR
  2
AcImStrSysVar
  3
AcMeServices
 90
        0
280
     0
281
     0
  0
CLASS
  1
ACMSTANDARDANSI
  2
AcmStandardANSI
  3
"Amdt_StdImp|Product Description: AutoCAD Mechanical 2000|Company: Autodesk"
 90
        0
280
     0
281
     0
  0
CLASS
  1
AMGOBJPROPCFG
  2
AmgObjPropCfg
  3
"AmgLay|Product Description: AutoCAD Mechanical 2000|Company: Autodesk"
 90
        1
280
     0
281
     0
  0
CLASS
  1
ACMSURFSTANDARDANSI
  2
AcmSurfTextStdANSI
  3
"Amdt_StdImp|Product Description: AutoCAD Mechanical 2000|Company: Autodesk"
 90
        0
280
     0
281
     0
  0
CLASS
  1
ACMFCFSTANDARDANSI
  2
AcmFCFStdANSI
  3
"Amdt_StdImp|Product Description: AutoCAD Mechanical 2000|Company: Autodesk"
 90
        0
280
     0
281
     0
  0
CLASS
  1
ACMWELDSTANDARDANSI
  2
AcmWeldingStdANSI
  3
"Amdt_StdImp|Product Description: AutoCAD Mechanical 2000|Company: Autodesk"
 90
        0
280
     0
281
     0
  0
CLASS
  1
ACMIDSTANDARDANSI
  2
AcmIdStdANSI
  3
"Amdt_StdImp|Product Description: AutoCAD Mechanical 2000|Company: Autodesk"
 90
        0
280
     0
281
     0
  0
CLASS
  1
ACMDATUMSTANDARDANSI
  2
AcmDatumStdANSI
  3
"Amdt_StdImp|Product Description: AutoCAD Mechanical 2000|Company: Autodesk"
 90
        0
280
     0
281
     0
  0
CLASS
  1
ACMBOMSTANDARDANSI
  2
AcmBOMStdANSI
  3
"Amdt_StdImp|Product Description: AutoCAD Mechanical 2000|Company: Autodesk"
 90
        0
280
     0
281
     0
  0
CLASS
  1
ACMDETAILSTANDARDANSI
  2
AmdtDetailSymStdANSI
  3
"Amdt_StdImp|Product Description: AutoCAD Mechanical 2000|Company: Autodesk"
 90
        0
280
     0
281
     0
  0
CLASS
  1
ACMSECTIONSTANDARDANSI
  2
AmdtSectionSymStdANSI
  3
"Amdt_StdImp|Product Description: AutoCAD Mechanical 2000|Company: Autodesk"
 90
        0
280
     0
281
     0
  0
CLASS
  1
ACMCENTERLINESTANDARDANSI
  2
AmdtCenterLineStdANSI
  3
"Amdt_StdImp|Product Description: AutoCAD Mechanical 2000|Company: Autodesk"
 90
        0
280
     0
281
     0
  0
CLASS
  1
ACMNOTESTANDARDANSI
  2
AmdtNoteStdANSI
  3
"Amdt_StdImp|Product Description: AutoCAD Mechanical 2000|Company: Autodesk"
 90
        0
280
     0
281
     0
  0
CLASS
  1
ACAMGLAYSTD
  2
AcAmgLayStd
  3
"AcAmgLayStd|Product Description: AutoCAD Mechanical 2000|Company: Autodesk"
 90
        0
280
     0
281
     0
  0
CLASS
  1
ACAMGDIMSTD
  2
AcAmgDimStd
  3
"AcAmgDimStd|Product Description: AutoCAD Mechanical 2000|Company: Autodesk"
 90
        0
280
     0
281
     0
  0
CLASS
  1
ACAMGHOLECHARTSTDANSI
  2
AcAmgHoleChartStdANSI
  3
ACMSYMBB_MODULE_NAME
 90
        0
280
     0
281
     0
  0
CLASS
  1
ACAMGTITLESTD
  2
AcAmgTitleStd
  3
"TITLEAPP"
 90
        0
280
     0
281
     0
  0
CLASS
  1
ACAMGFILTERDAT
  2
AcAmgFilterDat
  3
"AcadM|Product Description: AutoCAD Mechanical 2000|Company: Autodesk"
 90
    32768
280
     0
281
     0
  0
CLASS
  1
DICTIONARYVAR
  2
AcDbDictionaryVar
  3
AutoCAD 2000
 90
        0
280
     0
281
     0
  0
ENDSEC
  0
SECTION
  2
TABLES
  0
TABLE
  2
VPORT
  5
19
330
0
100
AcDbSymbolTable
 70
     1
  0
VPORT
  5
1A
330
19
100
AcDbSymbolTableRecord
100
AcDbViewportTableRecord
  2
*Active
 70
     0
 10
0.0
 20
0.0
 11
1.0
 21
1.0
 12
234.4622290752907
 22
112.0875289291957
 13
0.0
 23
0.0
 14
2.0
 24
2.0
 15
10.0
 25
10.0
 16
0.0
 26
0.0
 36
1.0
 17
0.0
 27
0.0
 37
0.0
 40
465.8413434432289
 41
1.712406015037593
 42
50.0
 43
0.0
 44
0.0
 50
0.0
 51
0.0
 71
     0
 72
   100
 73
     1
 74
     1
 75
     0
 76
     1
 77
     0
 78
     0
281
     0
 65
     1
110
0.0
120
0.0
130
0.0
111
1.0
121
0.0
131
0.0
112
0.0
122
1.0
132
0.0
 79
     0
146
0.0
  0
ENDTAB
  0
TABLE
  2
LTYPE
  5
14
330
0
100
AcDbSymbolTable
 70
    12
  0
LTYPE
  5
15
330
14
100
AcDbSymbolTableRecord
100
AcDbLinetypeTableRecord
  2
ByBlock
 70
     0
  3

 72
    65
 73
     0
 40
0.0
  0
LTYPE
  5
16
330
14
100
AcDbSymbolTableRecord
100
AcDbLinetypeTableRecord
  2
ByLayer
 70
     0
  3

 72
    65
 73
     0
 40
0.0
  0
LTYPE
  5
8
330
14
100
AcDbSymbolTableRecord
100
AcDbLinetypeTableRecord
  2
CONTINUOUS
 70
     0
  3
Durchgezogene Linie
 72
    65
 73
     0
 40
0.0
  0
LTYPE
  5
C9
330
14
100
AcDbSymbolTableRecord
100
AcDbLinetypeTableRecord
  2
VERDECKT
 70
     0
  3
__ __ __ __ __ __ __ __ __ __ __ __ __ __ __ __
 72
    65
 73
     2
 40
0.375
 49
0.25
 74
     0
 49
-0.125
 74
     0
  0
LTYPE
  5
81
330
14
100
AcDbSymbolTableRecord
100
AcDbLinetypeTableRecord
  2
STRICHPUNKT
 70
     0
  3
__ . __ . __ . __ . __ . __ . __ . __ . __ . __
 72
    65
 73
     4
 40
1.0
 49
0.5
 74
     0
 49
-0.25
 74
     0
 49
0.0
 74
     0
 49
-0.25
 74
     0
  0
LTYPE
  5
D6
330
14
100
AcDbSymbolTableRecord
100
AcDbLinetypeTableRecord
  2
Amconstr
 70
     0
  3
_______________________
 72
    65
 73
     2
 40
9999.0
 49
9999.0
 74
     0
 49
0.0
 74
     0
  0
LTYPE
  5
D3
330
14
100
AcDbSymbolTableRecord
100
AcDbLinetypeTableRecord
  2
HIDDEN
 70
     0
  3
Hidden __ __ __ __ __ __ __ __ __ __ __ __ __ _
 72
    65
 73
     2
 40
0.375
 49
0.25
 74
     0
 49
-0.125
 74
     0
  0
LTYPE
  5
D4
330
14
100
AcDbSymbolTableRecord
100
AcDbLinetypeTableRecord
  2
CENTER
 70
     0
  3
Center ____ _ ____ _ ____ _ ____ _ ____ _ ____
 72
    65
 73
     4
 40
2.0
 49
1.25
 74
     0
 49
-0.25
 74
     0
 49
0.25
 74
     0
 49
-0.25
 74
     0
  0
LTYPE
  5
D5
330
14
100
AcDbSymbolTableRecord
100
AcDbLinetypeTableRecord
  2
PHANTOM2
 70
     0
  3
Phantom (.5x) ___ _ _ ___ _ _ ___ _ _ ___ _ _
 72
    65
 73
     6
 40
1.25
 49
0.625
 74
     0
 49
-0.125
 74
     0
 49
0.125
 74
     0
 49
-0.125
 74
     0
 49
0.125
 74
     0
 49
-0.125
 74
     0
  0
LTYPE
  5
D7
330
14
100
AcDbSymbolTableRecord
100
AcDbLinetypeTableRecord
  2
CENTER2
 70
     0
  3
Center (.5x) ___ _ ___ _ ___ _ ___ _ ___ _ ___
 72
    65
 73
     4
 40
1.125
 49
0.75
 74
     0
 49
-0.125
 74
     0
 49
0.125
 74
     0
 49
-0.125
 74
     0
  0
LTYPE
  5
D8
330
14
100
AcDbSymbolTableRecord
100
AcDbLinetypeTableRecord
  2
HIDDEN2
 70
     0
  3
Hidden (.5x) _ _ _ _ _ _ _ _ _ _ _ _ _ _ _ _ _
 72
    65
 73
     2
 40
0.1875
 49
0.125
 74
     0
 49
-0.0625
 74
     0
  0
LTYPE
  5
D9
330
14
100
AcDbSymbolTableRecord
100
AcDbLinetypeTableRecord
  2
Amzigzag2
 70
     0
  3
/\/-/\/-/\/-/\/-/\/-/\/
 72
    65
 73
     2
 40
0.4401
 49
0.0001
 74
     4
 75
   135
340
DA
 46
0.0016
 50
0.0
 44
0.0
 45
0.0
 49
-0.4400000000000001
 74
     0
  0
LTYPE
  5
EB
330
14
100
AcDbSymbolTableRecord
100
AcDbLinetypeTableRecord
  2
ACANSTGB
 70
     0
  3
__ . . __ . .
 72
    65
 73
     6
 40
0.35433070866
 49
0.15748031496
 74
     0
 49
-0.03937007874
 74
     0
 49
0.03937007874
 74
     0
 49
-0.03937007874
 74
     0
 49
0.03937007874
 74
     0
 49
-0.03937007874
 74
     0
  0
LTYPE
  5
EC
330
14
100
AcDbSymbolTableRecord
100
AcDbLinetypeTableRecord
  2
ACANSTGL
 70
     0
  3
_ _ _ _ _
 72
    65
 73
     2
 40
0.11811023622
 49
0.07874015748
 74
     0
 49
-0.03937007874
 74
     0
  0
ENDTAB
  0
TABLE
  2
LAYER
  5
10
330
0
100
AcDbSymbolTable
 70
     4
  0
LAYER
  5
4
330
10
100
AcDbSymbolTableRecord
100
AcDbLayerTableRecord
  2
0
 70
     0
 62
     7
  6
CONTINUOUS
370
    -3
390
5
  0
LAYER
  5
22
330
10
100
AcDbSymbolTableRecord
100
AcDbLayerTableRecord
  2
LAYER1
 70
     0
 62
     3
  6
CONTINUOUS
370
    -3
390
5
  0
LAYER
  5
62
330
10
100
AcDbSymbolTableRecord
100
AcDbLayerTableRecord
  2
LAYER3
 70
     0
 62
     4
  6
CONTINUOUS
370
    -3
390
5
  0
LAYER
  5
31
330
10
100
AcDbSymbolTableRecord
100
AcDbLayerTableRecord
  2
DEFPOINTS
 70
     0
 62
     7
  6
CONTINUOUS
290
     0
370
    -3
390
5
  0
ENDTAB
  0
TABLE
  2
STYLE
  5
11
330
0
100
AcDbSymbolTable
 70
     5
  0
STYLE
  5
12
330
11
100
AcDbSymbolTableRecord
100
AcDbTextStyleTableRecord
  2
STANDARD
 70
     0
 40
0.0
 41
1.0
 50
0.0
 71
     0
 42
0.2
  3
txt
  4

  0
STYLE
  5
23
330
11
100
AcDbSymbolTableRecord
100
AcDbTextStyleTableRecord
  2
ROMANS
 70
     0
 40
6.799999999999999
 41
0.7
 50
0.0
 71
     0
 42
6.799999999999999
  3
ROMANS.shx
  4

  0
STYLE
  5
DA
330
11
100
AcDbSymbolTableRecord
100
AcDbTextStyleTableRecord
  2

 70
     1
 40
0.0
 41
1.0
 50
0.0
 71
     0
 42
6.799999999999999
  3
ltypeshp.shx
  4

  0
STYLE
  5
E4
330
11
100
AcDbSymbolTableRecord
100
AcDbTextStyleTableRecord
  2
ACANSTS
 70
     0
 40
1.0
 41
1.0
 50
0.0
 71
     0
 42
6.799999999999999
  3
romans.shx
  4

  0
STYLE
  5
E7
330
11
100
AcDbSymbolTableRecord
100
AcDbTextStyleTableRecord
  2
ACANSGDT
 70
     0
 40
0.0
 41
1.0
 50
0.0
 71
     0
 42
6.799999999999999
  3
amgdtans.shx
  4

  0
ENDTAB
  0
TABLE
  2
VIEW
  5
17
330
0
100
AcDbSymbolTable
 70
     0
  0
ENDTAB
  0
TABLE
  2
UCS
  5
18
330
0
100
AcDbSymbolTable
 70
     0
  0
ENDTAB
  0
TABLE
  2
APPID
  5
1B
330
0
100
AcDbSymbolTable
 70
     1
  0
APPID
  5
1C
330
1B
100
AcDbSymbolTableRecord
100
AcDbRegAppTableRecord
  2
ACAD
 70
     0
  0
ENDTAB
  0
TABLE
  2
DIMSTYLE
  5
1D
330
0
100
AcDbSymbolTable
 70
     7
100
AcDbDimStyleTable
 71
     1
340
25
  0
DIMSTYLE
105
25
102
{ACAD_REACTORS
330
26
330
36
330
45
330
52
330
66
330
73
330
86
330
93
330
A8
330
B7
102
}
330
1D
100
AcDbSymbolTableRecord
100
AcDbDimStyleTableRecord
  2
Standard
 70
     0
340
12
  0
DIMSTYLE
105
F4
330
1D
100
AcDbSymbolTableRecord
100
AcDbDimStyleTableRecord
  2
AM_ANSI
 70
     0
  4
mm
 41
0.1
 42
0.05
 43
0.5
 44
0.1
 47
0.1
 48
0.1
 78
     7
 79
     2
140
0.12
141
0.0
146
0.71
147
0.06
176
   256
177
   256
178
     2
274
     4
284
     7
340
12
371
    -1
372
    -1
  0
DIMSTYLE
105
F5
330
1D
100
AcDbSymbolTableRecord
100
AcDbDimStyleTableRecord
  2
AM_ANSI$3
 70
     0
  4
mm
 41
0.1
 42
0.05
 43
0.5
 44
0.1
 47
0.1
 48
0.1
 78
     7
 79
     2
140
0.12
141
0.0
146
0.71
147
0.06
176
   256
177
   256
178
     2
274
     4
284
     7
288
     1
289
     0
340
12
371
    -1
372
    -1
  0
DIMSTYLE
105
F6
330
1D
100
AcDbSymbolTableRecord
100
AcDbDimStyleTableRecord
  2
AM_ANSI$4
 70
     0
  4
mm
 41
0.1
 42
0.05
 43
0.5
 44
0.1
 47
0.1
 48
0.1
 78
     7
 79
     2
140
0.12
141
0.0
146
0.71
147
0.06
176
   256
177
   256
178
     2
274
     4
284
     7
288
     1
289
     0
340
12
371
    -1
372
    -1
  0
DIMSTYLE
105
F7
330
1D
100
AcDbSymbolTableRecord
100
AcDbDimStyleTableRecord
  2
AM_ANSI$7
 70
     0
  4
mm
 41
0.1
 42
0.05
 43
0.5
 44
0.1
 47
0.1
 48
0.1
 78
     7
 79
     2
140
0.24
141
0.0
146
0.71
147
0.06
176
   256
177
   256
178
     2
274
     4
284
     7
340
12
371
    -1
372
    -1
  0
DIMSTYLE
105
F8
330
1D
100
AcDbSymbolTableRecord
100
AcDbDimStyleTableRecord
  2
AM_ANSI$SF
 70
     0
  4
mm
 41
0.1
 42
0.05
 43
0.5
 44
0.1
 47
0.1
 48
0.1
 75
     1
 76
     1
 78
     7
 79
     2
140
0.12
141
0.0
146
0.71
147
0.06
176
   256
177
   256
178
     2
274
     4
284
     7
340
12
371
    -1
372
    -1
  0
DIMSTYLE
105
F9
330
1D
100
AcDbSymbolTableRecord
100
AcDbDimStyleTableRecord
  2
AM_ANSI$SH
 70
     0
  4
mm
 41
0.1
 42
0.05
 43
0.5
 44
0.1
 47
0.1
 48
0.1
 75
     1
 76
     1
 78
     7
 79
     2
140
0.12
141
0.0
146
0.71
147
0.06
173
     1
176
   256
177
   256
178
     2
274
     4
284
     7
340
12
343
FA
371
    -1
372
    -1
  0
ENDTAB
  0
TABLE
  2
BLOCK_RECORD
  5
1
330
0
100
AcDbSymbolTable
 70
    11
  0
BLOCK_RECORD
  5
2
330
1
100
AcDbSymbolTableRecord
100
AcDbBlockTableRecord
  2
*Model_Space
340
A
  0
BLOCK_RECORD
  5
C
330
1
100
AcDbSymbolTableRecord
100
AcDbBlockTableRecord
  2
*Paper_Space
340
F
  0
BLOCK_RECORD
  5
74
330
1
100
AcDbSymbolTableRecord
100
AcDbBlockTableRecord
  2
*D0
340
0
  0
BLOCK_RECORD
  5
B8
330
1
100
AcDbSymbolTableRecord
100
AcDbBlockTableRecord
  2
*D1
340
0
  0
BLOCK_RECORD
  5
53
330
1
100
AcDbSymbolTableRecord
100
AcDbBlockTableRecord
  2
*D2
340
0
  0
BLOCK_RECORD
  5
94
330
1
100
AcDbSymbolTableRecord
100
AcDbBlockTableRecord
  2
*D3
340
0
  0
BLOCK_RECORD
  5
A9
330
1
100
AcDbSymbolTableRecord
100
AcDbBlockTableRecord
  2
*D4
340
0
  0
BLOCK_RECORD
  5
46
330
1
100
AcDbSymbolTableRecord
100
AcDbBlockTableRecord
  2
*D5
340
0
  0
BLOCK_RECORD
  5
87
330
1
100
AcDbSymbolTableRecord
100
AcDbBlockTableRecord
  2
*D6
340
0
  0
BLOCK_RECORD
  5
67
330
1
100
AcDbSymbolTableRecord
100
AcDbBlockTableRecord
  2
*D7
340
0
  0
BLOCK_RECORD
  5
37
330
1
100
AcDbSymbolTableRecord
100
AcDbBlockTableRecord
  2
*D8
340
0
  0
BLOCK_RECORD
  5
27
330
1
100
AcDbSymbolTableRecord
100
AcDbBlockTableRecord
  2
*D9
340
0
  0
BLOCK_RECORD
  5
FA
330
1
100
AcDbSymbolTableRecord
100
AcDbBlockTableRecord
  2
GENAXEH
340
0
  0
ENDTAB
  0
ENDSEC
  0
SECTION
  2
BLOCKS
  0
BLOCK
  5
3
330
2
100
AcDbEntity
  8
0
100
AcDbBlockBegin
  2
*Model_Space
 70
     0
 10
0.0
 20
0.0
 30
0.0
  3
*Model_Space
  1

  0
ENDBLK
  5
9
330
2
100
AcDbEntity
  8
0
100
AcDbBlockEnd
  0
BLOCK
  5
D
330
C
100
AcDbEntity
 67
     1
  8
0
100
AcDbBlockBegin
  2
*Paper_Space
 70
     0
 10
0.0
 20
0.0
 30
0.0
  3
*Paper_Space
  1

  0
ENDBLK
  5
E
330
C
100
AcDbEntity
 67
     1
  8
0
100
AcDbBlockEnd
  0
BLOCK
  5
7E
330
74
100
AcDbEntity
  8
0
100
AcDbBlockBegin
  2
*D0
 70
     1
 10
0.0
 20
0.0
 30
0.0
  3
*D0
  1
ACA_CFG
  0
LINE
  5
75
330
74
100
AcDbEntity
  8
0
  6
ByBlock
 62
     2
100
AcDbLine
 10
80.0
 20
46.96
 30
0.0
 11
80.0
 21
29.72732182568299
 31
0.0
  0
LINE
  5
76
330
74
100
AcDbEntity
  8
0
  6
ByBlock
 62
     2
100
AcDbLine
 10
106.0
 20
46.96
 30
0.0
 11
106.0
 21
29.72732182568299
 31
0.0
  0
LINE
  5
77
330
74
100
AcDbEntity
  8
0
  6
ByBlock
 62
     2
100
AcDbLine
 10
86.65
 20
33.14732182568299
 30
0.0
 11
99.35
 21
33.14732182568299
 31
0.0
  0
SOLID
  5
78
330
74
100
AcDbEntity
  8
0
  6
ByBlock
 62
     2
100
AcDbTrace
 10
86.65
 20
34.25565515901633
 30
0.0
 11
86.65
 21
32.03898849234966
 31
0.0
 12
80.0
 22
33.14732182568299
 32
0.0
 13
80.0
 23
33.14732182568299
 33
0.0
  0
SOLID
  5
79
330
74
100
AcDbEntity
  8
0
  6
ByBlock
 62
     2
100
AcDbTrace
 10
99.35
 20
34.25565515901633
 30
0.0
 11
99.35
 21
32.03898849234966
 31
0.0
 12
106.0
 22
33.14732182568299
 32
0.0
 13
106.0
 23
33.14732182568299
 33
0.0
  0
TEXT
  5
7A
330
74
100
AcDbEntity
  8
0
  6
ByBlock
 62
     3
100
AcDbText
 10
88.46666666666667
 20
36.20732182568299
 30
0.0
 40
6.799999999999999
  1
26
 41
0.7
  7
ROMANS
 72
     1
 11
93.0
 21
39.60732182568299
 31
0.0
100
AcDbText
 73
     2
  0
POINT
  5
7B
330
74
100
AcDbEntity
  8
DEFPOINTS
  6
ByBlock
 62
     0
100
AcDbPoint
 10
80.0
 20
50.0
 30
0.0
  0
POINT
  5
7C
330
74
100
AcDbEntity
  8
DEFPOINTS
  6
ByBlock
 62
     0
100
AcDbPoint
 10
106.0
 20
50.0
 30
0.0
  0
POINT
  5
7D
330
74
100
AcDbEntity
  8
DEFPOINTS
  6
ByBlock
 62
     0
100
AcDbPoint
 10
106.0
 20
33.14732182568299
 30
0.0
  0
ENDBLK
  5
7F
330
74
100
AcDbEntity
  8
0
100
AcDbBlockEnd
  0
BLOCK
  5
C4
330
B8
100
AcDbEntity
  8
0
100
AcDbBlockBegin
  2
*D1
 70
     1
 10
0.0
 20
0.0
 30
0.0
  3
*D1
  1
ACA_CFG
  0
LINE
  5
B9
330
B8
100
AcDbEntity
  8
0
  6
ByBlock
 62
     2
100
AcDbLine
 10
156.0
 20
46.96
 30
0.0
 11
156.0
 21
29.72732182568299
 31
0.0
  0
LINE
  5
BA
330
B8
100
AcDbEntity
  8
0
  6
ByBlock
 62
     2
100
AcDbLine
 10
159.0
 20
46.96
 30
0.0
 11
159.0
 21
29.72732182568299
 31
0.0
  0
LINE
  5
BB
330
B8
100
AcDbEntity
  8
0
  6
ByBlock
 62
     2
100
AcDbLine
 10
149.35
 20
33.14732182568299
 30
0.0
 11
142.6999999999999
 21
33.14732182568299
 31
0.0
  0
LINE
  5
BC
330
B8
100
AcDbEntity
  8
0
  6
ByBlock
 62
     2
100
AcDbLine
 10
165.65
 20
33.14732182568299
 30
0.0
 11
172.3
 21
33.14732182568299
 31
0.0
  0
SOLID
  5
BD
330
B8
100
AcDbEntity
  8
0
  6
ByBlock
 62
     2
100
AcDbTrace
 10
149.35
 20
34.25565515901633
 30
0.0
 11
149.35
 21
32.03898849234966
 31
0.0
 12
156.0
 22
33.14732182568299
 32
0.0
 13
156.0
 23
33.14732182568299
 33
0.0
  0
SOLID
  5
BE
330
B8
100
AcDbEntity
  8
0
  6
ByBlock
 62
     2
100
AcDbTrace
 10
165.65
 20
34.25565515901633
 30
0.0
 11
165.65
 21
32.03898849234966
 31
0.0
 12
159.0
 22
33.14732182568299
 32
0.0
 13
159.0
 23
33.14732182568299
 33
0.0
  0
LINE
  5
BF
330
B8
100
AcDbEntity
  8
0
  6
ByBlock
 62
     2
100
AcDbLine
 10
156.0
 20
33.14732182568299
 30
0.0
 11
159.0
 21
33.14732182568299
 31
0.0
  0
TEXT
  5
C0
330
B8
100
AcDbEntity
  8
0
  6
ByBlock
 62
     3
100
AcDbText
 10
146.1061925961967
 20
36.20732182568299
 30
0.0
 40
6.799999999999999
  1
3
 41
0.7
  7
ROMANS
 72
     1
 11
148.3728592628634
 21
39.60732182568299
 31
0.0
100
AcDbText
 73
     2
  0
POINT
  5
C1
330
B8
100
AcDbEntity
  8
DEFPOINTS
  6
ByBlock
 62
     0
100
AcDbPoint
 10
156.0
 20
50.0
 30
0.0
  0
POINT
  5
C2
330
B8
100
AcDbEntity
  8
DEFPOINTS
  6
ByBlock
 62
     0
100
AcDbPoint
 10
159.0
 20
50.0
 30
0.0
  0
POINT
  5
C3
330
B8
100
AcDbEntity
  8
DEFPOINTS
  6
ByBlock
 62
     0
100
AcDbPoint
 10
159.0
 20
33.14732182568299
 30
0.0
  0
ENDBLK
  5
C5
330
B8
100
AcDbEntity
  8
0
100
AcDbBlockEnd
  0
BLOCK
  5
5F
330
53
100
AcDbEntity
  8
0
100
AcDbBlockBegin
  2
*D2
 70
     1
 10
0.0
 20
0.0
 30
0.0
  3
*D2
  1
ACA_CFG
  0
LINE
  5
54
330
53
100
AcDbEntity
  8
0
  6
ByBlock
 62
     2
100
AcDbLine
 10
85.5
 20
172.9016075145285
 30
0.0
 11
85.5
 21
173.2816075145285
 31
0.0
  0
LINE
  5
55
330
53
100
AcDbEntity
  8
0
  6
ByBlock
 62
     2
100
AcDbLine
 10
100.5
 20
172.9016075145285
 30
0.0
 11
100.5
 21
173.2816075145285
 31
0.0
  0
LINE
  5
56
330
53
100
AcDbEntity
  8
0
  6
ByBlock
 62
     2
100
AcDbLine
 10
78.84999999999999
 20
169.8616075145286
 30
0.0
 11
72.2
 21
169.8616075145286
 31
0.0
  0
LINE
  5
57
330
53
100
AcDbEntity
  8
0
  6
ByBlock
 62
     2
100
AcDbLine
 10
107.15
 20
169.8616075145286
 30
0.0
 11
113.7999999999999
 21
169.8616075145286
 31
0.0
  0
SOLID
  5
58
330
53
100
AcDbEntity
  8
0
  6
ByBlock
 62
     2
100
AcDbTrace
 10
78.84999999999999
 20
170.9699408478619
 30
0.0
 11
78.84999999999999
 21
168.7532741811952
 31
0.0
 12
85.5
 22
169.8616075145286
 32
0.0
 13
85.5
 23
169.8616075145286
 33
0.0
  0
SOLID
  5
59
330
53
100
AcDbEntity
  8
0
  6
ByBlock
 62
     2
100
AcDbTrace
 10
107.15
 20
170.9699408478619
 30
0.0
 11
107.15
 21
168.7532741811952
 31
0.0
 12
100.5
 22
169.8616075145286
 32
0.0
 13
100.5
 23
169.8616075145286
 33
0.0
  0
LINE
  5
5A
330
53
100
AcDbEntity
  8
0
  6
ByBlock
 62
     2
100
AcDbLine
 10
85.5
 20
169.8616075145286
 30
0.0
 11
100.5
 21
169.8616075145286
 31
0.0
  0
TEXT
  5
5B
330
53
100
AcDbEntity
  8
0
  6
ByBlock
 62
     3
100
AcDbText
 10
88.12666666666666
 20
172.9216075145286
 30
0.0
 40
6.799999999999999
  1
15
 41
0.7
  7
ROMANS
 72
     1
 11
93.0
 21
176.3216075145286
 31
0.0
100
AcDbText
 73
     2
  0
POINT
  5
5C
330
53
100
AcDbEntity
  8
DEFPOINTS
  6
ByBlock
 62
     0
100
AcDbPoint
 10
85.5
 20
169.8616075145286
 30
0.0
  0
POINT
  5
5D
330
53
100
AcDbEntity
  8
DEFPOINTS
  6
ByBlock
 62
     0
100
AcDbPoint
 10
100.5
 20
169.8616075145286
 30
0.0
  0
POINT
  5
5E
330
53
100
AcDbEntity
  8
DEFPOINTS
  6
ByBlock
 62
     0
100
AcDbPoint
 10
100.5
 20
169.8616075145286
 30
0.0
  0
ENDBLK
  5
60
330
53
100
AcDbEntity
  8
0
100
AcDbBlockEnd
  0
BLOCK
  5
A1
330
94
100
AcDbEntity
  8
0
100
AcDbBlockBegin
  2
*D3
 70
     1
 10
0.0
 20
0.0
 30
0.0
  3
*D3
  1
ACA_CFG
  0
LINE
  5
95
330
94
100
AcDbEntity
  8
0
  6
ByBlock
 62
     2
100
AcDbLine
 10
90.0
 20
263.04
 30
0.0
 11
90.0
 21
280.826250253214
 31
0.0
  0
LINE
  5
96
330
94
100
AcDbEntity
  8
0
  6
ByBlock
 62
     2
100
AcDbLine
 10
96.0
 20
263.04
 30
0.0
 11
96.0
 21
280.826250253214
 31
0.0
  0
LINE
  5
97
330
94
100
AcDbEntity
  8
0
  6
ByBlock
 62
     2
100
AcDbLine
 10
83.34999999999999
 20
277.406250253214
 30
0.0
 11
76.7
 21
277.406250253214
 31
0.0
  0
LINE
  5
98
330
94
100
AcDbEntity
  8
0
  6
ByBlock
 62
     2
100
AcDbLine
 10
102.6499999999999
 20
277.406250253214
 30
0.0
 11
109.2999999999999
 21
277.406250253214
 31
0.0
  0
SOLID
  5
99
330
94
100
AcDbEntity
  8
0
  6
ByBlock
 62
     2
100
AcDbTrace
 10
83.34999999999999
 20
278.5145835865473
 30
0.0
 11
83.34999999999999
 21
276.2979169198806
 31
0.0
 12
90.0
 22
277.406250253214
 32
0.0
 13
90.0
 23
277.406250253214
 33
0.0
  0
SOLID
  5
9A
330
94
100
AcDbEntity
  8
0
  6
ByBlock
 62
     2
100
AcDbTrace
 10
102.6499999999999
 20
278.5145835865473
 30
0.0
 11
102.6499999999999
 21
276.2979169198806
 31
0.0
 12
96.0
 22
277.406250253214
 32
0.0
 13
96.0
 23
277.406250253214
 33
0.0
  0
LINE
  5
9B
330
94
100
AcDbEntity
  8
0
  6
ByBlock
 62
     2
100
AcDbLine
 10
90.0
 20
277.406250253214
 30
0.0
 11
96.0
 21
277.406250253214
 31
0.0
  0
TEXT
  5
9C
330
94
100
AcDbEntity
  8
0
  6
ByBlock
 62
     3
100
AcDbText
 10
88.69333333333333
 20
282.8455354857183
 30
0.0
 40
6.799999999999999
  1
%%C
 41
0.7
  7
ROMANS
 72
     1
 11
90.84666666666667
 21
286.2455354857183
 31
0.0
100
AcDbText
 73
     2
  0
TEXT
  5
9D
330
94
100
AcDbEntity
  8
0
  6
ByBlock
 62
     3
100
AcDbText
 10
92.77333333333334
 20
282.8455354857183
 30
0.0
 40
6.799999999999999
  1
6
 41
0.7
  7
ROMANS
 72
     1
 11
95.15333333333334
 21
286.2455354857183
 31
0.0
100
AcDbText
 73
     2
  0
POINT
  5
9E
330
94
100
AcDbEntity
  8
DEFPOINTS
  6
ByBlock
 62
     0
100
AcDbPoint
 10
90.0
 20
260.0
 30
0.0
  0
POINT
  5
9F
330
94
100
AcDbEntity
  8
DEFPOINTS
  6
ByBlock
 62
     0
100
AcDbPoint
 10
96.0
 20
260.0
 30
0.0
  0
POINT
  5
A0
330
94
100
AcDbEntity
  8
DEFPOINTS
  6
ByBlock
 62
     0
100
AcDbPoint
 10
96.0
 20
277.406250253214
 30
0.0
  0
ENDBLK
  5
A2
330
94
100
AcDbEntity
  8
0
100
AcDbBlockEnd
  0
BLOCK
  5
B3
330
A9
100
AcDbEntity
  8
0
100
AcDbBlockBegin
  2
*D4
 70
     1
 10
0.0
 20
0.0
 30
0.0
  3
*D4
  1
ACA_CFG
  0
LINE
  5
AA
330
A9
100
AcDbEntity
  8
0
  6
ByBlock
 62
     2
100
AcDbLine
 10
162.04
 20
270.0
 30
0.0
 11
181.5558360284973
 21
270.0
 31
0.0
  0
LINE
  5
AB
330
A9
100
AcDbEntity
  8
0
  6
ByBlock
 62
     2
100
AcDbLine
 10
162.04
 20
50.0
 30
0.0
 11
181.5558360284973
 21
50.0
 31
0.0
  0
LINE
  5
AC
330
A9
100
AcDbEntity
  8
0
  6
ByBlock
 62
     2
100
AcDbLine
 10
178.1358360284973
 20
263.35
 30
0.0
 11
178.1358360284973
 21
56.65
 31
0.0
  0
SOLID
  5
AD
330
A9
100
AcDbEntity
  8
0
  6
ByBlock
 62
     2
100
AcDbTrace
 10
177.027502695164
 20
263.35
 30
0.0
 11
179.2441693618306
 21
263.35
 31
0.0
 12
178.1358360284973
 22
270.0
 32
0.0
 13
178.1358360284973
 23
270.0
 33
0.0
  0
SOLID
  5
AE
330
A9
100
AcDbEntity
  8
0
  6
ByBlock
 62
     2
100
AcDbTrace
 10
177.027502695164
 20
56.65
 30
0.0
 11
179.2441693618306
 21
56.65
 31
0.0
 12
178.1358360284973
 22
50.0
 32
0.0
 13
178.1358360284973
 23
50.0
 33
0.0
  0
TEXT
  5
AF
330
A9
100
AcDbEntity
  8
0
  6
ByBlock
 62
     3
100
AcDbText
 10
175.0758360284973
 20
153.2
 30
0.0
 40
6.799999999999999
  1
220
 50
90.0
 41
0.7
  7
ROMANS
 72
     1
 11
171.6758360284973
 21
160.0
 31
0.0
100
AcDbText
 73
     2
  0
POINT
  5
B0
330
A9
100
AcDbEntity
  8
DEFPOINTS
  6
ByBlock
 62
     0
100
AcDbPoint
 10
159.0
 20
270.0
 30
0.0
  0
POINT
  5
B1
330
A9
100
AcDbEntity
  8
DEFPOINTS
  6
ByBlock
 62
     0
100
AcDbPoint
 10
159.0
 20
50.0
 30
0.0
  0
POINT
  5
B2
330
A9
100
AcDbEntity
  8
DEFPOINTS
  6
ByBlock
 62
     0
100
AcDbPoint
 10
178.1358360284973
 20
50.0
 30
0.0
  0
ENDBLK
  5
B4
330
A9
100
AcDbEntity
  8
0
100
AcDbBlockEnd
  0
BLOCK
  5
50
330
46
100
AcDbEntity
  8
0
100
AcDbBlockBegin
  2
*D5
 70
     1
 10
0.0
 20
0.0
 30
0.0
  3
*D5
  1
ACA_CFG
  0
LINE
  5
47
330
46
100
AcDbEntity
  8
0
  6
ByBlock
 62
     2
100
AcDbLine
 10
82.46
 20
76.5
 30
0.0
 11
61.26290460273335
 21
76.5
 31
0.0
  0
LINE
  5
48
330
46
100
AcDbEntity
  8
0
  6
ByBlock
 62
     2
100
AcDbLine
 10
82.46
 20
243.5
 30
0.0
 11
61.26290460273335
 21
243.5
 31
0.0
  0
LINE
  5
49
330
46
100
AcDbEntity
  8
0
  6
ByBlock
 62
     2
100
AcDbLine
 10
64.68290460273334
 20
83.15000000000001
 30
0.0
 11
64.68290460273334
 21
236.85
 31
0.0
  0
SOLID
  5
4A
330
46
100
AcDbEntity
  8
0
  6
ByBlock
 62
     2
100
AcDbTrace
 10
63.57457126940001
 20
83.15000000000001
 30
0.0
 11
65.79123793606668
 21
83.15000000000001
 31
0.0
 12
64.68290460273334
 22
76.5
 32
0.0
 13
64.68290460273334
 23
76.5
 33
0.0
  0
SOLID
  5
4B
330
46
100
AcDbEntity
  8
0
  6
ByBlock
 62
     2
100
AcDbTrace
 10
63.57457126940001
 20
236.85
 30
0.0
 11
65.79123793606668
 21
236.85
 31
0.0
 12
64.68290460273334
 22
243.5
 32
0.0
 13
64.68290460273334
 23
243.5
 33
0.0
  0
TEXT
  5
4C
330
46
100
AcDbEntity
  8
0
  6
ByBlock
 62
     3
100
AcDbText
 10
61.62290460273334
 20
152.86
 30
0.0
 40
6.799999999999999
  1
167
 50
90.0
 41
0.7
  7
ROMANS
 72
     1
 11
58.22290460273334
 21
160.0
 31
0.0
100
AcDbText
 73
     2
  0
POINT
  5
4D
330
46
100
AcDbEntity
  8
DEFPOINTS
  6
ByBlock
 62
     0
100
AcDbPoint
 10
85.5
 20
76.5
 30
0.0
  0
POINT
  5
4E
330
46
100
AcDbEntity
  8
DEFPOINTS
  6
ByBlock
 62
     0
100
AcDbPoint
 10
85.5
 20
243.5
 30
0.0
  0
POINT
  5
4F
330
46
100
AcDbEntity
  8
DEFPOINTS
  6
ByBlock
 62
     0
100
AcDbPoint
 10
64.68290460273334
 20
243.5
 30
0.0
  0
ENDBLK
  5
51
330
46
100
AcDbEntity
  8
0
100
AcDbBlockEnd
  0
BLOCK
  5
91
330
87
100
AcDbEntity
  8
0
100
AcDbBlockBegin
  2
*D6
 70
     1
 10
0.0
 20
0.0
 30
0.0
  3
*D6
  1
ACA_CFG
  0
LINE
  5
88
330
87
100
AcDbEntity
  8
0
  6
ByBlock
 62
     2
100
AcDbLine
 10
82.46
 20
243.5
 30
0.0
 11
61.26290460273335
 21
243.5
 31
0.0
  0
LINE
  5
89
330
87
100
AcDbEntity
  8
0
  6
ByBlock
 62
     2
100
AcDbLine
 10
76.95999999999999
 20
270.0
 30
0.0
 11
61.26290460273335
 21
270.0
 31
0.0
  0
LINE
  5
8A
330
87
100
AcDbEntity
  8
0
  6
ByBlock
 62
     2
100
AcDbLine
 10
64.68290460273334
 20
250.15
 30
0.0
 11
64.68290460273334
 21
263.35
 31
0.0
  0
SOLID
  5
8B
330
87
100
AcDbEntity
  8
0
  6
ByBlock
 62
     2
100
AcDbTrace
 10
63.57457126940001
 20
250.15
 30
0.0
 11
65.79123793606668
 21
250.15
 31
0.0
 12
64.68290460273334
 22
243.5
 32
0.0
 13
64.68290460273334
 23
243.5
 33
0.0
  0
SOLID
  5
8C
330
87
100
AcDbEntity
  8
0
  6
ByBlock
 62
     2
100
AcDbTrace
 10
63.57457126940001
 20
263.35
 30
0.0
 11
65.79123793606668
 21
263.35
 31
0.0
 12
64.68290460273334
 22
270.0
 32
0.0
 13
64.68290460273334
 23
270.0
 33
0.0
  0
TEXT
  5
8D
330
87
100
AcDbEntity
  8
0
  6
ByBlock
 62
     3
100
AcDbText
 10
61.62290460273334
 20
249.7318452583686
 30
0.0
 40
6.799999999999999
  1
26.5
 50
90.0
 41
0.7
  7
ROMANS
 72
     1
 11
58.22290460273334
 21
257.6651785917019
 31
0.0
100
AcDbText
 73
     2
  0
POINT
  5
8E
330
87
100
AcDbEntity
  8
DEFPOINTS
  6
ByBlock
 62
     0
100
AcDbPoint
 10
85.5
 20
243.5
 30
0.0
  0
POINT
  5
8F
330
87
100
AcDbEntity
  8
DEFPOINTS
  6
ByBlock
 62
     0
100
AcDbPoint
 10
80.0
 20
270.0
 30
0.0
  0
POINT
  5
90
330
87
100
AcDbEntity
  8
DEFPOINTS
  6
ByBlock
 62
     0
100
AcDbPoint
 10
64.68290460273334
 20
270.0
 30
0.0
  0
ENDBLK
  5
92
330
87
100
AcDbEntity
  8
0
100
AcDbBlockEnd
  0
BLOCK
  5
71
330
67
100
AcDbEntity
  8
0
100
AcDbBlockBegin
  2
*D7
 70
     1
 10
0.0
 20
0.0
 30
0.0
  3
*D7
  1
ACA_CFG
  0
LINE
  5
68
330
67
100
AcDbEntity
  8
0
  6
ByBlock
 62
     2
100
AcDbLine
 10
76.95999999999999
 20
50.0
 30
0.0
 11
61.26290460273335
 21
50.0
 31
0.0
  0
LINE
  5
69
330
67
100
AcDbEntity
  8
0
  6
ByBlock
 62
     2
100
AcDbLine
 10
82.46
 20
76.5
 30
0.0
 11
61.26290460273335
 21
76.5
 31
0.0
  0
LINE
  5
6A
330
67
100
AcDbEntity
  8
0
  6
ByBlock
 62
     2
100
AcDbLine
 10
64.68290460273334
 20
56.65
 30
0.0
 11
64.68290460273334
 21
69.84999999999999
 31
0.0
  0
SOLID
  5
6B
330
67
100
AcDbEntity
  8
0
  6
ByBlock
 62
     2
100
AcDbTrace
 10
63.57457126940001
 20
56.65
 30
0.0
 11
65.79123793606668
 21
56.65
 31
0.0
 12
64.68290460273334
 22
50.0
 32
0.0
 13
64.68290460273334
 23
50.0
 33
0.0
  0
SOLID
  5
6C
330
67
100
AcDbEntity
  8
0
  6
ByBlock
 62
     2
100
AcDbTrace
 10
63.57457126940001
 20
69.84999999999999
 30
0.0
 11
65.79123793606668
 21
69.84999999999999
 31
0.0
 12
64.68290460273334
 22
76.5
 32
0.0
 13
64.68290460273334
 23
76.5
 33
0.0
  0
TEXT
  5
6D
330
67
100
AcDbEntity
  8
0
  6
ByBlock
 62
     3
100
AcDbText
 10
61.62290460273334
 20
56.15148800818327
 30
0.0
 40
6.799999999999999
  1
26.5
 50
90.0
 41
0.7
  7
ROMANS
 72
     1
 11
58.22290460273334
 21
64.0848213415166
 31
0.0
100
AcDbText
 73
     2
  0
POINT
  5
6E
330
67
100
AcDbEntity
  8
DEFPOINTS
  6
ByBlock
 62
     0
100
AcDbPoint
 10
80.0
 20
50.0
 30
0.0
  0
POINT
  5
6F
330
67
100
AcDbEntity
  8
DEFPOINTS
  6
ByBlock
 62
     0
100
AcDbPoint
 10
85.5
 20
76.5
 30
0.0
  0
POINT
  5
70
330
67
100
AcDbEntity
  8
DEFPOINTS
  6
ByBlock
 62
     0
100
AcDbPoint
 10
64.68290460273334
 20
76.5
 30
0.0
  0
ENDBLK
  5
72
330
67
100
AcDbEntity
  8
0
100
AcDbBlockEnd
  0
BLOCK
  5
43
330
37
100
AcDbEntity
  8
0
100
AcDbBlockBegin
  2
*D8
 70
     1
 10
0.0
 20
0.0
 30
0.0
  3
*D8
  1
ACA_CFG
  0
LINE
  5
38
330
37
100
AcDbEntity
  8
0
  6
ByBlock
 62
     2
100
AcDbLine
 10
84.54
 20
238.5
 30
0.0
 11
107.8851018568187
 21
238.5
 31
0.0
  0
LINE
  5
39
330
37
100
AcDbEntity
  8
0
  6
ByBlock
 62
     2
100
AcDbLine
 10
91.54000000000001
 20
248.4999999999999
 30
0.0
 11
107.8851018568187
 21
248.4999999999999
 31
0.0
  0
LINE
  5
3A
330
37
100
AcDbEntity
  8
0
  6
ByBlock
 62
     2
100
AcDbLine
 10
104.4651018568187
 20
231.8499999999999
 30
0.0
 11
104.4651018568187
 21
225.1999999999999
 31
0.0
  0
LINE
  5
3B
330
37
100
AcDbEntity
  8
0
  6
ByBlock
 62
     2
100
AcDbLine
 10
104.4651018568187
 20
255.15
 30
0.0
 11
104.4651018568187
 21
261.8
 31
0.0
  0
SOLID
  5
3C
330
37
100
AcDbEntity
  8
0
  6
ByBlock
 62
     2
100
AcDbTrace
 10
103.3567685234854
 20
231.8499999999999
 30
0.0
 11
105.5734351901521
 21
231.8499999999999
 31
0.0
 12
104.4651018568187
 22
238.5
 32
0.0
 13
104.4651018568187
 23
238.5
 33
0.0
  0
SOLID
  5
3D
330
37
100
AcDbEntity
  8
0
  6
ByBlock
 62
     2
100
AcDbTrace
 10
103.3567685234854
 20
255.15
 30
0.0
 11
105.5734351901521
 21
255.15
 31
0.0
 12
104.4651018568187
 22
248.4999999999999
 32
0.0
 13
104.4651018568187
 23
248.4999999999999
 33
0.0
  0
LINE
  5
3E
330
37
100
AcDbEntity
  8
0
  6
ByBlock
 62
     2
100
AcDbLine
 10
104.4651018568187
 20
238.5
 30
0.0
 11
104.4651018568187
 21
248.4999999999999
 31
0.0
  0
TEXT
  5
3F
330
37
100
AcDbEntity
  8
0
  6
ByBlock
 62
     3
100
AcDbText
 10
101.4051018568188
 20
238.6266666666666
 30
0.0
 40
6.799999999999999
  1
10
 50
90.0
 41
0.7
  7
ROMANS
 72
     1
 11
98.00510185681879
 21
243.5
 31
0.0
100
AcDbText
 73
     2
  0
POINT
  5
40
330
37
100
AcDbEntity
  8
DEFPOINTS
  6
ByBlock
 62
     0
100
AcDbPoint
 10
81.5
 20
238.5
 30
0.0
  0
POINT
  5
41
330
37
100
AcDbEntity
  8
DEFPOINTS
  6
ByBlock
 62
     0
100
AcDbPoint
 10
88.49999999999999
 20
248.4999999999999
 30
0.0
  0
POINT
  5
42
330
37
100
AcDbEntity
  8
DEFPOINTS
  6
ByBlock
 62
     0
100
AcDbPoint
 10
104.4651018568187
 20
248.4999999999999
 30
0.0
  0
ENDBLK
  5
44
330
37
100
AcDbEntity
  8
0
100
AcDbBlockEnd
  0
BLOCK
  5
34
330
27
100
AcDbEntity
  8
0
100
AcDbBlockBegin
  2
*D9
 70
     1
 10
0.0
 20
0.0
 30
0.0
  3
*D9
  1
ACA_CFG
  0
LINE
  5
28
330
27
100
AcDbEntity
  8
0
  6
ByBlock
 62
     2
100
AcDbLine
 10
91.54000000000001
 20
28.5
 30
0.0
 11
107.8851018568187
 21
28.5
 31
0.0
  0
LINE
  5
29
330
27
100
AcDbEntity
  8
0
  6
ByBlock
 62
     2
100
AcDbLine
 10
84.54
 20
38.5
 30
0.0
 11
107.8851018568187
 21
38.5
 31
0.0
  0
LINE
  5
2A
330
27
100
AcDbEntity
  8
0
  6
ByBlock
 62
     2
100
AcDbLine
 10
104.4651018568187
 20
21.85
 30
0.0
 11
104.4651018568187
 21
15.2
 31
0.0
  0
LINE
  5
2B
330
27
100
AcDbEntity
  8
0
  6
ByBlock
 62
     2
100
AcDbLine
 10
104.4651018568187
 20
45.14999999999999
 30
0.0
 11
104.4651018568187
 21
51.79999999999999
 31
0.0
  0
SOLID
  5
2C
330
27
100
AcDbEntity
  8
0
  6
ByBlock
 62
     2
100
AcDbTrace
 10
103.3567685234854
 20
21.85
 30
0.0
 11
105.5734351901521
 21
21.85
 31
0.0
 12
104.4651018568187
 22
28.5
 32
0.0
 13
104.4651018568187
 23
28.5
 33
0.0
  0
SOLID
  5
2D
330
27
100
AcDbEntity
  8
0
  6
ByBlock
 62
     2
100
AcDbTrace
 10
103.3567685234854
 20
45.14999999999999
 30
0.0
 11
105.5734351901521
 21
45.14999999999999
 31
0.0
 12
104.4651018568187
 22
38.5
 32
0.0
 13
104.4651018568187
 23
38.5
 33
0.0
  0
LINE
  5
2E
330
27
100
AcDbEntity
  8
0
  6
ByBlock
 62
     2
100
AcDbLine
 10
104.4651018568187
 20
28.5
 30
0.0
 11
104.4651018568187
 21
38.5
 31
0.0
  0
TEXT
  5
2F
330
27
100
AcDbEntity
  8
0
  6
ByBlock
 62
     3
100
AcDbText
 10
101.4051018568188
 20
28.62666666666667
 30
0.0
 40
6.799999999999999
  1
10
 50
90.0
 41
0.7
  7
ROMANS
 72
     1
 11
98.00510185681879
 21
33.5
 31
0.0
100
AcDbText
 73
     2
  0
POINT
  5
30
330
27
100
AcDbEntity
  8
DEFPOINTS
  6
ByBlock
 62
     0
100
AcDbPoint
 10
88.49999999999999
 20
28.5
 30
0.0
  0
POINT
  5
32
330
27
100
AcDbEntity
  8
DEFPOINTS
  6
ByBlock
 62
     0
100
AcDbPoint
 10
81.5
 20
38.5
 30
0.0
  0
POINT
  5
33
330
27
100
AcDbEntity
  8
DEFPOINTS
  6
ByBlock
 62
     0
100
AcDbPoint
 10
104.4651018568187
 20
38.5
 30
0.0
  0
ENDBLK
  5
35
330
27
100
AcDbEntity
  8
0
100
AcDbBlockEnd
  0
BLOCK
  5
FC
330
FA
100
AcDbEntity
  8
0
100
AcDbBlockBegin
  2
GENAXEH
 70
     0
 10
0.0
 20
0.0
 30
0.0
  3
GENAXEH
  1

  0
LINE
  5
FB
330
FA
100
AcDbEntity
  8
0
100
AcDbLine
 10
-1.0
 20
0.0
 30
0.0
 11
1.0
 21
0.0
 31
0.0
  0
ENDBLK
  5
FD
330
FA
100
AcDbEntity
  8
0
100
AcDbBlockEnd
  0
ENDSEC
  0
SECTION
  2
ENTITIES
  0
DIMENSION
  5
26
330
2
100
AcDbEntity
  8
LAYER1
100
AcDbDimension
  2
*D9
 10
104.4651018568187
 20
38.5
 30
0.0
 11
98.00510185681879
 21
33.5
 31
0.0
 71
     5
 42
-1.0
  3
Standard
100
AcDbAlignedDimension
 13
88.49999999999999
 23
28.5
 33
0.0
 14
81.5
 24
38.5
 34
0.0
 50
90.0
100
AcDbRotatedDimension
  0
DIMENSION
  5
36
330
2
100
AcDbEntity
  8
LAYER1
100
AcDbDimension
  2
*D8
 10
104.4651018568187
 20
248.4999999999999
 30
0.0
 11
98.00510185681879
 21
243.5
 31
0.0
 71
     5
 42
-1.0
  3
Standard
100
AcDbAlignedDimension
 13
81.5
 23
238.5
 33
0.0
 14
88.49999999999999
 24
248.4999999999999
 34
0.0
 50
90.0
100
AcDbRotatedDimension
  0
DIMENSION
  5
45
330
2
100
AcDbEntity
  8
LAYER1
100
AcDbDimension
  2
*D5
 10
47.18290460273334
 20
222.0
 30
0.0
 11
40.72290460273334
 21
138.5
 31
0.0
 12
-17.5
 22
-21.49999999999999
 32
0.0
 71
     5
 42
-1.0
  3
Standard
100
AcDbAlignedDimension
 13
68.0
 23
55.0
 33
0.0
 14
68.0
 24
222.0
 34
0.0
 50
90.0
100
AcDbRotatedDimension
  0
DIMENSION
  5
52
330
2
100
AcDbEntity
  8
LAYER1
100
AcDbDimension
  2
*D2
 10
83.0
 20
148.3616075145286
 30
0.0
 11
75.5
 21
154.8216075145286
 31
0.0
 12
-17.5
 22
-21.49999999999999
 32
0.0
 71
     5
 42
-1.0
  3
Standard
100
AcDbAlignedDimension
 13
68.0
 23
148.3616075145286
 33
0.0
 14
83.0
 24
148.3616075145286
 34
0.0
100
AcDbRotatedDimension
  0
LINE
  5
61
330
2
100
AcDbEntity
  8
LAYER3
100
AcDbLine
 10
83.0
 20
55.0
 30
0.0
 11
83.0
 21
222.0
 31
0.0
  0
LINE
  5
63
330
2
100
AcDbEntity
  8
LAYER3
100
AcDbLine
 10
68.0
 20
55.0
 30
0.0
 11
68.0
 21
222.0
 31
0.0
  0
LINE
  5
64
330
2
100
AcDbEntity
  8
LAYER3
100
AcDbLine
 10
88.49999999999999
 20
28.5
 30
0.0
 11
88.49999999999999
 21
248.4999999999999
 31
0.0
  0
LINE
  5
65
330
2
100
AcDbEntity
  8
LAYER3
100
AcDbLine
 10
62.5
 20
28.5
 30
0.0
 11
62.5
 21
248.4999999999999
 31
0.0
  0
DIMENSION
  5
66
330
2
100
AcDbEntity
  8
LAYER1
100
AcDbDimension
  2
*D7
 10
47.18290460273334
 20
55.0
 30
0.0
 11
40.72290460273334
 21
42.5848213415166
 31
0.0
 12
-17.5
 22
-21.49999999999999
 32
0.0
 70
   128
 71
     5
 42
-1.0
  3
Standard
100
AcDbAlignedDimension
 13
62.5
 23
28.5
 33
0.0
 14
68.0
 24
55.0
 34
0.0
 50
90.0
100
AcDbRotatedDimension
  0
DIMENSION
  5
73
330
2
100
AcDbEntity
  8
LAYER1
100
AcDbDimension
  2
*D0
 10
88.49999999999999
 20
11.64732182568297
 30
0.0
 11
75.5
 21
18.10732182568298
 31
0.0
 12
-17.5
 22
-21.49999999999999
 32
0.0
 71
     5
 42
-1.0
  3
Standard
100
AcDbAlignedDimension
 13
62.5
 23
28.5
 33
0.0
 14
88.49999999999999
 24
28.5
 34
0.0
100
AcDbRotatedDimension
  0
LINE
  5
80
330
2
100
AcDbEntity
  8
LAYER3
  6
STRICHPUNKT
 62
     2
100
AcDbLine
 10
69.5
 20
38.5
 30
0.0
 11
81.5
 21
38.5
 31
0.0
  0
LINE
  5
82
330
2
100
AcDbEntity
  8
LAYER3
100
AcDbLine
 10
68.0
 20
55.0
 30
0.0
 11
83.0
 21
55.0
 31
0.0
  0
LINE
  5
83
330
2
100
AcDbEntity
  8
LAYER3
100
AcDbLine
 10
62.5
 20
28.5
 30
0.0
 11
88.49999999999999
 21
28.5
 31
0.0
  0
LINE
  5
84
330
2
100
AcDbEntity
  8
LAYER3
  6
STRICHPUNKT
 62
     2
100
AcDbLine
 10
75.5
 20
32.5
 30
0.0
 11
75.5
 21
44.5
 31
0.0
  0
CIRCLE
  5
85
330
2
100
AcDbEntity
  8
LAYER3
100
AcDbCircle
 10
75.5
 20
38.5
 30
0.0
 40
3.0
  0
DIMENSION
  5
86
330
2
100
AcDbEntity
  8
LAYER1
100
AcDbDimension
  2
*D6
 10
47.18290460273334
 20
248.4999999999999
 30
0.0
 11
40.72290460273334
 21
236.165178591702
 31
0.0
 12
-17.5
 22
-21.49999999999999
 32
0.0
 70
   128
 71
     5
 42
-1.0
  3
Standard
100
AcDbAlignedDimension
 13
68.0
 23
222.0
 33
0.0
 14
62.5
 24
248.4999999999999
 34
0.0
 50
90.0
100
AcDbRotatedDimension
  0
DIMENSION
  5
93
330
2
100
AcDbEntity
  8
LAYER1
100
AcDbDimension
  2
*D3
 10
78.5
 20
255.906250253214
 30
0.0
 11
75.5
 21
264.7455354857183
 31
0.0
 12
-17.5
 22
-21.49999999999999
 32
0.0
 70
   128
  1
%%C<>
 71
     5
 42
-1.0
  3
Standard
100
AcDbAlignedDimension
 13
72.5
 23
238.5
 33
0.0
 14
78.5
 24
238.5
 34
0.0
100
AcDbRotatedDimension
  0
LINE
  5
A3
330
2
100
AcDbEntity
  8
LAYER3
  6
STRICHPUNKT
 62
     2
100
AcDbLine
 10
75.5
 20
232.5
 30
0.0
 11
75.5
 21
244.4999999999999
 31
0.0
  0
CIRCLE
  5
A4
330
2
100
AcDbEntity
  8
LAYER3
100
AcDbCircle
 10
75.5
 20
238.5
 30
0.0
 40
3.0
  0
LINE
  5
A5
330
2
100
AcDbEntity
  8
LAYER3
  6
STRICHPUNKT
 62
     2
100
AcDbLine
 10
69.5
 20
238.5
 30
0.0
 11
81.5
 21
238.5
 31
0.0
  0
LINE
  5
A6
330
2
100
AcDbEntity
  8
LAYER3
100
AcDbLine
 10
68.0
 20
222.0
 30
0.0
 11
83.0
 21
222.0
 31
0.0
  0
LINE
  5
A7
330
2
100
AcDbEntity
  8
LAYER3
100
AcDbLine
 10
62.5
 20
248.4999999999999
 30
0.0
 11
88.49999999999999
 21
248.4999999999999
 31
0.0
  0
DIMENSION
  5
A8
330
2
100
AcDbEntity
  8
LAYER1
100
AcDbDimension
  2
*D4
 10
160.6358360284973
 20
28.5
 30
0.0
 11
154.1758360284973
 21
138.5
 31
0.0
 12
-17.5
 22
-21.49999999999999
 32
0.0
 71
     5
 42
-1.0
  3
Standard
100
AcDbAlignedDimension
 13
141.5
 23
248.4999999999999
 33
0.0
 14
141.5
 24
28.5
 34
0.0
 50
90.0
100
AcDbRotatedDimension
  0
LINE
  5
B5
330
2
100
AcDbEntity
  8
LAYER3
100
AcDbLine
 10
141.5
 20
28.5
 30
0.0
 11
141.5
 21
248.4999999999999
 31
0.0
  0
LINE
  5
B6
330
2
100
AcDbEntity
  8
LAYER3
100
AcDbLine
 10
138.5
 20
28.5
 30
0.0
 11
138.5
 21
248.4999999999999
 31
0.0
  0
DIMENSION
  5
B7
330
2
100
AcDbEntity
  8
LAYER1
100
AcDbDimension
  2
*D1
 10
141.5
 20
11.64732182568297
 30
0.0
 11
130.8728592628634
 21
18.10732182568298
 31
0.0
 12
-17.5
 22
-21.49999999999999
 32
0.0
 70
   128
 71
     5
 42
-1.0
  3
Standard
100
AcDbAlignedDimension
 13
138.5
 23
28.5
 33
0.0
 14
141.5
 24
28.5
 34
0.0
100
AcDbRotatedDimension
  0
LINE
  5
C6
330
2
100
AcDbEntity
  8
LAYER3
  6
STRICHPUNKT
 62
     2
100
AcDbLine
 10
135.4999999999999
 20
38.5
 30
0.0
 11
144.5
 21
38.5
 31
0.0
  0
LINE
  5
C7
330
2
100
AcDbEntity
  8
LAYER3
100
AcDbLine
 10
138.5
 20
28.5
 30
0.0
 11
141.5
 21
28.5
 31
0.0
  0
LINE
  5
C8
330
2
100
AcDbEntity
  8
LAYER3
  6
VERDECKT
 62
     2
100
AcDbLine
 10
138.5
 20
35.5
 30
0.0
 11
141.5
 21
35.5
 31
0.0
  0
LINE
  5
CA
330
2
100
AcDbEntity
  8
LAYER3
  6
VERDECKT
 62
     2
100
AcDbLine
 10
138.5
 20
41.5
 30
0.0
 11
141.5
 21
41.5
 31
0.0
  0
LINE
  5
CB
330
2
100
AcDbEntity
  8
LAYER3
  6
VERDECKT
 62
     2
100
AcDbLine
 10
138.5
 20
55.0
 30
0.0
 11
141.5
 21
55.0
 31
0.0
  0
LINE
  5
CC
330
2
100
AcDbEntity
  8
LAYER3
  6
STRICHPUNKT
 62
     2
100
AcDbLine
 10
135.4999999999999
 20
238.5
 30
0.0
 11
144.5
 21
238.5
 31
0.0
  0
LINE
  5
CD
330
2
100
AcDbEntity
  8
LAYER3
  6
VERDECKT
 62
     2
100
AcDbLine
 10
138.5
 20
222.0
 30
0.0
 11
141.5
 21
222.0
 31
0.0
  0
LINE
  5
CE
330
2
100
AcDbEntity
  8
LAYER3
  6
VERDECKT
 62
     2
100
AcDbLine
 10
138.5
 20
235.4999999999999
 30
0.0
 11
141.5
 21
235.4999999999999
 31
0.0
  0
LINE
  5
CF
330
2
100
AcDbEntity
  8
LAYER3
  6
VERDECKT
 62
     2
100
AcDbLine
 10
138.5
 20
241.5
 30
0.0
 11
141.5
 21
241.5
 31
0.0
  0
LINE
  5
D0
330
2
100
AcDbEntity
  8
LAYER3
100
AcDbLine
 10
138.5
 20
248.4999999999999
 30
0.0
 11
141.5
 21
248.4999999999999
 31
0.0
  0
ENDSEC
  0
SECTION
  2
OBJECTS
  0
DICTIONARY
  5
7
330
0
100
AcDbDictionary
281
     1
  3
ACAD_GROUP
350
1F
  3
ACAD_LAYOUT
350
B
  3
ACAD_MLINESTYLE
350
20
  3
ACAD_PLOTSETTINGS
350
21
  3
ACAD_PLOTSTYLENAME
350
6
  3
AcDbVariableDictionary
350
103
  3
AcmDictionary
350
E1
  3
AMG
350
D2
  3
DWGPROPS
350
102
  0
DICTIONARY
  5
1F
102
{ACAD_REACTORS
330
7
102
}
330
7
100
AcDbDictionary
281
     1
  0
DICTIONARY
  5
B
102
{ACAD_REACTORS
330
7
102
}
330
7
100
AcDbDictionary
281
     1
  3
Layout1
350
F
  3
Model
350
A
  0
DICTIONARY
  5
20
102
{ACAD_REACTORS
330
7
102
}
330
7
100
AcDbDictionary
281
     1
  3
Standard
350
24
  0
DICTIONARY
  5
21
102
{ACAD_REACTORS
330
7
102
}
330
7
100
AcDbDictionary
281
     1
  0
ACDBDICTIONARYWDFLT
  5
6
102
{ACAD_REACTORS
330
7
102
}
330
7
100
AcDbDictionary
281
     1
  3
Normal
350
5
100
AcDbDictionaryWithDefault
340
5
  0
DICTIONARY
  5
103
102
{ACAD_REACTORS
330
7
102
}
330
7
100
AcDbDictionary
281
     1
  3
DIMASSOC
350
105
  3
HIDETEXT
350
104
  0
DICTIONARY
  5
E1
102
{ACAD_REACTORS
330
7
102
}
330
7
100
AcDbDictionary
281
     1
  3
AcmStdDictionary
350
E2
  0
DICTIONARY
  5
D2
102
{ACAD_REACTORS
330
7
102
}
330
7
100
AcDbDictionary
281
     1
  3
AcMgSettings
350
DC
  3
AMGLAYCFG
350
D1
  0
XRECORD
  5
102
102
{ACAD_REACTORS
330
7
102
}
330
7
100
AcDbXrecord
280
     1
  1
DWGPROPS COOKIE
  2

  3

  4

  6

  7

  8

  9

300
AmdtFileType=84
301
=
302
=
303
=
304
=
305
=
306
=
307
=
308
=
309
=
 40
0.0124756944444445
 41
2449973.318550694
 42
2449973.330249652
  1

 90
        1
  0
LAYOUT
  5
F
102
{ACAD_REACTORS
330
B
102
}
330
B
100
AcDbPlotSettings
  1

  2
G:\VORLAGEN\AutoCAD2002\Plotten\A3hoch-MSL.pc3
  4

  6

 40
0.0
 41
0.0
 42
0.0
 43
0.0
 44
0.0
 45
0.0
 46
0.0
 47
0.0
 48
0.0
 49
0.0
140
0.0
141
0.0
142
1.0
143
1.0
 70
   688
 72
     0
 73
     0
 74
     5
  7
monochrome.ctb
 75
    16
147
1.0
148
0.0
149
0.0
100
AcDbLayout
  1
Layout1
 70
     1
 71
     1
 10
0.0
 20
0.0
 11
12.0
 21
9.0
 12
0.0
 22
0.0
 32
0.0
 14
0.0
 24
0.0
 34
0.0
 15
0.0
 25
0.0
 35
0.0
146
0.0
 13
0.0
 23
0.0
 33
0.0
 16
1.0
 26
0.0
 36
0.0
 17
0.0
 27
1.0
 37
0.0
 76
     0
330
C
  0
LAYOUT
  5
A
102
{ACAD_REACTORS
330
B
102
}
330
B
100
AcDbPlotSettings
  1

  2
G:\VORLAGEN\AutoCAD2002\Plotten\A3hoch-MSL.pc3
  4

  6

 40
0.0
 41
0.0
 42
0.0
 43
0.0
 44
0.0
 45
0.0
 46
0.0
 47
0.0
 48
0.0
 49
0.0
140
0.0
141
0.0
142
1.0
143
1.0
 70
  1712
 72
     0
 73
     0
 74
     0
  7
monochrome.ctb
 75
     0
147
1.0
148
0.0
149
0.0
100
AcDbLayout
  1
Model
 70
     1
 71
     0
 10
0.0
 20
0.0
 11
12.0
 21
9.0
 12
0.0
 22
0.0
 32
0.0
 14
0.0
 24
0.0
 34
0.0
 15
0.0
 25
0.0
 35
0.0
146
0.0
 13
0.0
 23
0.0
 33
0.0
 16
1.0
 26
0.0
 36
0.0
 17
0.0
 27
1.0
 37
0.0
 76
     0
330
2
  0
MLINESTYLE
  5
24
102
{ACAD_REACTORS
330
20
102
}
330
20
100
AcDbMlineStyle
  2
STANDARD
 70
     0
  3

 62
   256
 51
90.0
 52
90.0
 71
     2
 49
0.5
 62
   256
  6
BYLAYER
 49
-0.5
 62
   256
  6
BYLAYER
  0
ACDBPLACEHOLDER
  5
5
102
{ACAD_REACTORS
330
6
102
}
330
6
  0
DICTIONARYVAR
  5
105
102
{ACAD_REACTORS
330
103
102
}
330
103
100
DictionaryVariables
280
     0
  1
2
  0
DICTIONARYVAR
  5
104
102
{ACAD_REACTORS
330
103
102
}
330
103
100
DictionaryVariables
280
     0
  1
1
  0
DICTIONARY
  5
E2
102
{ACAD_REACTORS
330
E1
102
}
330
E1
100
AcDbDictionary
281
     1
  3
ANSI
350
E3
  0
DICTIONARY
  5
DC
102
{ACAD_REACTORS
330
D2
102
}
330
D2
100
AcDbDictionary
281
     1
  3
DWGSETTINGS
350
DB
  3
TRANSSETTINGS
350
DD
  0
ENDSEC
  0
EOF
