  0
SECTION
  2
HEADER
  9
$ACADVER
  1
AC1018
  9
$ACADMAINTVER
 70
   104
  9
$DWGCODEPAGE
  3
ANSI_1252
  9
$LASTSAVEDBY
  1
Peter Kerndl
  9
$INSBASE
 10
0.0
 20
0.0
 30
0.0
  9
$EXTMIN
 10
351.13043695843
 20
132.7593580816343
 30
0.0
  9
$EXTMAX
 10
512.4880101222601
 20
322.1336230636152
 30
0.0
  9
$LIMMIN
 10
0.0
 20
0.0
  9
$LIMMAX
 10
420.0
 20
297.0
  9
$ORTHOMODE
 70
     1
  9
$REGENMODE
 70
     1
  9
$FILLMODE
 70
     1
  9
$QTEXTMODE
 70
     0
  9
$MIRRTEXT
 70
     1
  9
$LTSCALE
 40
1.0
  9
$ATTMODE
 70
     1
  9
$TEXTSIZE
 40
2.5
  9
$TRACEWID
 40
1.0
  9
$TEXTSTYLE
  7
Standard
  9
$CLAYER
  8
0
  9
$CELTYPE
  6
ByLayer
  9
$CECOLOR
 62
   256
  9
$CELTSCALE
 40
1.0
  9
$DISPSILH
 70
     0
  9
$DIMSCALE
 40
0.5
  9
$DIMASZ
 40
3.0
  9
$DIMEXO
 40
0.0
  9
$DIMDLI
 40
5.0
  9
$DIMRND
 40
0.00000001
  9
$DIMDLE
 40
8.0
  9
$DIMEXE
 40
2.0
  9
$DIMTP
 40
0.0
  9
$DIMTM
 40
0.0
  9
$DIMTXT
 40
5.0
  9
$DIMCEN
 40
0.09
  9
$DIMTSZ
 40
0.0
  9
$DIMTOL
 70
     0
  9
$DIMLIM
 70
     0
  9
$DIMTIH
 70
     0
  9
$DIMTOH
 70
     0
  9
$DIMSE1
 70
     0
  9
$DIMSE2
 70
     0
  9
$DIMTAD
 70
     1
  9
$DIMZIN
 70
     8
  9
$DIMBLK
  1
Filled-2
  9
$DIMASO
 70
     1
  9
$DIMSHO
 70
     1
  9
$DIMPOST
  1

  9
$DIMAPOST
  1

  9
$DIMALT
 70
     0
  9
$DIMALTD
 70
     3
  9
$DIMALTF
 40
0.03937
  9
$DIMLFAC
 40
1.0
  9
$DIMTOFL
 70
     0
  9
$DIMTVP
 40
0.0
  9
$DIMTIX
 70
     0
  9
$DIMSOXD
 70
     0
  9
$DIMSAH
 70
     0
  9
$DIMBLK1
  1

  9
$DIMBLK2
  1

  9
$DIMSTYLE
  2
IBH-ISO-IBH-ISO
  9
$DIMCLRD
 70
     1
  9
$DIMCLRE
 70
     1
  9
$DIMCLRT
 70
     7
  9
$DIMTFAC
 40
0.8333333333333333
  9
$DIMGAP
 40
0.4000000000000001
  9
$DIMJUST
 70
     0
  9
$DIMSD1
 70
     0
  9
$DIMSD2
 70
     0
  9
$DIMTOLJ
 70
     1
  9
$DIMTZIN
 70
     8
  9
$DIMALTZ
 70
     0
  9
$DIMALTTZ
 70
     8
  9
$DIMUPT
 70
     0
  9
$DIMDEC
 70
     2
  9
$DIMTDEC
 70
     2
  9
$DIMALTU
 70
     2
  9
$DIMALTTD
 70
     3
  9
$DIMTXSTY
  7
IBH-BEM
  9
$DIMAUNIT
 70
     0
  9
$DIMADEC
 70
     2
  9
$DIMALTRND
 40
0.0
  9
$DIMAZIN
 70
     2
  9
$DIMDSEP
 70
    44
  9
$DIMATFIT
 70
     3
  9
$DIMFRAC
 70
     0
  9
$DIMLDRBLK
  1
Filled-2
  9
$DIMLUNIT
 70
     2
  9
$DIMLWD
 70
    25
  9
$DIMLWE
 70
    25
  9
$DIMTMOVE
 70
     0
  9
$LUNITS
 70
     2
  9
$LUPREC
 70
     4
  9
$SKETCHINC
 40
1.0
  9
$FILLETRAD
 40
0.8
  9
$AUNITS
 70
     0
  9
$AUPREC
 70
     0
  9
$MENU
  1
.
  9
$ELEVATION
 40
0.0
  9
$PELEVATION
 40
0.0
  9
$THICKNESS
 40
0.0
  9
$LIMCHECK
 70
     0
  9
$CHAMFERA
 40
10.0
  9
$CHAMFERB
 40
10.0
  9
$CHAMFERC
 40
20.0
  9
$CHAMFERD
 40
0.0
  9
$SKPOLY
 70
     0
  9
$TDCREATE
 40
2452747.423617974
  9
$TDUCREATE
 40
2452747.340284641
  9
$TDUPDATE
 40
2455089.664596354
  9
$TDUUPDATE
 40
2455089.581263021
  9
$TDINDWG
 40
0.3307935880
  9
$TDUSRTIMER
 40
0.3307935880
  9
$USRTIMER
 70
     1
  9
$ANGBASE
 50
0.0
  9
$ANGDIR
 70
     0
  9
$PDMODE
 70
     0
  9
$PDSIZE
 40
0.0
  9
$PLINEWID
 40
0.0
  9
$SPLFRAME
 70
     0
  9
$SPLINETYPE
 70
     6
  9
$SPLINESEGS
 70
     8
  9
$HANDSEED
  5
58A7
  9
$SURFTAB1
 70
     6
  9
$SURFTAB2
 70
     6
  9
$SURFTYPE
 70
     6
  9
$SURFU
 70
     6
  9
$SURFV
 70
     6
  9
$UCSBASE
  2

  9
$UCSNAME
  2

  9
$UCSORG
 10
0.0
 20
0.0
 30
0.0
  9
$UCSXDIR
 10
1.0
 20
0.0
 30
0.0
  9
$UCSYDIR
 10
0.0
 20
1.0
 30
0.0
  9
$UCSORTHOREF
  2

  9
$UCSORTHOVIEW
 70
     0
  9
$UCSORGTOP
 10
0.0
 20
0.0
 30
0.0
  9
$UCSORGBOTTOM
 10
0.0
 20
0.0
 30
0.0
  9
$UCSORGLEFT
 10
0.0
 20
0.0
 30
0.0
  9
$UCSORGRIGHT
 10
0.0
 20
0.0
 30
0.0
  9
$UCSORGFRONT
 10
0.0
 20
0.0
 30
0.0
  9
$UCSORGBACK
 10
0.0
 20
0.0
 30
0.0
  9
$PUCSBASE
  2

  9
$PUCSNAME
  2

  9
$PUCSORG
 10
0.0
 20
0.0
 30
0.0
  9
$PUCSXDIR
 10
1.0
 20
0.0
 30
0.0
  9
$PUCSYDIR
 10
0.0
 20
1.0
 30
0.0
  9
$PUCSORTHOREF
  2

  9
$PUCSORTHOVIEW
 70
     0
  9
$PUCSORGTOP
 10
0.0
 20
0.0
 30
0.0
  9
$PUCSORGBOTTOM
 10
0.0
 20
0.0
 30
0.0
  9
$PUCSORGLEFT
 10
0.0
 20
0.0
 30
0.0
  9
$PUCSORGRIGHT
 10
0.0
 20
0.0
 30
0.0
  9
$PUCSORGFRONT
 10
0.0
 20
0.0
 30
0.0
  9
$PUCSORGBACK
 10
0.0
 20
0.0
 30
0.0
  9
$USERI1
 70
     0
  9
$USERI2
 70
     0
  9
$USERI3
 70
     0
  9
$USERI4
 70
     0
  9
$USERI5
 70
     0
  9
$USERR1
 40
0.0
  9
$USERR2
 40
0.0
  9
$USERR3
 40
0.0
  9
$USERR4
 40
0.0
  9
$USERR5
 40
0.0
  9
$WORLDVIEW
 70
     1
  9
$SHADEDGE
 70
     3
  9
$SHADEDIF
 70
    70
  9
$TILEMODE
 70
     0
  9
$MAXACTVP
 70
    64
  9
$PINSBASE
 10
0.0
 20
0.0
 30
0.0
  9
$PLIMCHECK
 70
     0
  9
$PEXTMIN
 10
-0.0056630084239373
 20
-0.007538423495248
 30
-0.0015258207003583
  9
$PEXTMAX
 10
210.0005847543558
 20
297.0128424453143
 30
0.0000000349246037
  9
$PLIMMIN
 10
-5.884553096281611
 20
-13.10427486185124
  9
$PLIMMAX
 10
215.7949098057419
 20
300.3755171000467
  9
$UNITMODE
 70
     0
  9
$VISRETAIN
 70
     1
  9
$PLINEGEN
 70
     0
  9
$PSLTSCALE
 70
     1
  9
$TREEDEPTH
 70
  3020
  9
$CMLSTYLE
  2
Standard
  9
$CMLJUST
 70
     0
  9
$CMLSCALE
 40
20.0
  9
$PROXYGRAPHICS
 70
     1
  9
$MEASUREMENT
 70
     1
  9
$CELWEIGHT
370
    -1
  9
$ENDCAPS
280
     0
  9
$JOINSTYLE
280
     0
  9
$LWDISPLAY
290
     1
  9
$INSUNITS
 70
     4
  9
$HYPERLINKBASE
  1

  9
$STYLESHEET
  1

  9
$XEDIT
290
     1
  9
$CEPSNTYPE
380
     0
  9
$PSTYLEMODE
290
     1
  9
$FINGERPRINTGUID
  2
{FDEAD570-A652-11D2-9A35-0060089B3A3F}
  9
$VERSIONGUID
  2
{A6DA2D34-6163-413F-960E-C464AEFE97BE}
  9
$EXTNAMES
290
     1
  9
$PSVPSCALE
 40
0.0
  9
$OLESTARTUP
290
     0
  9
$SORTENTS
280
   127
  9
$INDEXCTL
280
     0
  9
$HIDETEXT
280
     0
  9
$XCLIPFRAME
290
     0
  9
$HALOGAP
280
     0
  9
$OBSCOLOR
 70
   257
  9
$OBSLTYPE
280
     0
  9
$INTERSECTIONDISPLAY
280
     0
  9
$INTERSECTIONCOLOR
 70
   257
  9
$DIMASSOC
280
     1
  9
$PROJECTNAME
  1

  0
ENDSEC
  0
SECTION
  2
CLASSES
  0
CLASS
  1
ACDBDICTIONARYWDFLT
  2
AcDbDictionaryWithDefault
  3
ObjectDBX Classes
 90
        0
 91
        1
280
     0
281
     0
  0
CLASS
  1
PLOTSETTINGS
  2
AcDbPlotSettings
  3
ObjectDBX Classes
 90
        0
 91
        1
280
     0
281
     0
  0
CLASS
  1
DICTIONARYVAR
  2
AcDbDictionaryVar
  3
ObjectDBX Classes
 90
        0
 91
        8
280
     0
281
     0
  0
CLASS
  1
SORTENTSTABLE
  2
AcDbSortentsTable
  3
ObjectDBX Classes
 90
        0
 91
        6
280
     0
281
     0
  0
CLASS
  1
MATERIAL
  2
AcDbMaterial
  3
ObjectDBX Classes
 90
     1153
 91
        3
280
     0
281
     0
  0
CLASS
  1
VISUALSTYLE
  2
AcDbVisualStyle
  3
ObjectDBX Classes
 90
     4095
 91
       16
280
     0
281
     0
  0
CLASS
  1
TABLESTYLE
  2
AcDbTableStyle
  3
ObjectDBX Classes
 90
     4095
 91
        1
280
     0
281
     0
  0
CLASS
  1
SCALE
  2
AcDbScale
  3
ObjectDBX Classes
 90
     1153
 91
       33
280
     0
281
     0
  0
CLASS
  1
MLEADERSTYLE
  2
AcDbMLeaderStyle
  3
ACDB_MLEADERSTYLE_CLASS
 90
     4095
 91
        1
280
     0
281
     0
  0
CLASS
  1
CELLSTYLEMAP
  2
AcDbCellStyleMap
  3
ObjectDBX Classes
 90
     1152
 91
        3
280
     0
281
     0
  0
ENDSEC
  0
SECTION
  2
TABLES
  0
TABLE
  2
VPORT
  5
8
330
0
100
AcDbSymbolTable
 70
     1
  0
VPORT
  5
542A
330
8
100
AcDbSymbolTableRecord
100
AcDbViewportTableRecord
  2
*Active
 70
     0
 10
0.0
 20
0.0
 11
1.0
 21
1.0
 12
431.8018041156681
 22
227.4523262492225
 13
0.0
 23
0.0
 14
10.0
 24
10.0
 15
10.0
 25
10.0
 16
0.0
 26
0.0
 36
1.0
 17
0.0
 27
0.0
 37
0.0
 40
191.608249115295
 41
1.808139534883721
 42
50.0
 43
0.0
 44
0.0
 50
0.0
 51
0.0
 71
     0
 72
   100
 73
     1
 74
     3
 75
     0
 76
     0
 77
     0
 78
     0
281
     0
 65
     1
110
0.0
120
0.0
130
0.0
111
1.0
121
0.0
131
0.0
112
0.0
122
1.0
132
0.0
 79
     0
146
0.0
  0
ENDTAB
  0
TABLE
  2
LTYPE
  5
5
330
0
100
AcDbSymbolTable
 70
     3
  0
LTYPE
  5
14
330
5
100
AcDbSymbolTableRecord
100
AcDbLinetypeTableRecord
  2
ByBlock
 70
     0
  3

 72
    65
 73
     0
 40
0.0
  0
LTYPE
  5
15
330
5
100
AcDbSymbolTableRecord
100
AcDbLinetypeTableRecord
  2
ByLayer
 70
     0
  3

 72
    65
 73
     0
 40
0.0
  0
LTYPE
  5
16
330
5
100
AcDbSymbolTableRecord
100
AcDbLinetypeTableRecord
  2
Continuous
 70
     0
  3
Solid line
 72
    65
 73
     0
 40
0.0
  0
LTYPE
  5
145
330
5
100
AcDbSymbolTableRecord
100
AcDbLinetypeTableRecord
  2
STRICHPUNKT
 70
     0
  3
__ . __ . __ . __ . __ . __ . __ . __ . __ . __
 72
    65
 73
     4
 40
1.0
 49
0.5
 74
     0
 49
-0.25
 74
     0
 49
0.0
 74
     0
 49
-0.25
 74
     0
  0
LTYPE
  5
171D
330
5
100
AcDbSymbolTableRecord
100
AcDbLinetypeTableRecord
  2
CHAIN
 70
     0
  3
Chain ____ _ ____ _ ____ _ ____ _ ____ _ ____
 72
    65
 73
     4
 40
0.3543
 49
0.2362
 74
     0
 49
-0.0295
 74
     0
 49
0.0591
 74
     0
 49
-0.0295
 74
     0
  0
ENDTAB
  0
TABLE
  2
LAYER
  5
2
102
{ACAD_XDICTIONARY
360
548F
102
}
330
0
100
AcDbSymbolTable
 70
    13
  0
LAYER
  5
10
102
{ACAD_XDICTIONARY
360
5665
102
}
330
2
100
AcDbSymbolTableRecord
100
AcDbLayerTableRecord
  2
0
 70
     0
 62
     7
  6
Continuous
370
    -3
390
F
  0
LAYER
  5
33
102
{ACAD_XDICTIONARY
360
5667
102
}
330
2
100
AcDbSymbolTableRecord
100
AcDbLayerTableRecord
  2
RAHMEN025
 70
     0
 62
     7
  6
Continuous
370
    -3
390
F
  0
LAYER
  5
36
102
{ACAD_XDICTIONARY
360
5669
102
}
330
2
100
AcDbSymbolTableRecord
100
AcDbLayerTableRecord
  2
RAHMEN07
 70
     0
 62
     5
  6
Continuous
370
    -3
390
F
  0
LAYER
  5
5C
102
{ACAD_XDICTIONARY
360
566B
102
}
330
2
100
AcDbSymbolTableRecord
100
AcDbLayerTableRecord
  2
RAHMEN05
 70
     0
 62
     6
  6
Continuous
370
    -3
390
F
  0
LAYER
  5
72
102
{ACAD_XDICTIONARY
360
566D
102
}
330
2
100
AcDbSymbolTableRecord
100
AcDbLayerTableRecord
  2
RAHMEN035
 70
     0
 62
     2
  6
Continuous
370
    -3
390
F
  0
LAYER
  5
85
102
{ACAD_XDICTIONARY
360
566F
102
}
330
2
100
AcDbSymbolTableRecord
100
AcDbLayerTableRecord
  2
Title Block
 70
     0
 62
     7
  6
Continuous
370
    -3
390
F
  0
LAYER
  5
86
102
{ACAD_XDICTIONARY
360
5671
102
}
330
2
100
AcDbSymbolTableRecord
100
AcDbLayerTableRecord
  2
Viewport
 70
     0
 62
     7
  6
Continuous
370
    -3
390
F
  0
LAYER
  5
147
330
2
100
AcDbSymbolTableRecord
100
AcDbLayerTableRecord
  2
DEFPOINTS
 70
     0
 62
     7
  6
Continuous
290
     0
370
    -3
390
F
  0
LAYER
  5
14F
102
{ACAD_XDICTIONARY
360
5673
102
}
330
2
100
AcDbSymbolTableRecord
100
AcDbLayerTableRecord
  2
1
 70
     0
 62
     7
  6
STRICHPUNKT
370
    -3
390
F
  0
LAYER
  5
1642
102
{ACAD_XDICTIONARY
360
5675
102
}
330
2
100
AcDbSymbolTableRecord
100
AcDbLayerTableRecord
  2
Rot
 70
     0
 62
     1
  6
Continuous
370
    -3
390
F
  0
LAYER
  5
171E
102
{ACAD_XDICTIONARY
360
5677
102
}
330
2
100
AcDbSymbolTableRecord
100
AcDbLayerTableRecord
  2
Bemaßungen(IBH-ISO)
 70
     0
 62
     1
  6
Continuous
370
    25
390
F
  0
LAYER
  5
171F
102
{ACAD_XDICTIONARY
360
5679
102
}
330
2
100
AcDbSymbolTableRecord
100
AcDbLayerTableRecord
  2
Mittelpunktmarkierung(IBH-ISO)
 70
     0
 62
  -134
  6
CHAIN
370
    25
390
F
  0
LAYER
  5
1720
102
{ACAD_XDICTIONARY
360
567B
102
}
330
2
100
AcDbSymbolTableRecord
100
AcDbLayerTableRecord
  2
Sichtbare Kanten(IBH-ISO)
 70
     0
 62
     7
  6
Continuous
370
    40
390
F
  0
ENDTAB
  0
TABLE
  2
STYLE
  5
3
330
0
100
AcDbSymbolTable
 70
     4
  0
STYLE
  5
11
330
3
100
AcDbSymbolTableRecord
100
AcDbTextStyleTableRecord
  2
Standard
 70
     0
 40
0.0
 41
1.0
 50
0.0
 71
     0
 42
2.5
  3
txt
  4

  0
STYLE
  5
42
330
3
100
AcDbSymbolTableRecord
100
AcDbTextStyleTableRecord
  2
ISO Proportional
 70
     0
 40
0.0
 41
1.0
 50
0.0
 71
     0
 42
2.5
  3
isocp.shx
  4

  0
STYLE
  5
1721
330
3
100
AcDbSymbolTableRecord
100
AcDbTextStyleTableRecord
  2
IBH-BEM
 70
     0
 40
0.0
 41
0.8499999642372131
 50
0.0
 71
     0
 42
0.2
  3
isocpeur.ttf
  4

1001
ACAD
1000
ISOCPEUR
1071
      256
  0
ENDTAB
  0
TABLE
  2
VIEW
  5
6
330
0
100
AcDbSymbolTable
 70
     1
  0
ENDTAB
  0
TABLE
  2
UCS
  5
7
330
0
100
AcDbSymbolTable
 70
     0
  0
ENDTAB
  0
TABLE
  2
APPID
  5
9
330
0
100
AcDbSymbolTable
 70
    17
  0
APPID
  5
12
330
9
100
AcDbSymbolTableRecord
100
AcDbRegAppTableRecord
  2
ACAD
 70
     0
  0
APPID
  5
157
330
9
100
AcDbSymbolTableRecord
100
AcDbRegAppTableRecord
  2
GENIUS_GENODEF_13
 70
     0
  0
APPID
  5
158
330
9
100
AcDbSymbolTableRecord
100
AcDbRegAppTableRecord
  2
GENIUS_GENOREF_13
 70
     0
  0
APPID
  5
159
330
9
100
AcDbSymbolTableRecord
100
AcDbRegAppTableRecord
  2
VCC
 70
     0
  0
APPID
  5
15A
330
9
100
AcDbSymbolTableRecord
100
AcDbRegAppTableRecord
  2
GEVPT
 70
     0
  0
APPID
  5
15B
330
9
100
AcDbSymbolTableRecord
100
AcDbRegAppTableRecord
  2
GEVIT
 70
     0
  0
APPID
  5
15C
330
9
100
AcDbSymbolTableRecord
100
AcDbRegAppTableRecord
  2
GENBH
 70
     0
  0
APPID
  5
15D
330
9
100
AcDbSymbolTableRecord
100
AcDbRegAppTableRecord
  2
GENIUS_GEFPARTINS_13
 70
     0
  0
APPID
  5
15E
330
9
100
AcDbSymbolTableRecord
100
AcDbRegAppTableRecord
  2
GEVID954573509
 70
     0
  0
APPID
  5
15F
330
9
100
AcDbSymbolTableRecord
100
AcDbRegAppTableRecord
  2
GENIUS_GENFIL_13
 70
     0
  0
APPID
  5
160
330
9
100
AcDbSymbolTableRecord
100
AcDbRegAppTableRecord
  2
GENIUS_GENOBJ-N-CHA_13
 70
     0
  0
APPID
  5
547D
330
9
100
AcDbSymbolTableRecord
100
AcDbRegAppTableRecord
  2
ACAD_MLEADERVER
 70
     0
  0
APPID
  5
5497
330
9
100
AcDbSymbolTableRecord
100
AcDbRegAppTableRecord
  2
ACAD_DSTYLE_DIMJAG
 70
     0
  0
APPID
  5
5498
330
9
100
AcDbSymbolTableRecord
100
AcDbRegAppTableRecord
  2
ACAD_DSTYLE_DIMTALN
 70
     0
  0
APPID
  5
56B6
330
9
100
AcDbSymbolTableRecord
100
AcDbRegAppTableRecord
  2
AcadAnnotative
 70
     0
  0
APPID
  5
56F6
330
9
100
AcDbSymbolTableRecord
100
AcDbRegAppTableRecord
  2
ACAD_EXEMPT_FROM_CAD_STANDARDS
 70
     0
  0
APPID
  5
57B4
330
9
100
AcDbSymbolTableRecord
100
AcDbRegAppTableRecord
  2
ACAD_DSTYLE_DIMRADIAL_EXTENSION
 70
     0
  0
ENDTAB
  0
TABLE
  2
DIMSTYLE
  5
A
330
0
100
AcDbSymbolTable
 70
     3
100
AcDbDimStyleTable
 71
     1
340
1723
  0
DIMSTYLE
105
1722
330
A
100
AcDbSymbolTableRecord
100
AcDbDimStyleTableRecord
  2
Standard
 70
     0
340
11
  0
DIMSTYLE
105
1723
102
{ACAD_REACTORS
330
260D
330
45D9
330
45DA
330
45DB
330
45E7
330
45EB
330
4BC1
330
4BC2
330
32F8
330
55ED
330
55EE
330
55EF
330
55F0
330
55F1
330
56BC
102
}
330
A
100
AcDbSymbolTableRecord
100
AcDbDimStyleTableRecord
  2
IBH-ISO-IBH-ISO
 70
     0
 40
0.5
 41
3.0
 42
0.0
 43
5.0
 44
2.0
 45
0.00000001
 46
8.0
 73
     0
 74
     0
 77
     1
 78
     8
 79
     2
140
5.0
143
0.03937
146
0.8333333333333333
147
0.4000000000000001
171
     3
176
     1
177
     1
178
     7
179
     2
271
     2
272
     2
274
     3
278
    44
284
     8
286
     8
340
1721
341
1689
342
1689
371
    25
372
    25
1001
ACAD_DSTYLE_DIMJAG
1070
   388
1040
1.5
1001
ACAD_DSTYLE_DIMTALN
1070
   392
1070
     0
  0
ENDTAB
  0
TABLE
  2
BLOCK_RECORD
  5
1
330
0
100
AcDbSymbolTable
 70
    26
  0
BLOCK_RECORD
  5
1F
102
{ACAD_XDICTIONARY
360
164B
102
}
330
1
100
AcDbSymbolTableRecord
100
AcDbBlockTableRecord
  2
*Model_Space
340
22
  0
BLOCK_RECORD
  5
1B
330
1
100
AcDbSymbolTableRecord
100
AcDbBlockTableRecord
  2
*Paper_Space
340
1E
  0
BLOCK_RECORD
  5
31
330
1
100
AcDbSymbolTableRecord
100
AcDbBlockTableRecord
  2
DIN A4 title block
340
0
310
2800000020000000200000000100080000000000000400000000000000000000000000000000000000000000000080000080000000808000800000008000800080800000C0C0C000C0DCC000F0CAA6000020400000206000002080000020A0000020C0000020E00000400000004020000040400000406000004080000040A0
310
000040C0000040E00000600000006020000060400000606000006080000060A0000060C0000060E00000800000008020000080400000806000008080000080A0000080C0000080E00000A0000000A0200000A0400000A0600000A0800000A0A00000A0C00000A0E00000C0000000C0200000C0400000C0600000C0800000C0
310
A00000C0C00000C0E00000E0000000E0200000E0400000E0600000E0800000E0A00000E0C00000E0E00040000000400020004000400040006000400080004000A0004000C0004000E00040200000402020004020400040206000402080004020A0004020C0004020E000404000004040200040404000404060004040800040
310
40A0004040C0004040E00040600000406020004060400040606000406080004060A0004060C0004060E00040800000408020004080400040806000408080004080A0004080C0004080E00040A0000040A0200040A0400040A0600040A0800040A0A00040A0C00040A0E00040C0000040C0200040C0400040C0600040C08000
310
40C0A00040C0C00040C0E00040E0000040E0200040E0400040E0600040E0800040E0A00040E0C00040E0E00080000000800020008000400080006000800080008000A0008000C0008000E00080200000802020008020400080206000802080008020A0008020C0008020E00080400000804020008040400080406000804080
310
008040A0008040C0008040E00080600000806020008060400080606000806080008060A0008060C0008060E00080800000808020008080400080806000808080008080A0008080C0008080E00080A0000080A0200080A0400080A0600080A0800080A0A00080A0C00080A0E00080C0000080C0200080C0400080C0600080C0
310
800080C0A00080C0C00080C0E00080E0000080E0200080E0400080E0600080E0800080E0A00080E0C00080E0E000C0000000C0002000C0004000C0006000C0008000C000A000C000C000C000E000C0200000C0202000C0204000C0206000C0208000C020A000C020C000C020E000C0400000C0402000C0404000C0406000C0
310
408000C040A000C040C000C040E000C0600000C0602000C0604000C0606000C0608000C060A000C060C000C060E000C0800000C0802000C0804000C0806000C0808000C080A000C080C000C080E000C0A00000C0A02000C0A04000C0A06000C0A08000C0A0A000C0A0C000C0A0E000C0C00000C0C02000C0C04000C0C06000
310
C0C08000C0C0A000F0FBFF00A4A0A000808080000000FF0000FF000000FFFF00FF000000FF00FF00FFFF0000FFFFFF00FFFFFFFFFFFFFFFFFFFFFFFFFFFFFFFFFFFFFFFFFFFFFFFFFFFFFFFFFFFFFFFFFFFFFFFFFFFF0000000000000000000000000000000000000000FFFFFFFFFFFFFFFFFFFFFFFF00000000000000FCFC
310
FCFC0000FCFC0000000000FFFFFFFFFFFFFFFFFFFFFFFF0000000000000000FC00FCFDFDFDFDFDFDFD0000FFFFFFFFFFFFFFFFFFFFFFFF000000000000000000000000FFFDFDFDFDFFFFFCFFFFFFFFFFFFFFFFFFFFFFFF000000000000000000000000FFFDFDFDFDFFFFFCFFFFFFFFFFFFFFFFFFFFFFFF00FC00FC00FC0000
310
FC00FC00000000FCFCFCFCFCFFFFFFFFFFFFFFFFFFFFFFFF0000000000FC0000000000000000000000000000FFFFFFFFFFFFFFFFFFFFFFFF00FCFFFFFFFFFFFFFFFFFFFFFFFFFFFFFFFFFFFCFFFFFFFFFFFFFFFFFFFFFFFF00FCFFFFFFFFFFFFFFFFFFFFFFFFFFFFFFFFFFFCFFFFFFFFFFFFFFFFFFFFFFFF00FCFFFFFFFFFF
310
FFFFFFFFFFFFFFFFFFFFFFFFFCFFFFFFFFFFFFFFFFFFFFFFFF00FCFFFFFFFFFFFFFFFFFFFFFFFFFFFFFFFFFFFCFFFFFFFFFFFFFFFFFFFFFFFF00FCFFFFFFFFFFFFFFFFFFFFFFFFFFFFFFFFFFFCFFFFFFFFFFFFFFFFFFFFFFFF00FCFFFFFFFFFFFFFFFFFFFFFFFFFFFFFFFFFFFCFFFFFFFFFFFFFFFFFFFFFFFF00FCFFFFFFFF
310
FFFFFFFFFFFFFFFFFFFFFFFFFFFCFFFFFFFFFFFFFFFFFFFFFFFF00FCFFFFFFFFFFFFFFFFFFFFFFFFFFFFFFFFFFFCFFFFFFFFFFFFFFFFFFFFFFFF00FCFFFFFFFFFFFFFFFFFFFFFFFFFFFFFFFFFFFCFFFFFFFFFFFFFFFFFFFFFFFF00FCFFFFFFFFFFFFFFFFFFFFFFFFFFFFFFFFFFFCFFFFFFFFFFFFFFFFFFFFFFFF00FCFFFFFF
310
FFFFFFFFFFFFFFFFFFFFFFFFFFFFFCFFFFFFFFFFFFFFFFFFFFFFFF00FCFFFFFFFFFFFFFFFFFFFFFFFFFFFFFFFFFFFCFFFFFFFFFFFFFFFFFFFFFFFF00FCFFFFFFFFFFFFFFFFFFFFFFFFFFFFFFFFFFFCFFFFFFFFFFFFFFFFFFFFFFFF00FCFFFFFFFFFFFFFFFFFFFFFFFFFFFFFFFFFFFCFFFFFFFFFFFFFFFFFFFFFFFF00FCFFFF
310
FFFFFFFFFFFFFFFFFFFFFFFFFFFFFFFCFFFFFFFFFFFFFFFFFFFFFFFF00FCFFFFFFFFFFFFFFFFFFFFFFFFFFFFFFFFFFFCFFFFFFFFFFFFFFFFFFFFFFFF00FCFFFFFFFFFFFFFFFFFFFFFFFFFFFFFFFFFFFCFFFFFFFFFFFFFFFFFFFFFFFF00FCFFFFFFFFFFFFFFFFFFFFFFFFFFFFFFFFFFFCFFFFFFFFFFFFFFFFFFFFFFFF00FCFF
310
FFFFFFFFFFFFFFFFFFFFFFFFFFFFFFFFFCFFFFFFFFFFFFFFFFFFFFFFFF00FCFFFFFFFFFFFFFFFFFFFFFFFFFFFFFFFFFFFCFFFFFFFFFFFFFFFFFFFFFFFF00FCFFFFFFFFFFFFFFFFFFFFFFFFFFFFFFFFFFFCFFFFFFFFFFFFFFFFFFFFFFFF00FCFCFCFCFCFCFCFCFCFCFCFCFCFCFCFCFCFCFCFFFFFFFFFFFFFFFFFFFFFFFF0000
310
000000000000000000000000000000000000FFFFFFFFFFFFFFFFFFFFFFFFFFFFFFFFFFFFFFFFFFFFFFFFFFFFFFFFFFFFFFFFFFFFFFFFFFFF
102
{BLKREFS
331
75
102
}
1001
ACAD
1000
DesignCenter Data
1002
{
1070
     1
1070
     4
1002
}
  0
BLOCK_RECORD
  5
1689
330
1
100
AcDbSymbolTableRecord
100
AcDbBlockTableRecord
  2
Filled-2
340
0
102
{BLKREFS
331
541B
331
541C
331
5520
331
5521
331
5529
331
552A
331
5532
331
5533
331
553B
331
553C
331
5545
331
5546
331
554E
331
554F
331
5557
331
5558
331
5560
331
5561
331
559B
331
559C
331
5637
331
5638
331
5641
331
5642
331
564B
331
564C
331
5655
331
5656
331
565F
331
5660
331
56A2
331
56A3
331
56CE
331
56CF
102
}
  0
BLOCK_RECORD
  5
3510
330
1
100
AcDbSymbolTableRecord
100
AcDbBlockTableRecord
  2
*D2
340
0
  0
BLOCK_RECORD
  5
355A
330
1
100
AcDbSymbolTableRecord
100
AcDbBlockTableRecord
  2
*D3
340
0
  0
BLOCK_RECORD
  5
3641
330
1
100
AcDbSymbolTableRecord
100
AcDbBlockTableRecord
  2
*D4
340
0
  0
BLOCK_RECORD
  5
517E
330
1
100
AcDbSymbolTableRecord
100
AcDbBlockTableRecord
  2
*D5
340
0
  0
BLOCK_RECORD
  5
518A
330
1
100
AcDbSymbolTableRecord
100
AcDbBlockTableRecord
  2
*D6
340
0
  0
BLOCK_RECORD
  5
5196
330
1
100
AcDbSymbolTableRecord
100
AcDbBlockTableRecord
  2
*D7
340
0
  0
BLOCK_RECORD
  5
51A2
330
1
100
AcDbSymbolTableRecord
100
AcDbBlockTableRecord
  2
*D8
340
0
  0
BLOCK_RECORD
  5
51AE
330
1
100
AcDbSymbolTableRecord
100
AcDbBlockTableRecord
  2
*D9
340
0
  0
BLOCK_RECORD
  5
51C7
330
1
100
AcDbSymbolTableRecord
100
AcDbBlockTableRecord
  2
*D10
340
0
  0
BLOCK_RECORD
  5
51D3
330
1
100
AcDbSymbolTableRecord
100
AcDbBlockTableRecord
  2
*D11
340
0
  0
BLOCK_RECORD
  5
5230
330
1
100
AcDbSymbolTableRecord
100
AcDbBlockTableRecord
  2
A$C733A0D24
340
0
102
{BLKREFS
331
5244
331
5255
331
525B
331
5261
102
}
  0
BLOCK_RECORD
  5
53C6
330
1
100
AcDbSymbolTableRecord
100
AcDbBlockTableRecord
  2
*D13
340
0
  0
BLOCK_RECORD
  5
55F2
330
1
100
AcDbSymbolTableRecord
100
AcDbBlockTableRecord
  2
*D14
340
0
  0
BLOCK_RECORD
  5
55FF
330
1
100
AcDbSymbolTableRecord
100
AcDbBlockTableRecord
  2
*D15
340
0
  0
BLOCK_RECORD
  5
560C
330
1
100
AcDbSymbolTableRecord
100
AcDbBlockTableRecord
  2
*D16
340
0
  0
BLOCK_RECORD
  5
5619
330
1
100
AcDbSymbolTableRecord
100
AcDbBlockTableRecord
  2
*D17
340
0
  0
BLOCK_RECORD
  5
5626
330
1
100
AcDbSymbolTableRecord
100
AcDbBlockTableRecord
  2
*D18
340
0
  0
BLOCK_RECORD
  5
56BD
330
1
100
AcDbSymbolTableRecord
100
AcDbBlockTableRecord
  2
*D19
340
0
  0
BLOCK_RECORD
  5
577C
102
{ACAD_XDICTIONARY
360
5782
102
}
330
1
100
AcDbSymbolTableRecord
100
AcDbBlockTableRecord
  2
A$C28A40D98
340
0
102
{BLKREFS
331
5786
102
}
1001
ACAD
1000
DesignCenter Data
1002
{
1070
     1
1070
     4
1002
}
  0
BLOCK_RECORD
  5
5787
102
{ACAD_XDICTIONARY
360
578D
102
}
330
1
100
AcDbSymbolTableRecord
100
AcDbBlockTableRecord
  2
A$C4F5C5639
340
0
102
{BLKREFS
331
5791
102
}
1001
ACAD
1000
DesignCenter Data
1002
{
1070
     1
1070
     4
1002
}
  0
BLOCK_RECORD
  5
5792
102
{ACAD_XDICTIONARY
360
5798
102
}
330
1
100
AcDbSymbolTableRecord
100
AcDbBlockTableRecord
  2
A$C5D5D4110
340
0
102
{BLKREFS
331
579C
102
}
1001
ACAD
1000
DesignCenter Data
1002
{
1070
     1
1070
     4
1002
}
  0
BLOCK_RECORD
  5
579D
102
{ACAD_XDICTIONARY
360
57A3
102
}
330
1
100
AcDbSymbolTableRecord
100
AcDbBlockTableRecord
  2
A$C7AB63612
340
0
102
{BLKREFS
331
57A7
102
}
1001
ACAD
1000
DesignCenter Data
1002
{
1070
     1
1070
     4
1002
}
  0
ENDTAB
  0
ENDSEC
  0
SECTION
  2
BLOCKS
  0
BLOCK
  5
20
330
1F
100
AcDbEntity
  8
0
100
AcDbBlockBegin
  2
*Model_Space
 70
     0
 10
0.0
 20
0.0
 30
0.0
  3
*Model_Space
  1

  0
ENDBLK
  5
21
330
1F
100
AcDbEntity
  8
0
100
AcDbBlockEnd
  0
BLOCK
  5
1C
330
1B
100
AcDbEntity
 67
     1
  8
0
100
AcDbBlockBegin
  2
*Paper_Space
 70
     0
 10
0.0
 20
0.0
 30
0.0
  3
*Paper_Space
  1

  0
ENDBLK
  5
1D
330
1B
100
AcDbEntity
 67
     1
  8
0
100
AcDbBlockEnd
  0
BLOCK
  5
71
330
31
100
AcDbEntity
  8
RAHMEN035
100
AcDbBlockBegin
  2
DIN A4 title block
 70
     2
 10
0.0
 20
0.0
 30
0.0
  3
DIN A4 title block
  1

  4
DIN A4 title block and attributes
  0
LINE
  5
32
330
31
100
AcDbEntity
  8
RAHMEN025
100
AcDbLine
 10
210.0
 20
0.0
 30
0.0
 11
210.0
 21
297.0
 31
0.0
  0
LINE
  5
34
330
31
100
AcDbEntity
  8
RAHMEN025
100
AcDbLine
 10
0.0
 20
297.0
 30
0.0
 11
0.0
 21
0.0
 31
0.0
  0
LINE
  5
35
330
31
100
AcDbEntity
  8
RAHMEN07
100
AcDbLine
 10
205.0
 20
5.0
 30
0.0
 11
205.0
 21
292.0
 31
0.0
  0
LINE
  5
37
330
31
100
AcDbEntity
  8
RAHMEN07
100
AcDbLine
 10
17.80000000000027
 20
5.0
 30
0.0
 11
17.80000000000027
 21
292.0
 31
0.0
  0
LINE
  5
38
330
31
100
AcDbEntity
  8
RAHMEN025
100
AcDbLine
 10
0.0
 20
0.0
 30
0.0
 11
210.0
 21
0.0
 31
0.0
  0
LINE
  5
39
330
31
100
AcDbEntity
  8
RAHMEN025
100
AcDbLine
 10
17.80000000000027
 20
9.25
 30
0.0
 11
205.0
 21
9.25
 31
0.0
  0
LINE
  5
3A
330
31
100
AcDbEntity
  8
RAHMEN07
100
AcDbLine
 10
17.80000000000027
 20
60.25000000000002
 30
0.0
 11
205.0000000000002
 21
60.25000000000002
 31
0.0
  0
LINE
  5
3B
330
31
100
AcDbEntity
  8
RAHMEN07
100
AcDbLine
 10
17.80000000000027
 20
22.0
 30
0.0
 11
205.0
 21
22.0
 31
0.0
  0
LINE
  5
3C
330
31
100
AcDbEntity
  8
RAHMEN07
100
AcDbLine
 10
17.80000000000027
 20
43.24999999999998
 30
0.0
 11
205.0000000000002
 21
43.24999999999998
 31
0.0
  0
LINE
  5
3D
330
31
100
AcDbEntity
  8
RAHMEN025
100
AcDbLine
 10
17.80000000000027
 20
39.00000000000002
 30
0.0
 11
116.6000000000002
 21
39.00000000000002
 31
0.0
  0
LINE
  5
3E
330
31
100
AcDbEntity
  8
RAHMEN025
100
AcDbLine
 10
17.80000000000027
 20
34.75000000000001
 30
0.0
 11
116.6000000000001
 21
34.75000000000001
 31
0.0
  0
LINE
  5
3F
330
31
100
AcDbEntity
  8
RAHMEN025
100
AcDbLine
 10
17.80000000000027
 20
30.50000000000002
 30
0.0
 11
116.6000000000001
 21
30.50000000000002
 31
0.0
  0
LINE
  5
40
330
31
100
AcDbEntity
  8
RAHMEN025
100
AcDbLine
 10
17.80000000000027
 20
26.25000000000002
 30
0.0
 11
116.6000000000001
 21
26.25000000000002
 31
0.0
  0
TEXT
  5
41
330
31
100
AcDbEntity
  8
RAHMEN025
100
AcDbText
 10
73.65231252739386
 20
5.875
 30
0.0
 40
2.5
  1
Ursprung
  7
ISO Proportional
100
AcDbText
  0
TEXT
  5
43
330
31
100
AcDbEntity
  8
RAHMEN025
100
AcDbText
 10
72.89893356388438
 20
27.12500000000002
 30
0.0
 40
2.5
  1
Norm
  7
ISO Proportional
100
AcDbText
  0
TEXT
  5
44
330
31
100
AcDbEntity
  8
RAHMEN025
100
AcDbText
 10
72.89893356388438
 20
31.37500000000001
 30
0.0
 40
2.5
  1
Gepr.
  7
ISO Proportional
100
AcDbText
  0
TEXT
  5
45
330
31
100
AcDbEntity
  8
RAHMEN025
100
AcDbText
 10
72.89893356388438
 20
35.62500000000002
 30
0.0
 40
2.5
  1
Bearb.
  7
ISO Proportional
100
AcDbText
  0
TEXT
  5
46
330
31
100
AcDbEntity
  8
RAHMEN025
100
AcDbText
 10
74.00366595510707
 20
55.81250000000001
 30
0.0
 40
2.5
  1
(Zul. Abw.)
  7
ISO Proportional
100
AcDbText
  0
LINE
  5
47
330
31
100
AcDbEntity
  8
RAHMEN07
100
AcDbLine
 10
17.80000000000027
 20
5.0
 30
0.0
 11
205.0
 21
5.0
 31
0.0
  0
TEXT
  5
48
330
31
100
AcDbEntity
  8
RAHMEN025
100
AcDbText
 10
19.40366595510713
 20
55.81250000000001
 30
0.0
 40
2.5
  1
(Verwendungsbereich)
  7
ISO Proportional
100
AcDbText
  0
LINE
  5
49
330
31
100
AcDbEntity
  8
RAHMEN025
100
AcDbLine
 10
72.4000000000002
 20
60.25000000000002
 30
0.0
 11
72.4000000000002
 21
5.0
 31
0.0
  0
LINE
  5
4A
330
31
100
AcDbEntity
  8
RAHMEN025
100
AcDbLine
 10
25.60000000000028
 20
43.25000000000001
 30
0.0
 11
25.60000000000025
 21
5.0
 31
0.0
  0
LINE
  5
4B
330
31
100
AcDbEntity
  8
RAHMEN025
100
AcDbLine
 10
51.60000000000025
 20
43.25000000000001
 30
0.0
 11
51.60000000000025
 21
5.0
 31
0.0
  0
LINE
  5
4C
330
31
100
AcDbEntity
  8
RAHMEN025
100
AcDbLine
 10
64.60000000000025
 20
43.25000000000001
 30
0.0
 11
64.60000000000025
 21
5.0
 31
0.0
  0
TEXT
  5
4D
330
31
100
AcDbEntity
  8
RAHMEN025
100
AcDbText
 10
18.11472997742618
 20
5.875
 30
0.0
 40
2.5
  1
Zust.
  7
ISO Proportional
100
AcDbText
  0
TEXT
  5
4E
330
31
100
AcDbEntity
  8
RAHMEN025
100
AcDbText
 10
31.18543904041607
 20
5.875
 30
0.0
 40
2.5
  1
Änderung
  7
ISO Proportional
100
AcDbText
  0
TEXT
  5
4F
330
31
100
AcDbEntity
  8
RAHMEN025
100
AcDbText
 10
53.41162858072454
 20
5.875
 30
0.0
 40
2.5
  1
Datum
  7
ISO Proportional
100
AcDbText
  0
TEXT
  5
50
330
31
100
AcDbEntity
  8
RAHMEN025
100
AcDbText
 10
64.67503184848237
 20
5.875
 30
0.0
 40
2.5
  1
Name
  7
ISO Proportional
100
AcDbText
  0
LINE
  5
51
330
31
100
AcDbEntity
  8
RAHMEN025
100
AcDbLine
 10
17.80000000000027
 20
13.5
 30
0.0
 11
72.4000000000002
 21
13.5
 31
0.0
  0
LINE
  5
52
330
31
100
AcDbEntity
  8
RAHMEN025
100
AcDbLine
 10
17.80000000000027
 20
17.75
 30
0.0
 11
72.4000000000002
 21
17.75
 31
0.0
  0
LINE
  5
53
330
31
100
AcDbEntity
  8
RAHMEN025
100
AcDbLine
 10
116.6000000000002
 20
60.25000000000002
 30
0.0
 11
116.6000000000001
 21
5.0
 31
0.0
  0
LINE
  5
54
330
31
100
AcDbEntity
  8
RAHMEN025
100
AcDbLine
 10
98.40000000000026
 20
60.25000000000002
 30
0.0
 11
98.40000000000021
 21
22.0
 31
0.0
  0
TEXT
  5
55
330
31
100
AcDbEntity
  8
RAHMEN025
100
AcDbText
 10
99.84609815315639
 20
55.81250000000001
 30
0.0
 40
2.5
  1
(Oberfl.)
  7
ISO Proportional
100
AcDbText
  0
TEXT
  5
56
330
31
100
AcDbEntity
  8
RAHMEN025
100
AcDbText
 10
169.7262599024917
 20
55.81250000000001
 30
0.0
 40
2.5
  1
(Gewicht)
  7
ISO Proportional
100
AcDbText
  0
LINE
  5
57
330
31
100
AcDbEntity
  8
RAHMEN025
100
AcDbLine
 10
168.6000000000002
 20
60.24999999999995
 30
0.0
 11
168.6000000000002
 21
53.87500000000001
 31
0.0
  0
LINE
  5
58
330
31
100
AcDbEntity
  8
RAHMEN025
100
AcDbLine
 10
116.6000000000002
 20
53.87500000000001
 30
0.0
 11
205.0000000000002
 21
53.87500000000001
 31
0.0
  0
TEXT
  5
59
330
31
100
AcDbEntity
  8
RAHMEN025
100
AcDbText
 10
117.7620476356918
 20
44.12499999999998
 30
0.0
 40
2.5
  1
(Modell- oder Gesenk-Nr)
  7
ISO Proportional
100
AcDbText
  0
TEXT
  5
5A
330
31
100
AcDbEntity
  8
RAHMEN025
100
AcDbText
 10
117.7620476356918
 20
50.34635004497819
 30
0.0
 40
2.5
  1
(Werkstoff, Halbzeug)
  7
ISO Proportional
100
AcDbText
  0
ATTDEF
  5
5B
330
31
100
AcDbEntity
  8
RAHMEN05
100
AcDbText
 10
144.500744468706
 20
30.55510922715244
 30
0.0
 40
5.0
  1
Benennung
  7
ISO Proportional
 72
     4
 11
160.5913536854751
 21
32.21450001038333
 31
0.0
100
AcDbAttributeDefinition
  3
Benennung
  2
BENENNUNG
 70
     0
  0
ATTDEF
  5
5D
330
31
100
AcDbEntity
  8
RAHMEN05
100
AcDbText
 10
147.5035696603037
 20
12.82473610229667
 30
0.0
 40
5.0
  1
XXX
  7
ISO Proportional
 72
     4
 11
154.2535696603037
 21
15.32473610229667
 31
0.0
100
AcDbAttributeDefinition
  3
Zeichnungsnummer
  2
ZEICHNUNGSNUMMER
 70
     0
  0
TEXT
  5
5E
330
31
100
AcDbEntity
  8
RAHMEN025
100
AcDbText
 10
118.2767000439928
 20
5.875
 30
0.0
 40
2.5
  1
Ersatz für:
  7
ISO Proportional
100
AcDbText
  0
ATTDEF
  5
5F
330
31
100
AcDbEntity
  8
RAHMEN025
100
AcDbText
 10
99.71813410214245
 20
31.45603256725529
 30
0.0
 40
2.5
  1
XXX
  7
ISO Proportional
100
AcDbAttributeDefinition
  3
Geprüft von
  2
NAME
 70
     0
  0
ATTDEF
  5
60
330
31
100
AcDbEntity
  8
RAHMEN025
100
AcDbText
 10
83.45502135033781
 20
31.45603256725529
 30
0.0
 40
2.5
  1
00.00.00
  7
ISO Proportional
100
AcDbAttributeDefinition
  3
Geprüft am
  2
GEPRÜFT
 70
     0
  0
LINE
  5
61
330
31
100
AcDbEntity
  8
RAHMEN025
100
AcDbLine
 10
82.80000000000024
 20
43.24999999999998
 30
0.0
 11
82.80000000000018
 21
22.00000000000003
 31
0.0
  0
ATTDEF
  5
62
330
31
100
AcDbEntity
  8
RAHMEN025
100
AcDbText
 10
83.45502135033781
 20
35.70603256725529
 30
0.0
 40
2.5
  1
00.00.00
  7
ISO Proportional
100
AcDbAttributeDefinition
  3
Bearbeitet am
  2
BEARBEIT.
 70
     0
  0
TEXT
  5
63
330
31
100
AcDbEntity
  8
RAHMEN025
100
AcDbText
 10
86.62791085491761
 20
39.87500000000002
 30
0.0
 40
2.5
  1
Datum
  7
ISO Proportional
100
AcDbText
  0
ATTDEF
  5
64
330
31
100
AcDbEntity
  8
RAHMEN025
100
AcDbText
 10
99.71813410214245
 20
35.70603256725529
 30
0.0
 40
2.5
  1
XXX
  7
ISO Proportional
100
AcDbAttributeDefinition
  3
Gezeichnet von
  2
NAME
 70
     0
  0
TEXT
  5
65
330
31
100
AcDbEntity
  8
RAHMEN025
100
AcDbText
 10
103.1733221513886
 20
39.87500000000002
 30
0.0
 40
2.5
  1
Name
  7
ISO Proportional
100
AcDbText
  0
TEXT
  5
66
330
31
100
AcDbEntity
  8
RAHMEN025
100
AcDbText
 10
117.7620476356918
 20
47.25715873595926
 30
0.0
 40
2.5
  1
(Rohteil-Nr)
  7
ISO Proportional
100
AcDbText
  0
LINE
  5
67
330
31
100
AcDbEntity
  8
RAHMEN025
100
AcDbLine
 10
192.0000000000001
 20
21.99999999999999
 30
0.0
 11
192.0000000000001
 21
9.25
 31
0.0
  0
TEXT
  5
68
330
31
100
AcDbEntity
  8
RAHMEN025
100
AcDbText
 10
162.4767000439927
 20
5.875
 30
0.0
 40
2.5
  1
Ersatz durch:
  7
ISO Proportional
100
AcDbText
  0
LINE
  5
69
330
31
100
AcDbEntity
  8
RAHMEN025
100
AcDbLine
 10
160.8
 20
9.25
 30
0.0
 11
160.8
 21
4.999999999999914
 31
0.0
  0
TEXT
  5
6A
330
31
100
AcDbEntity
  8
RAHMEN025
100
AcDbText
 10
192.912259483322
 20
10.25579083555395
 30
0.0
 40
2.5
  1
Blätter
  7
ISO Proportional
100
AcDbText
  0
LINE
  5
6B
330
31
100
AcDbEntity
  8
RAHMEN025
100
AcDbLine
 10
192.0
 20
13.5
 30
0.0
 11
205.0
 21
13.5
 31
0.0
  0
TEXT
  5
6C
330
31
100
AcDbEntity
  8
RAHMEN025
100
AcDbText
 10
192.9084594911225
 20
18.63219445009372
 30
0.0
 40
2.5
  1
Blatt
  7
ISO Proportional
100
AcDbText
  0
ATTDEF
  5
6D
330
31
100
AcDbEntity
  8
RAHMEN025
100
AcDbText
 10
133.3916231867287
 20
55.81250000000001
 30
0.0
 40
2.5
  1
1:1
  7
ISO Proportional
100
AcDbAttributeDefinition
  3
Maßstab
  2
MAßSTAB
 70
     0
  0
TEXT
  5
6E
330
31
100
AcDbEntity
  8
RAHMEN025
100
AcDbText
 10
117.7262599024917
 20
55.81250000000001
 30
0.0
 40
2.5
  1
Maßstab
  7
ISO Proportional
100
AcDbText
  0
LINE
  5
6F
330
31
100
AcDbEntity
  8
RAHMEN025
100
AcDbLine
 10
210.0
 20
297.0
 30
0.0
 11
0.0
 21
297.0
 31
0.0
  0
LINE
  5
70
330
31
100
AcDbEntity
  8
RAHMEN07
100
AcDbLine
 10
205.0
 20
292.0
 30
0.0
 11
17.80000000000027
 21
292.0
 31
0.0
  0
ENDBLK
  5
73
330
31
100
AcDbEntity
  8
RAHMEN035
100
AcDbBlockEnd
  0
BLOCK
  5
1695
330
1689
100
AcDbEntity
  8
0
100
AcDbBlockBegin
  2
Filled-2
 70
     0
 10
0.0
 20
0.0
 30
0.0
  3
Filled-2
  1

  0
LINE
  5
168A
330
1689
100
AcDbEntity
  8
0
 62
     0
100
AcDbLine
 10
-1.0
 20
0.0
 30
0.0
 11
0.0
 21
0.0
 31
0.0
  0
POLYLINE
  5
168B
330
1689
100
AcDbEntity
  8
0
 62
     0
100
AcDb2dPolyline
 66
     1
 10
0.0
 20
0.0
 30
0.0
 70
   128
  0
VERTEX
  5
168C
330
168B
100
AcDbEntity
  8
0
 62
     0
100
AcDbVertex
100
AcDb2dVertex
 10
-1.0
 20
-0.1666666666666666
 30
0.0
  0
VERTEX
  5
168D
330
168B
100
AcDbEntity
  8
0
 62
     0
100
AcDbVertex
100
AcDb2dVertex
 10
0.0
 20
0.0
 30
0.0
  0
VERTEX
  5
168E
330
168B
100
AcDbEntity
  8
0
 62
     0
100
AcDbVertex
100
AcDb2dVertex
 10
-1.0
 20
0.1666666666666666
 30
0.0
  0
VERTEX
  5
168F
330
168B
100
AcDbEntity
  8
0
 62
     0
100
AcDbVertex
100
AcDb2dVertex
 10
-1.0
 20
-0.1666666666666666
 30
0.0
  0
SEQEND
  5
1690
330
168B
100
AcDbEntity
  8
0
 62
     0
  0
SOLID
  5
1691
330
1689
100
AcDbEntity
  8
0
 62
     0
100
AcDbTrace
 10
-1.0
 20
-0.1666666666666666
 30
0.0
 11
0.0
 21
0.0
 31
0.0
 12
-1.0
 22
0.1666666666666666
 32
0.0
 13
-1.0
 23
-0.1666666666666666
 33
0.0
  0
LINE
  5
1692
330
1689
100
AcDbEntity
  8
0
 62
     0
100
AcDbLine
 10
-1.0
 20
-0.1666666666666666
 30
0.0
 11
0.0
 21
0.0
 31
0.0
  0
LINE
  5
1693
330
1689
100
AcDbEntity
  8
0
 62
     0
100
AcDbLine
 10
0.0
 20
0.0
 30
0.0
 11
-1.0
 21
0.1666666666666666
 31
0.0
  0
LINE
  5
1694
330
1689
100
AcDbEntity
  8
0
 62
     0
100
AcDbLine
 10
-1.0
 20
0.1666666666666666
 30
0.0
 11
-1.0
 21
-0.1666666666666666
 31
0.0
  0
ENDBLK
  5
1696
330
1689
100
AcDbEntity
  8
0
100
AcDbBlockEnd
  0
BLOCK
  5
351A
330
3510
100
AcDbEntity
  8
0
100
AcDbBlockBegin
  2
*D2
 70
     1
 10
0.0
 20
0.0
 30
0.0
  3
*D2
  1

  0
LINE
  5
551D
330
3510
100
AcDbEntity
  8
Bemaßungen(IBH-ISO)
  6
Continuous
 62
     1
370
    25
100
AcDbLine
 10
418.2940138257245
 20
311.2984406139891
 30
0.0
 11
418.2940138257245
 21
297.5750846354795
 31
0.0
  0
LINE
  5
551E
330
3510
100
AcDbEntity
  8
Bemaßungen(IBH-ISO)
  6
Continuous
 62
     1
370
    25
100
AcDbLine
 10
470.7940138257245
 20
311.2984406139891
 30
0.0
 11
470.7940138257245
 21
297.5750846354795
 31
0.0
  0
LINE
  5
551F
330
3510
100
AcDbEntity
  8
Bemaßungen(IBH-ISO)
  6
Continuous
 62
     1
370
    25
100
AcDbLine
 10
419.7940138257244
 20
298.5750846354795
 30
0.0
 11
469.2940138257244
 21
298.5750846354795
 31
0.0
  0
INSERT
  5
5520
330
3510
100
AcDbEntity
  8
Bemaßungen(IBH-ISO)
  6
Continuous
 62
     1
370
    25
100
AcDbBlockReference
  2
Filled-2
 10
418.2940138257245
 20
298.5750846354795
 30
0.0
 41
1.5
 42
1.5
 43
1.5
 50
180.0
  0
INSERT
  5
5521
330
3510
100
AcDbEntity
  8
Bemaßungen(IBH-ISO)
  6
Continuous
 62
     1
370
    25
100
AcDbBlockReference
  2
Filled-2
 10
470.7940138257245
 20
298.5750846354795
 30
0.0
 41
1.5
 42
1.5
 43
1.5
  0
MTEXT
  5
5522
330
3510
100
AcDbEntity
  8
Bemaßungen(IBH-ISO)
  6
Continuous
 62
     7
370
    25
100
AcDbMText
 10
441.7432650985874
 20
300.2750846354795
 30
0.0
 40
2.5
 41
0.0
 71
     4
 72
     1
  1
\A1;52,5
  7
IBH-BEM
 73
     1
 44
1.0
  0
POINT
  5
5523
330
3510
100
AcDbEntity
  8
DEFPOINTS
  6
Continuous
 62
     0
100
AcDbPoint
 10
418.2940138257245
 20
311.2984406139891
 30
0.0
  0
POINT
  5
5524
330
3510
100
AcDbEntity
  8
DEFPOINTS
  6
Continuous
 62
     0
100
AcDbPoint
 10
470.7940138257245
 20
311.2984406139891
 30
0.0
  0
POINT
  5
5525
330
3510
100
AcDbEntity
  8
DEFPOINTS
  6
Continuous
 62
     0
100
AcDbPoint
 10
470.7940138257245
 20
298.5750846354795
 30
0.0
  0
ENDBLK
  5
351B
330
3510
100
AcDbEntity
  8
0
100
AcDbBlockEnd
  0
BLOCK
  5
3564
330
355A
100
AcDbEntity
  8
0
100
AcDbBlockBegin
  2
*D3
 70
     1
 10
0.0
 20
0.0
 30
0.0
  3
*D3
  1

  0
LINE
  5
5598
330
355A
100
AcDbEntity
  8
Bemaßungen(IBH-ISO)
  6
Continuous
 62
     1
370
    25
100
AcDbLine
 10
401.3728270856269
 20
304.3984406139882
 30
0.0
 11
406.348884208824
 21
304.3984406139882
 31
0.0
  0
LINE
  5
5599
330
355A
100
AcDbEntity
  8
Bemaßungen(IBH-ISO)
  6
Continuous
 62
     1
370
    25
100
AcDbLine
 10
401.3728270856269
 20
320.1984406139882
 30
0.0
 11
406.348884208824
 21
320.1984406139882
 31
0.0
  0
LINE
  5
559A
330
355A
100
AcDbEntity
  8
Bemaßungen(IBH-ISO)
  6
Continuous
 62
     1
370
    25
100
AcDbLine
 10
405.348884208824
 20
305.8984406139882
 30
0.0
 11
405.348884208824
 21
318.6984406139882
 31
0.0
  0
INSERT
  5
559B
330
355A
100
AcDbEntity
  8
Bemaßungen(IBH-ISO)
  6
Continuous
 62
     1
370
    25
100
AcDbBlockReference
  2
Filled-2
 10
405.348884208824
 20
304.3984406139882
 30
0.0
 41
1.5
 42
1.5
 43
1.5
 50
270.0
  0
INSERT
  5
559C
330
355A
100
AcDbEntity
  8
Bemaßungen(IBH-ISO)
  6
Continuous
 62
     1
370
    25
100
AcDbBlockReference
  2
Filled-2
 10
405.348884208824
 20
320.1984406139882
 30
0.0
 41
1.5
 42
1.5
 43
1.5
 50
90.0
  0
MTEXT
  5
559D
330
355A
100
AcDbEntity
  8
Bemaßungen(IBH-ISO)
  6
Continuous
 62
     7
370
    25
100
AcDbMText
 10
403.6488842088239
 20
309.043249194093
 30
0.0
 40
2.5
 41
0.0
 71
     4
 72
     1
  1
\A1;15,8
  7
IBH-BEM
 11
0.0000000000000001
 21
1.0
 31
0.0
 73
     1
 44
1.0
  0
POINT
  5
559E
330
355A
100
AcDbEntity
  8
DEFPOINTS
  6
Continuous
 62
     0
100
AcDbPoint
 10
401.3728270856269
 20
304.3984406139882
 30
0.0
  0
POINT
  5
559F
330
355A
100
AcDbEntity
  8
DEFPOINTS
  6
Continuous
 62
     0
100
AcDbPoint
 10
401.3728270856269
 20
320.1984406139882
 30
0.0
  0
POINT
  5
55A0
330
355A
100
AcDbEntity
  8
DEFPOINTS
  6
Continuous
 62
     0
100
AcDbPoint
 10
405.348884208824
 20
320.1984406139882
 30
0.0
  0
ENDBLK
  5
3565
330
355A
100
AcDbEntity
  8
0
100
AcDbBlockEnd
  0
BLOCK
  5
364B
330
3641
100
AcDbEntity
  8
0
100
AcDbBlockBegin
  2
*D4
 70
     1
 10
0.0
 20
0.0
 30
0.0
  3
*D4
  1

  0
LINE
  5
5418
330
3641
100
AcDbEntity
  8
Bemaßungen(IBH-ISO)
 62
     1
370
    25
100
AcDbLine
 10
375.8728270856269
 20
304.3984406139886
 30
0.0
 11
375.8728270856269
 21
295.9007512726436
 31
0.0
  0
LINE
  5
5419
330
3641
100
AcDbEntity
  8
Bemaßungen(IBH-ISO)
 62
     1
370
    25
100
AcDbLine
 10
401.3728270856269
 20
304.3984406139887
 30
0.0
 11
401.3728270856269
 21
295.9007512726436
 31
0.0
  0
LINE
  5
541A
330
3641
100
AcDbEntity
  8
Bemaßungen(IBH-ISO)
 62
     1
370
    25
100
AcDbLine
 10
377.3728270856269
 20
296.9007512726436
 30
0.0
 11
399.8728270856269
 21
296.9007512726436
 31
0.0
  0
INSERT
  5
541B
330
3641
100
AcDbEntity
  8
Bemaßungen(IBH-ISO)
 62
     1
370
    25
100
AcDbBlockReference
  2
Filled-2
 10
375.8728270856269
 20
296.9007512726436
 30
0.0
 41
1.5
 42
1.5
 43
1.5
 50
180.0
  0
INSERT
  5
541C
330
3641
100
AcDbEntity
  8
Bemaßungen(IBH-ISO)
 62
     1
370
    25
100
AcDbBlockReference
  2
Filled-2
 10
401.3728270856269
 20
296.9007512726436
 30
0.0
 41
1.5
 42
1.5
 43
1.5
  0
MTEXT
  5
541D
330
3641
100
AcDbEntity
  8
Bemaßungen(IBH-ISO)
 62
     7
100
AcDbMText
 10
388.6228270856269
 20
297.9936084155008
 30
0.0
 40
1.5
 41
0.0
 71
     5
 72
     1
  1
\A1;25,5
  7
IBH-BEM
 73
     1
 44
1.0
  0
POINT
  5
541E
330
3641
100
AcDbEntity
  8
DEFPOINTS
 62
     0
100
AcDbPoint
 10
375.8728270856269
 20
304.3984406139886
 30
0.0
  0
POINT
  5
541F
330
3641
100
AcDbEntity
  8
DEFPOINTS
 62
     0
100
AcDbPoint
 10
401.3728270856269
 20
304.3984406139887
 30
0.0
  0
POINT
  5
5420
330
3641
100
AcDbEntity
  8
DEFPOINTS
 62
     0
100
AcDbPoint
 10
401.3728270856269
 20
296.9007512726436
 30
0.0
  0
ENDBLK
  5
364C
330
3641
100
AcDbEntity
  8
0
100
AcDbBlockEnd
  0
BLOCK
  5
5188
330
517E
100
AcDbEntity
  8
0
100
AcDbBlockBegin
  2
*D5
 70
     1
 10
0.0
 20
0.0
 30
0.0
  3
*D5
  1

  0
LINE
  5
5526
330
517E
100
AcDbEntity
  8
Bemaßungen(IBH-ISO)
  6
Continuous
 62
     1
370
    25
100
AcDbLine
 10
423.5440138256548
 20
245.0484978859655
 30
0.0
 11
423.5440138256548
 21
237.5484978859653
 31
0.0
  0
LINE
  5
5527
330
517E
100
AcDbEntity
  8
Bemaßungen(IBH-ISO)
  6
Continuous
 62
     1
370
    25
100
AcDbLine
 10
465.5440138256548
 20
245.0484978859655
 30
0.0
 11
465.5440138256548
 21
237.5484978859653
 31
0.0
  0
LINE
  5
5528
330
517E
100
AcDbEntity
  8
Bemaßungen(IBH-ISO)
  6
Continuous
 62
     1
370
    25
100
AcDbLine
 10
425.0440138256548
 20
238.5484978859653
 30
0.0
 11
464.0440138256549
 21
238.5484978859653
 31
0.0
  0
INSERT
  5
5529
330
517E
100
AcDbEntity
  8
Bemaßungen(IBH-ISO)
  6
Continuous
 62
     1
370
    25
100
AcDbBlockReference
  2
Filled-2
 10
423.5440138256548
 20
238.5484978859653
 30
0.0
 41
1.5
 42
1.5
 43
1.5
 50
180.0
  0
INSERT
  5
552A
330
517E
100
AcDbEntity
  8
Bemaßungen(IBH-ISO)
  6
Continuous
 62
     1
370
    25
100
AcDbBlockReference
  2
Filled-2
 10
465.5440138256548
 20
238.5484978859653
 30
0.0
 41
1.5
 42
1.5
 43
1.5
  0
MTEXT
  5
552B
330
517E
100
AcDbEntity
  8
Bemaßungen(IBH-ISO)
  6
Continuous
 62
     7
370
    -2
100
AcDbMText
 10
442.95026389271
 20
239.9984978859653
 30
0.0
 40
2.5
 41
0.0
 71
     4
 72
     1
  1
\A1;42
  7
IBH-BEM
 73
     1
 44
1.0
  0
POINT
  5
552C
330
517E
100
AcDbEntity
  8
DEFPOINTS
  6
Continuous
 62
     0
100
AcDbPoint
 10
423.5440138256548
 20
245.0484978859655
 30
0.0
  0
POINT
  5
552D
330
517E
100
AcDbEntity
  8
DEFPOINTS
  6
Continuous
 62
     0
100
AcDbPoint
 10
465.5440138256548
 20
245.0484978859655
 30
0.0
  0
POINT
  5
552E
330
517E
100
AcDbEntity
  8
DEFPOINTS
  6
Continuous
 62
     0
100
AcDbPoint
 10
465.5440138256548
 20
238.5484978859653
 30
0.0
  0
ENDBLK
  5
5189
330
517E
100
AcDbEntity
  8
0
100
AcDbBlockEnd
  0
BLOCK
  5
5194
330
518A
100
AcDbEntity
  8
0
100
AcDbBlockBegin
  2
*D6
 70
     1
 10
0.0
 20
0.0
 30
0.0
  3
*D6
  1

  0
LINE
  5
552F
330
518A
100
AcDbEntity
  8
Bemaßungen(IBH-ISO)
  6
Continuous
 62
     1
370
    25
100
AcDbLine
 10
421.2940138256493
 20
272.8734978859664
 30
0.0
 11
421.2940138256493
 21
277.4559787326333
 31
0.0
  0
LINE
  5
5530
330
518A
100
AcDbEntity
  8
Bemaßungen(IBH-ISO)
  6
Continuous
 62
     1
370
    25
100
AcDbLine
 10
476.5940138256494
 20
272.8234978859671
 30
0.0
 11
476.5940138256494
 21
277.4559787326333
 31
0.0
  0
LINE
  5
5531
330
518A
100
AcDbEntity
  8
Bemaßungen(IBH-ISO)
  6
Continuous
 62
     1
370
    25
100
AcDbLine
 10
422.7940138256493
 20
276.4559787326332
 30
0.0
 11
475.0940138256495
 21
276.4559787326332
 31
0.0
  0
INSERT
  5
5532
330
518A
100
AcDbEntity
  8
Bemaßungen(IBH-ISO)
  6
Continuous
 62
     1
370
    25
100
AcDbBlockReference
  2
Filled-2
 10
421.2940138256493
 20
276.4559787326332
 30
0.0
 41
1.5
 42
1.5
 43
1.5
 50
180.0
  0
INSERT
  5
5533
330
518A
100
AcDbEntity
  8
Bemaßungen(IBH-ISO)
  6
Continuous
 62
     1
370
    25
100
AcDbBlockReference
  2
Filled-2
 10
476.5940138256494
 20
276.4559787326332
 30
0.0
 41
1.5
 42
1.5
 43
1.5
  0
MTEXT
  5
5534
330
518A
100
AcDbEntity
  8
Bemaßungen(IBH-ISO)
  6
Continuous
 62
     7
370
    -2
100
AcDbMText
 10
441.7158889351729
 20
278.1559787326332
 30
0.0
 40
2.5
 41
0.0
 71
     4
 72
     1
  1
\A1;55,3
  7
IBH-BEM
 73
     1
 44
1.0
  0
POINT
  5
5535
330
518A
100
AcDbEntity
  8
DEFPOINTS
  6
Continuous
 62
     0
100
AcDbPoint
 10
421.2940138256493
 20
272.8734978859664
 30
0.0
  0
POINT
  5
5536
330
518A
100
AcDbEntity
  8
DEFPOINTS
  6
Continuous
 62
     0
100
AcDbPoint
 10
476.5940138256494
 20
272.8234978859671
 30
0.0
  0
POINT
  5
5537
330
518A
100
AcDbEntity
  8
DEFPOINTS
  6
Continuous
 62
     0
100
AcDbPoint
 10
476.5940138256494
 20
276.4559787326332
 30
0.0
  0
ENDBLK
  5
5195
330
518A
100
AcDbEntity
  8
0
100
AcDbBlockEnd
  0
BLOCK
  5
51A0
330
5196
100
AcDbEntity
  8
0
100
AcDbBlockBegin
  2
*D7
 70
     1
 10
0.0
 20
0.0
 30
0.0
  3
*D7
  1

  0
LINE
  5
5538
330
5196
100
AcDbEntity
  8
Bemaßungen(IBH-ISO)
  6
Continuous
 62
     1
370
    25
100
AcDbLine
 10
414.7940138256494
 20
247.3734978859664
 30
0.0
 11
414.7940138256494
 21
233.1584673291199
 31
0.0
  0
LINE
  5
5539
330
5196
100
AcDbEntity
  8
Bemaßungen(IBH-ISO)
  6
Continuous
 62
     1
370
    25
100
AcDbLine
 10
474.2940138256495
 20
247.3734978859664
 30
0.0
 11
474.2940138256495
 21
233.1584673291199
 31
0.0
  0
LINE
  5
553A
330
5196
100
AcDbEntity
  8
Bemaßungen(IBH-ISO)
  6
Continuous
 62
     1
370
    25
100
AcDbLine
 10
416.2940138256495
 20
234.1584673291198
 30
0.0
 11
472.7940138256494
 21
234.1584673291198
 31
0.0
  0
INSERT
  5
553B
330
5196
100
AcDbEntity
  8
Bemaßungen(IBH-ISO)
  6
Continuous
 62
     1
370
    25
100
AcDbBlockReference
  2
Filled-2
 10
414.7940138256494
 20
234.1584673291198
 30
0.0
 41
1.5
 42
1.5
 43
1.5
 50
180.0
  0
INSERT
  5
553C
330
5196
100
AcDbEntity
  8
Bemaßungen(IBH-ISO)
  6
Continuous
 62
     1
370
    25
100
AcDbBlockReference
  2
Filled-2
 10
474.2940138256495
 20
234.1584673291198
 30
0.0
 41
1.5
 42
1.5
 43
1.5
  0
MTEXT
  5
553D
330
5196
100
AcDbEntity
  8
Bemaßungen(IBH-ISO)
  6
Continuous
 62
     7
370
    -2
100
AcDbMText
 10
441.9408889351729
 20
235.8584673291198
 30
0.0
 40
2.5
 41
0.0
 71
     4
 72
     1
  1
\A1;59,5
  7
IBH-BEM
 73
     1
 44
1.0
  0
POINT
  5
553E
330
5196
100
AcDbEntity
  8
DEFPOINTS
  6
Continuous
 62
     0
100
AcDbPoint
 10
414.7940138256494
 20
247.3734978859664
 30
0.0
  0
POINT
  5
553F
330
5196
100
AcDbEntity
  8
DEFPOINTS
  6
Continuous
 62
     0
100
AcDbPoint
 10
474.2940138256495
 20
247.3734978859664
 30
0.0
  0
POINT
  5
5540
330
5196
100
AcDbEntity
  8
DEFPOINTS
  6
Continuous
 62
     0
100
AcDbPoint
 10
474.2940138256495
 20
234.1584673291198
 30
0.0
  0
ENDBLK
  5
51A1
330
5196
100
AcDbEntity
  8
0
100
AcDbBlockEnd
  0
BLOCK
  5
51AC
330
51A2
100
AcDbEntity
  8
0
100
AcDbBlockBegin
  2
*D8
 70
     1
 10
0.0
 20
0.0
 30
0.0
  3
*D8
  1

  0
LINE
  5
5541
330
51A2
100
AcDbEntity
  8
Bemaßungen(IBH-ISO)
  6
Continuous
 62
     1
370
    25
100
AcDbLine
 10
414.7940138256494
 20
247.3734978859664
 30
0.0
 11
401.8294742744677
 21
247.3734978859664
 31
0.0
  0
LINE
  5
5542
330
51A2
100
AcDbEntity
  8
Bemaßungen(IBH-ISO)
  6
Continuous
 62
     1
370
    25
100
AcDbLine
 10
421.2940138256493
 20
272.8734978859666
 30
0.0
 11
401.8294742744677
 21
272.8734978859666
 31
0.0
  0
LINE
  5
5543
330
51A2
100
AcDbEntity
  8
Bemaßungen(IBH-ISO)
  6
Continuous
 62
     1
370
    25
100
AcDbLine
 10
402.8294742744677
 20
248.8734978859664
 30
0.0
 11
402.8294742744677
 21
271.3734978859666
 31
0.0
  0
MTEXT
  5
5544
330
51A2
100
AcDbEntity
  8
Bemaßungen(IBH-ISO)
  6
Continuous
 62
     7
370
    -2
100
AcDbMText
 10
401.1294742744676
 20
257.5203729954901
 30
0.0
 40
2.5
 41
0.0
 71
     4
 72
     1
  1
\A1;25,5
  7
IBH-BEM
 11
0.0000000000000001
 21
1.0
 31
0.0
 73
     1
 44
1.0
  0
INSERT
  5
5545
330
51A2
100
AcDbEntity
  8
Bemaßungen(IBH-ISO)
  6
Continuous
 62
     1
370
    25
100
AcDbBlockReference
  2
Filled-2
 10
402.8294742744677
 20
247.3734978859664
 30
0.0
 41
1.5
 42
1.5
 43
1.5
 50
270.0
  0
INSERT
  5
5546
330
51A2
100
AcDbEntity
  8
Bemaßungen(IBH-ISO)
  6
Continuous
 62
     1
370
    25
100
AcDbBlockReference
  2
Filled-2
 10
402.8294742744677
 20
272.8734978859666
 30
0.0
 41
1.5
 42
1.5
 43
1.5
 50
90.0
  0
POINT
  5
5547
330
51A2
100
AcDbEntity
  8
DEFPOINTS
  6
Continuous
 62
     0
100
AcDbPoint
 10
414.7940138256494
 20
247.3734978859664
 30
0.0
  0
POINT
  5
5548
330
51A2
100
AcDbEntity
  8
DEFPOINTS
  6
Continuous
 62
     0
100
AcDbPoint
 10
421.2940138256493
 20
272.8734978859666
 30
0.0
  0
POINT
  5
5549
330
51A2
100
AcDbEntity
  8
DEFPOINTS
  6
Continuous
 62
     0
100
AcDbPoint
 10
402.8294742744677
 20
272.8734978859666
 30
0.0
  0
ENDBLK
  5
51AD
330
51A2
100
AcDbEntity
  8
0
100
AcDbBlockEnd
  0
BLOCK
  5
51B8
330
51AE
100
AcDbEntity
  8
0
100
AcDbBlockBegin
  2
*D9
 70
     1
 10
0.0
 20
0.0
 30
0.0
  3
*D9
  1

  0
LINE
  5
554A
330
51AE
100
AcDbEntity
  8
Bemaßungen(IBH-ISO)
  6
Continuous
 62
     1
370
    25
100
AcDbLine
 10
414.7940138256494
 20
247.3734978859664
 30
0.0
 11
405.1958494389431
 21
247.3734978859664
 31
0.0
  0
LINE
  5
554B
330
51AE
100
AcDbEntity
  8
Bemaßungen(IBH-ISO)
  6
Continuous
 62
     1
370
    25
100
AcDbLine
 10
414.7940138256494
 20
255.8734978859664
 30
0.0
 11
405.1958494389431
 21
255.8734978859664
 31
0.0
  0
LINE
  5
554C
330
51AE
100
AcDbEntity
  8
Bemaßungen(IBH-ISO)
  6
Continuous
 62
     1
370
    25
100
AcDbLine
 10
406.1958494389431
 20
248.8734978859664
 30
0.0
 11
406.1958494389431
 21
254.3734978859664
 31
0.0
  0
MTEXT
  5
554D
330
51AE
100
AcDbEntity
  8
Bemaßungen(IBH-ISO)
  6
Continuous
 62
     7
370
    -2
100
AcDbMText
 10
404.4958494389431
 20
249.7641229641975
 30
0.0
 40
2.5
 41
0.0
 71
     4
 72
     1
  1
\A1;8,5
  7
IBH-BEM
 11
0.0000000000000001
 21
1.0
 31
0.0
 73
     1
 44
1.0
  0
INSERT
  5
554E
330
51AE
100
AcDbEntity
  8
Bemaßungen(IBH-ISO)
  6
Continuous
 62
     1
370
    25
100
AcDbBlockReference
  2
Filled-2
 10
406.1958494389431
 20
247.3734978859664
 30
0.0
 41
1.5
 42
1.5
 43
1.5
 50
270.0
  0
INSERT
  5
554F
330
51AE
100
AcDbEntity
  8
Bemaßungen(IBH-ISO)
  6
Continuous
 62
     1
370
    25
100
AcDbBlockReference
  2
Filled-2
 10
406.1958494389431
 20
255.8734978859664
 30
0.0
 41
1.5
 42
1.5
 43
1.5
 50
90.0
  0
POINT
  5
5550
330
51AE
100
AcDbEntity
  8
DEFPOINTS
  6
Continuous
 62
     0
100
AcDbPoint
 10
414.7940138256494
 20
247.3734978859664
 30
0.0
  0
POINT
  5
5551
330
51AE
100
AcDbEntity
  8
DEFPOINTS
  6
Continuous
 62
     0
100
AcDbPoint
 10
414.7940138256494
 20
255.8734978859664
 30
0.0
  0
POINT
  5
5552
330
51AE
100
AcDbEntity
  8
DEFPOINTS
  6
Continuous
 62
     0
100
AcDbPoint
 10
406.1958494389431
 20
255.8734978859664
 30
0.0
  0
ENDBLK
  5
51B9
330
51AE
100
AcDbEntity
  8
0
100
AcDbBlockEnd
  0
BLOCK
  5
51D1
330
51C7
100
AcDbEntity
  8
0
100
AcDbBlockBegin
  2
*D10
 70
     1
 10
0.0
 20
0.0
 30
0.0
  3
*D10
  1

  0
LINE
  5
5553
330
51C7
100
AcDbEntity
  8
Bemaßungen(IBH-ISO)
  6
Continuous
 62
     1
370
    25
100
AcDbLine
 10
474.2940138256495
 20
247.3734978859664
 30
0.0
 11
485.7940138256496
 21
247.3734978859664
 31
0.0
  0
LINE
  5
5554
330
51C7
100
AcDbEntity
  8
Bemaßungen(IBH-ISO)
  6
Continuous
 62
     1
370
    25
100
AcDbLine
 10
476.5940138256495
 20
254.9234978859666
 30
0.0
 11
485.7940138256496
 21
254.9234978859666
 31
0.0
  0
LINE
  5
5555
330
51C7
100
AcDbEntity
  8
Bemaßungen(IBH-ISO)
  6
Continuous
 62
     1
370
    25
100
AcDbLine
 10
484.7940138256496
 20
248.8734978859664
 30
0.0
 11
484.7940138256496
 21
253.4234978859666
 31
0.0
  0
MTEXT
  5
5556
330
51C7
100
AcDbEntity
  8
Bemaßungen(IBH-ISO)
  6
Continuous
 62
     7
370
    -2
100
AcDbMText
 10
483.0940138256496
 20
248.54537299549
 30
0.0
 40
2.5
 41
0.0
 71
     4
 72
     1
  1
\A1;7,55
  7
IBH-BEM
 11
0.0000000000000001
 21
1.0
 31
0.0
 73
     1
 44
1.0
  0
INSERT
  5
5557
330
51C7
100
AcDbEntity
  8
Bemaßungen(IBH-ISO)
  6
Continuous
 62
     1
370
    25
100
AcDbBlockReference
  2
Filled-2
 10
484.7940138256496
 20
247.3734978859664
 30
0.0
 41
1.5
 42
1.5
 43
1.5
 50
270.0
  0
INSERT
  5
5558
330
51C7
100
AcDbEntity
  8
Bemaßungen(IBH-ISO)
  6
Continuous
 62
     1
370
    25
100
AcDbBlockReference
  2
Filled-2
 10
484.7940138256496
 20
254.9234978859666
 30
0.0
 41
1.5
 42
1.5
 43
1.5
 50
90.0
  0
POINT
  5
5559
330
51C7
100
AcDbEntity
  8
DEFPOINTS
  6
Continuous
 62
     0
100
AcDbPoint
 10
474.2940138256495
 20
247.3734978859664
 30
0.0
  0
POINT
  5
555A
330
51C7
100
AcDbEntity
  8
DEFPOINTS
  6
Continuous
 62
     0
100
AcDbPoint
 10
476.5940138256495
 20
254.9234978859666
 30
0.0
  0
POINT
  5
555B
330
51C7
100
AcDbEntity
  8
DEFPOINTS
  6
Continuous
 62
     0
100
AcDbPoint
 10
484.7940138256496
 20
254.9234978859666
 30
0.0
  0
ENDBLK
  5
51D2
330
51C7
100
AcDbEntity
  8
0
100
AcDbBlockEnd
  0
BLOCK
  5
51DE
330
51D3
100
AcDbEntity
  8
0
100
AcDbBlockBegin
  2
*D11
 70
     1
 10
0.0
 20
0.0
 30
0.0
  3
*D11
  1

  0
LINE
  5
555C
330
51D3
100
AcDbEntity
  8
Bemaßungen(IBH-ISO)
  6
Continuous
 62
     1
370
    25
100
AcDbLine
 10
476.5940138256495
 20
254.9234978859666
 30
0.0
 11
476.5940138256495
 21
241.0357777198424
 31
0.0
  0
LINE
  5
555D
330
51D3
100
AcDbEntity
  8
Bemaßungen(IBH-ISO)
  6
Continuous
 62
     1
370
    25
100
AcDbLine
 10
474.2940138256495
 20
247.3734978859664
 30
0.0
 11
474.2940138256495
 21
241.0357777198424
 31
0.0
  0
LINE
  5
555E
330
51D3
100
AcDbEntity
  8
Bemaßungen(IBH-ISO)
  6
Continuous
 62
     1
370
    25
100
AcDbLine
 10
472.7940138256494
 20
242.0357777198424
 30
0.0
 11
471.2940138256494
 21
242.0357777198424
 31
0.0
  0
LINE
  5
555F
330
51D3
100
AcDbEntity
  8
Bemaßungen(IBH-ISO)
  6
Continuous
 62
     1
370
    25
100
AcDbLine
 10
478.0940138256495
 20
242.0357777198424
 30
0.0
 11
483.7127636691873
 21
242.0357777198424
 31
0.0
  0
INSERT
  5
5560
330
51D3
100
AcDbEntity
  8
Bemaßungen(IBH-ISO)
  6
Continuous
 62
     1
370
    25
100
AcDbBlockReference
  2
Filled-2
 10
474.2940138256495
 20
242.0357777198424
 30
0.0
 41
1.5
 42
1.5
 43
1.5
  0
INSERT
  5
5561
330
51D3
100
AcDbEntity
  8
Bemaßungen(IBH-ISO)
  6
Continuous
 62
     1
370
    25
100
AcDbBlockReference
  2
Filled-2
 10
476.5940138256495
 20
242.0357777198424
 30
0.0
 41
1.5
 42
1.5
 43
1.5
 50
180.0
  0
MTEXT
  5
5562
330
51D3
100
AcDbEntity
  8
Bemaßungen(IBH-ISO)
  6
Continuous
 62
     7
370
    -2
100
AcDbMText
 10
479.7940138256495
 20
243.7357777198424
 30
0.0
 40
2.5
 41
0.0
 71
     4
 72
     1
  1
\A1;2,3
  7
IBH-BEM
 73
     1
 44
1.0
  0
POINT
  5
5563
330
51D3
100
AcDbEntity
  8
DEFPOINTS
  6
Continuous
 62
     0
100
AcDbPoint
 10
476.5940138256495
 20
254.9234978859666
 30
0.0
  0
POINT
  5
5564
330
51D3
100
AcDbEntity
  8
DEFPOINTS
  6
Continuous
 62
     0
100
AcDbPoint
 10
474.2940138256495
 20
247.3734978859664
 30
0.0
  0
POINT
  5
5565
330
51D3
100
AcDbEntity
  8
DEFPOINTS
  6
Continuous
 62
     0
100
AcDbPoint
 10
474.2940138256495
 20
242.0357777198424
 30
0.0
  0
ENDBLK
  5
51DF
330
51D3
100
AcDbEntity
  8
0
100
AcDbBlockEnd
  0
BLOCK
  5
523D
330
5230
100
AcDbEntity
  8
0
100
AcDbBlockBegin
  2
A$C733A0D24
 70
     0
 10
0.0
 20
0.0
 30
0.0
  3
A$C733A0D24
  1

  0
ARC
  5
5231
330
5230
100
AcDbEntity
  8
Sichtbare Kanten(IBH-ISO)
370
    -2
100
AcDbCircle
 10
-0.9239707406590014
 20
1.718159576911887
 30
0.0
 40
0.3000000000000007
100
AcDbArc
 50
49.80122535090218
 51
188.3941858292752
  0
ARC
  5
5232
330
5230
100
AcDbEntity
  8
Sichtbare Kanten(IBH-ISO)
370
    -2
100
AcDbCircle
 10
-0.9757936644414826
 20
-1.572328895119369
 30
0.0
 40
0.3000000000000002
100
AcDbArc
 50
169.8012253509034
 51
308.394185829275
  0
ARC
  5
5233
330
5230
100
AcDbEntity
  8
Sichtbare Kanten(IBH-ISO)
370
    -2
100
AcDbCircle
 10
-2.407901468437842
 20
1.499185616921977
 30
0.0
 40
1.199999999999998
100
AcDbArc
 50
289.8012253508999
 51
8.394185829275182
  0
ARC
  5
5234
330
5230
100
AcDbEntity
  8
Sichtbare Kanten(IBH-ISO)
370
    -2
100
AcDbCircle
 10
-1.899764405096505
 20
0.0878753303942404
 30
0.0
 40
0.3
100
AcDbArc
 50
109.8012253508968
 51
248.394185829272
  0
ARC
  5
5235
330
5230
100
AcDbEntity
  8
Sichtbare Kanten(IBH-ISO)
370
    -2
100
AcDbCircle
 10
-2.452092756867386
 20
-1.306733357313532
 30
0.0
 40
1.200000000000001
100
AcDbArc
 50
349.8012253509002
 51
68.39418582927621
  0
ARC
  5
5236
330
5230
100
AcDbEntity
  8
Sichtbare Kanten(IBH-ISO)
370
    -2
100
AcDbCircle
 10
2.452092756859542
 20
1.422644060110087
 30
0.0
 40
1.199999999999999
100
AcDbArc
 50
169.8012253509002
 51
248.3941858292762
  0
ARC
  5
5237
330
5230
100
AcDbEntity
  8
Sichtbare Kanten(IBH-ISO)
370
    -2
100
AcDbCircle
 10
2.407901468429997
 20
-1.383274914125422
 30
0.0
 40
1.200000000000003
100
AcDbArc
 50
109.8012253508998
 51
188.3941858292752
  0
ARC
  5
5238
330
5230
100
AcDbEntity
  8
Sichtbare Kanten(IBH-ISO)
370
    -2
100
AcDbCircle
 10
0.923970740651157
 20
-1.602248874115389
 30
0.0
 40
0.3000000000000003
100
AcDbArc
 50
229.8012253509022
 51
8.394185829275182
  0
ARC
  5
5239
330
5230
100
AcDbEntity
  8
Sichtbare Kanten(IBH-ISO)
370
    -2
100
AcDbCircle
 10
-0.0441912884334101
 20
-2.747963622837232
 30
0.0
 40
1.199999999999997
100
AcDbArc
 50
49.80122535090218
 51
128.394185829277
  0
ARC
  5
523A
330
5230
100
AcDbEntity
  8
Sichtbare Kanten(IBH-ISO)
370
    -2
100
AcDbCircle
 10
1.89976440508866
 20
0.0280353724022575
 30
0.0
 40
0.3000000000000001
100
AcDbArc
 50
289.8012253508999
 51
68.39418582927923
  0
ARC
  5
523B
330
5230
100
AcDbEntity
  8
Sichtbare Kanten(IBH-ISO)
370
    -2
100
AcDbCircle
 10
0.9757936644336382
 20
1.688239597915867
 30
0.0
 40
0.3000000000000003
100
AcDbArc
 50
349.801225350897
 51
128.394185829277
  0
ARC
  5
523C
330
5230
100
AcDbEntity
  8
Sichtbare Kanten(IBH-ISO)
370
    -2
100
AcDbCircle
 10
0.0441912884255658
 20
2.86387432563373
 30
0.0
 40
1.199999999999999
100
AcDbArc
 50
229.8012253508997
 51
308.394185829275
  0
ENDBLK
  5
523E
330
5230
100
AcDbEntity
  8
0
100
AcDbBlockEnd
  0
BLOCK
  5
53D1
330
53C6
100
AcDbEntity
  8
0
100
AcDbBlockBegin
  2
*D13
 70
     1
 10
0.0
 20
0.0
 30
0.0
  3
*D13
  1

  0
LINE
  5
569F
330
53C6
100
AcDbEntity
  8
Bemaßungen(IBH-ISO)
 62
     1
370
    25
100
AcDbLine
 10
414.7940138257244
 20
320.1984406139891
 30
0.0
 11
411.5875289538267
 21
320.1984406139891
 31
0.0
  0
LINE
  5
56A0
330
53C6
100
AcDbEntity
  8
Bemaßungen(IBH-ISO)
 62
     1
370
    25
100
AcDbLine
 10
416.6730138257245
 20
311.2984406139891
 30
0.0
 11
411.5875289538267
 21
311.2984406139891
 31
0.0
  0
LINE
  5
56A1
330
53C6
100
AcDbEntity
  8
Bemaßungen(IBH-ISO)
 62
     1
370
    25
100
AcDbLine
 10
412.5875289538267
 20
318.6984406139891
 30
0.0
 11
412.5875289538267
 21
312.7984406139891
 31
0.0
  0
INSERT
  5
56A2
330
53C6
100
AcDbEntity
  8
Bemaßungen(IBH-ISO)
 62
     1
370
    25
100
AcDbBlockReference
  2
Filled-2
 10
412.5875289538267
 20
320.1984406139891
 30
0.0
 41
1.5
 42
1.5
 43
1.5
 50
90.0
  0
INSERT
  5
56A3
330
53C6
100
AcDbEntity
  8
Bemaßungen(IBH-ISO)
 62
     1
370
    25
100
AcDbBlockReference
  2
Filled-2
 10
412.5875289538267
 20
311.2984406139891
 30
0.0
 41
1.5
 42
1.5
 43
1.5
 50
270.0
  0
MTEXT
  5
56A4
330
53C6
100
AcDbEntity
  8
Bemaßungen(IBH-ISO)
 62
     7
100
AcDbMText
 10
410.8875289538266
 20
315.7484406139892
 30
0.0
 40
2.5
 41
0.0
 71
     5
 72
     1
  1
\A1;8,9
  7
IBH-BEM
 11
0.0000000000000001
 21
1.0
 31
0.0
 73
     1
 44
1.0
  0
POINT
  5
56A5
330
53C6
100
AcDbEntity
  8
DEFPOINTS
 62
     0
100
AcDbPoint
 10
414.7940138257244
 20
320.1984406139891
 30
0.0
  0
POINT
  5
56A6
330
53C6
100
AcDbEntity
  8
DEFPOINTS
 62
     0
100
AcDbPoint
 10
416.6730138257245
 20
311.2984406139891
 30
0.0
  0
POINT
  5
56A7
330
53C6
100
AcDbEntity
  8
DEFPOINTS
 62
     0
100
AcDbPoint
 10
412.5875289538267
 20
311.2984406139891
 30
0.0
  0
ENDBLK
  5
53D2
330
53C6
100
AcDbEntity
  8
0
100
AcDbBlockEnd
  0
BLOCK
  5
55F3
330
55F2
100
AcDbEntity
  8
0
100
AcDbBlockBegin
  2
*D14
 70
     1
 10
0.0
 20
0.0
 30
0.0
  3
*D14
  1

  0
LINE
  5
5633
330
55F2
100
AcDbEntity
  8
Bemaßungen(IBH-ISO)
 62
     1
370
    25
100
AcDbLine
 10
375.8728270856267
 20
317.0984383911476
 30
0.0
 11
369.437741154761
 21
317.0984383911476
 31
0.0
  0
LINE
  5
5634
330
55F2
100
AcDbEntity
  8
Bemaßungen(IBH-ISO)
 62
     1
370
    25
100
AcDbLine
 10
375.227925426629
 20
311.2984383911476
 30
0.0
 11
369.437741154761
 21
311.2984383911476
 31
0.0
  0
LINE
  5
5635
330
55F2
100
AcDbEntity
  8
Bemaßungen(IBH-ISO)
 62
     1
370
    25
100
AcDbLine
 10
370.4377411547609
 20
315.5984383911476
 30
0.0
 11
370.4377411547609
 21
312.7984383911476
 31
0.0
  0
LINE
  5
5636
330
55F2
100
AcDbEntity
  8
Bemaßungen(IBH-ISO)
 62
     1
370
    25
100
AcDbLine
 10
370.4377411547609
 20
311.2984383911476
 30
0.0
 11
370.4377411547609
 21
305.6796885476098
 31
0.0
  0
INSERT
  5
5637
330
55F2
100
AcDbEntity
  8
Bemaßungen(IBH-ISO)
 62
     1
370
    25
100
AcDbBlockReference
  2
Filled-2
 10
370.4377411547609
 20
317.0984383911476
 30
0.0
 41
1.5
 42
1.5
 43
1.5
 50
90.0
  0
INSERT
  5
5638
330
55F2
100
AcDbEntity
  8
Bemaßungen(IBH-ISO)
 62
     1
370
    25
100
AcDbBlockReference
  2
Filled-2
 10
370.4377411547609
 20
311.2984383911476
 30
0.0
 41
1.5
 42
1.5
 43
1.5
 50
270.0
  0
MTEXT
  5
5639
330
55F2
100
AcDbEntity
  8
Bemaßungen(IBH-ISO)
 62
     7
100
AcDbMText
 10
368.7377411547609
 20
307.7390634693787
 30
0.0
 40
2.5
 41
0.0
 71
     5
 72
     1
  1
\A1;5,8
  7
IBH-BEM
 11
0.0000000000000001
 21
1.0
 31
0.0
 73
     1
 44
1.0
  0
POINT
  5
563A
330
55F2
100
AcDbEntity
  8
DEFPOINTS
 62
     0
100
AcDbPoint
 10
375.8728270856267
 20
317.0984383911476
 30
0.0
  0
POINT
  5
563B
330
55F2
100
AcDbEntity
  8
DEFPOINTS
 62
     0
100
AcDbPoint
 10
375.227925426629
 20
311.2984383911476
 30
0.0
  0
POINT
  5
563C
330
55F2
100
AcDbEntity
  8
DEFPOINTS
 62
     0
100
AcDbPoint
 10
370.4377411547609
 20
311.2984383911476
 30
0.0
  0
ENDBLK
  5
55F4
330
55F2
100
AcDbEntity
  8
0
100
AcDbBlockEnd
  0
BLOCK
  5
5600
330
55FF
100
AcDbEntity
  8
0
100
AcDbBlockBegin
  2
*D15
 70
     1
 10
0.0
 20
0.0
 30
0.0
  3
*D15
  1

  0
LINE
  5
563D
330
55FF
100
AcDbEntity
  8
Bemaßungen(IBH-ISO)
 62
     1
370
    25
100
AcDbLine
 10
375.8728270856267
 20
317.8484383911476
 30
0.0
 11
365.5778355006758
 21
317.8484383911476
 31
0.0
  0
LINE
  5
563E
330
55FF
100
AcDbEntity
  8
Bemaßungen(IBH-ISO)
 62
     1
370
    25
100
AcDbLine
 10
375.227925426629
 20
311.2984383911476
 30
0.0
 11
365.5778355006758
 21
311.2984383911476
 31
0.0
  0
LINE
  5
563F
330
55FF
100
AcDbEntity
  8
Bemaßungen(IBH-ISO)
 62
     1
370
    25
100
AcDbLine
 10
366.5778355006758
 20
316.3484383911476
 30
0.0
 11
366.5778355006758
 21
312.7984383911476
 31
0.0
  0
LINE
  5
5640
330
55FF
100
AcDbEntity
  8
Bemaßungen(IBH-ISO)
 62
     1
370
    25
100
AcDbLine
 10
366.5778355006758
 20
311.2984383911476
 30
0.0
 11
366.5778355006758
 21
304.1921886101946
 31
0.0
  0
INSERT
  5
5641
330
55FF
100
AcDbEntity
  8
Bemaßungen(IBH-ISO)
 62
     1
370
    25
100
AcDbBlockReference
  2
Filled-2
 10
366.5778355006758
 20
317.8484383911476
 30
0.0
 41
1.5
 42
1.5
 43
1.5
 50
90.0
  0
INSERT
  5
5642
330
55FF
100
AcDbEntity
  8
Bemaßungen(IBH-ISO)
 62
     1
370
    25
100
AcDbBlockReference
  2
Filled-2
 10
366.5778355006758
 20
311.2984383911476
 30
0.0
 41
1.5
 42
1.5
 43
1.5
 50
270.0
  0
MTEXT
  5
5643
330
55FF
100
AcDbEntity
  8
Bemaßungen(IBH-ISO)
 62
     7
100
AcDbMText
 10
364.8778355006758
 20
306.9953135006711
 30
0.0
 40
2.5
 41
0.0
 71
     5
 72
     1
  1
\A1;6,55
  7
IBH-BEM
 11
0.0000000000000001
 21
1.0
 31
0.0
 73
     1
 44
1.0
  0
POINT
  5
5644
330
55FF
100
AcDbEntity
  8
DEFPOINTS
 62
     0
100
AcDbPoint
 10
375.8728270856267
 20
317.8484383911476
 30
0.0
  0
POINT
  5
5645
330
55FF
100
AcDbEntity
  8
DEFPOINTS
 62
     0
100
AcDbPoint
 10
375.227925426629
 20
311.2984383911476
 30
0.0
  0
POINT
  5
5646
330
55FF
100
AcDbEntity
  8
DEFPOINTS
 62
     0
100
AcDbPoint
 10
366.5778355006758
 20
311.2984383911476
 30
0.0
  0
ENDBLK
  5
5601
330
55FF
100
AcDbEntity
  8
0
100
AcDbBlockEnd
  0
BLOCK
  5
560D
330
560C
100
AcDbEntity
  8
0
100
AcDbBlockBegin
  2
*D16
 70
     1
 10
0.0
 20
0.0
 30
0.0
  3
*D16
  1

  0
LINE
  5
5647
330
560C
100
AcDbEntity
  8
Bemaßungen(IBH-ISO)
 62
     1
370
    25
100
AcDbLine
 10
375.8728270856267
 20
318.5984383911476
 30
0.0
 11
361.9299179822671
 21
318.5984383911476
 31
0.0
  0
LINE
  5
5648
330
560C
100
AcDbEntity
  8
Bemaßungen(IBH-ISO)
 62
     1
370
    25
100
AcDbLine
 10
375.227925426629
 20
311.2984383911476
 30
0.0
 11
361.9299179822671
 21
311.2984383911476
 31
0.0
  0
LINE
  5
5649
330
560C
100
AcDbEntity
  8
Bemaßungen(IBH-ISO)
 62
     1
370
    25
100
AcDbLine
 10
362.9299179822671
 20
317.0984383911476
 30
0.0
 11
362.9299179822671
 21
312.7984383911476
 31
0.0
  0
LINE
  5
564A
330
560C
100
AcDbEntity
  8
Bemaßungen(IBH-ISO)
 62
     1
370
    25
100
AcDbLine
 10
362.9299179822671
 20
311.2984383911476
 30
0.0
 11
362.9299179822671
 21
305.6796885476098
 31
0.0
  0
INSERT
  5
564B
330
560C
100
AcDbEntity
  8
Bemaßungen(IBH-ISO)
 62
     1
370
    25
100
AcDbBlockReference
  2
Filled-2
 10
362.9299179822671
 20
318.5984383911476
 30
0.0
 41
1.5
 42
1.5
 43
1.5
 50
90.0
  0
INSERT
  5
564C
330
560C
100
AcDbEntity
  8
Bemaßungen(IBH-ISO)
 62
     1
370
    25
100
AcDbBlockReference
  2
Filled-2
 10
362.9299179822671
 20
311.2984383911476
 30
0.0
 41
1.5
 42
1.5
 43
1.5
 50
270.0
  0
MTEXT
  5
564D
330
560C
100
AcDbEntity
  8
Bemaßungen(IBH-ISO)
 62
     7
100
AcDbMText
 10
361.2299179822671
 20
307.7390634693787
 30
0.0
 40
2.5
 41
0.0
 71
     5
 72
     1
  1
\A1;7,3
  7
IBH-BEM
 11
0.0000000000000001
 21
1.0
 31
0.0
 73
     1
 44
1.0
  0
POINT
  5
564E
330
560C
100
AcDbEntity
  8
DEFPOINTS
 62
     0
100
AcDbPoint
 10
375.8728270856267
 20
318.5984383911476
 30
0.0
  0
POINT
  5
564F
330
560C
100
AcDbEntity
  8
DEFPOINTS
 62
     0
100
AcDbPoint
 10
375.227925426629
 20
311.2984383911476
 30
0.0
  0
POINT
  5
5650
330
560C
100
AcDbEntity
  8
DEFPOINTS
 62
     0
100
AcDbPoint
 10
362.9299179822671
 20
311.2984383911476
 30
0.0
  0
ENDBLK
  5
560E
330
560C
100
AcDbEntity
  8
0
100
AcDbBlockEnd
  0
BLOCK
  5
561A
330
5619
100
AcDbEntity
  8
0
100
AcDbBlockBegin
  2
*D17
 70
     1
 10
0.0
 20
0.0
 30
0.0
  3
*D17
  1

  0
LINE
  5
5651
330
5619
100
AcDbEntity
  8
Bemaßungen(IBH-ISO)
 62
     1
370
    25
100
AcDbLine
 10
375.8728270856267
 20
319.3484383911476
 30
0.0
 11
358.3892916379872
 21
319.3484383911476
 31
0.0
  0
LINE
  5
5652
330
5619
100
AcDbEntity
  8
Bemaßungen(IBH-ISO)
 62
     1
370
    25
100
AcDbLine
 10
375.227925426629
 20
311.2984383911476
 30
0.0
 11
358.3892916379872
 21
311.2984383911476
 31
0.0
  0
LINE
  5
5653
330
5619
100
AcDbEntity
  8
Bemaßungen(IBH-ISO)
 62
     1
370
    25
100
AcDbLine
 10
359.3892916379872
 20
317.8484383911476
 30
0.0
 11
359.3892916379872
 21
312.7984383911476
 31
0.0
  0
LINE
  5
5654
330
5619
100
AcDbEntity
  8
Bemaßungen(IBH-ISO)
 62
     1
370
    25
100
AcDbLine
 10
359.3892916379872
 20
311.2984383911476
 30
0.0
 11
359.3892916379872
 21
304.1921886101946
 31
0.0
  0
INSERT
  5
5655
330
5619
100
AcDbEntity
  8
Bemaßungen(IBH-ISO)
 62
     1
370
    25
100
AcDbBlockReference
  2
Filled-2
 10
359.3892916379872
 20
319.3484383911476
 30
0.0
 41
1.5
 42
1.5
 43
1.5
 50
90.0
  0
INSERT
  5
5656
330
5619
100
AcDbEntity
  8
Bemaßungen(IBH-ISO)
 62
     1
370
    25
100
AcDbBlockReference
  2
Filled-2
 10
359.3892916379872
 20
311.2984383911476
 30
0.0
 41
1.5
 42
1.5
 43
1.5
 50
270.0
  0
MTEXT
  5
5657
330
5619
100
AcDbEntity
  8
Bemaßungen(IBH-ISO)
 62
     7
100
AcDbMText
 10
357.6892916379872
 20
306.9953135006711
 30
0.0
 40
2.5
 41
0.0
 71
     5
 72
     1
  1
\A1;8,05
  7
IBH-BEM
 11
0.0000000000000001
 21
1.0
 31
0.0
 73
     1
 44
1.0
  0
POINT
  5
5658
330
5619
100
AcDbEntity
  8
DEFPOINTS
 62
     0
100
AcDbPoint
 10
375.8728270856267
 20
319.3484383911476
 30
0.0
  0
POINT
  5
5659
330
5619
100
AcDbEntity
  8
DEFPOINTS
 62
     0
100
AcDbPoint
 10
375.227925426629
 20
311.2984383911476
 30
0.0
  0
POINT
  5
565A
330
5619
100
AcDbEntity
  8
DEFPOINTS
 62
     0
100
AcDbPoint
 10
359.3892916379872
 20
311.2984383911476
 30
0.0
  0
ENDBLK
  5
561B
330
5619
100
AcDbEntity
  8
0
100
AcDbBlockEnd
  0
BLOCK
  5
5627
330
5626
100
AcDbEntity
  8
0
100
AcDbBlockBegin
  2
*D18
 70
     1
 10
0.0
 20
0.0
 30
0.0
  3
*D18
  1

  0
LINE
  5
565B
330
5626
100
AcDbEntity
  8
Bemaßungen(IBH-ISO)
 62
     1
370
    25
100
AcDbLine
 10
375.8728270856267
 20
320.0984383911476
 30
0.0
 11
354.5804369584301
 21
320.0984383911476
 31
0.0
  0
LINE
  5
565C
330
5626
100
AcDbEntity
  8
Bemaßungen(IBH-ISO)
 62
     1
370
    25
100
AcDbLine
 10
375.227925426629
 20
311.2984383911476
 30
0.0
 11
354.5804369584301
 21
311.2984383911476
 31
0.0
  0
LINE
  5
565D
330
5626
100
AcDbEntity
  8
Bemaßungen(IBH-ISO)
 62
     1
370
    25
100
AcDbLine
 10
355.5804369584301
 20
318.5984383911476
 30
0.0
 11
355.5804369584301
 21
312.7984383911476
 31
0.0
  0
LINE
  5
565E
330
5626
100
AcDbEntity
  8
Bemaßungen(IBH-ISO)
 62
     1
370
    25
100
AcDbLine
 10
355.5804369584301
 20
311.2984383911476
 30
0.0
 11
355.5804369584301
 21
305.6796885476098
 31
0.0
  0
INSERT
  5
565F
330
5626
100
AcDbEntity
  8
Bemaßungen(IBH-ISO)
 62
     1
370
    25
100
AcDbBlockReference
  2
Filled-2
 10
355.5804369584301
 20
320.0984383911476
 30
0.0
 41
1.5
 42
1.5
 43
1.5
 50
90.0
  0
INSERT
  5
5660
330
5626
100
AcDbEntity
  8
Bemaßungen(IBH-ISO)
 62
     1
370
    25
100
AcDbBlockReference
  2
Filled-2
 10
355.5804369584301
 20
311.2984383911476
 30
0.0
 41
1.5
 42
1.5
 43
1.5
 50
270.0
  0
MTEXT
  5
5661
330
5626
100
AcDbEntity
  8
Bemaßungen(IBH-ISO)
 62
     7
100
AcDbMText
 10
353.88043695843
 20
307.7390634693787
 30
0.0
 40
2.5
 41
0.0
 71
     5
 72
     1
  1
\A1;8,8
  7
IBH-BEM
 11
0.0000000000000001
 21
1.0
 31
0.0
 73
     1
 44
1.0
  0
POINT
  5
5662
330
5626
100
AcDbEntity
  8
DEFPOINTS
 62
     0
100
AcDbPoint
 10
375.8728270856267
 20
320.0984383911476
 30
0.0
  0
POINT
  5
5663
330
5626
100
AcDbEntity
  8
DEFPOINTS
 62
     0
100
AcDbPoint
 10
375.227925426629
 20
311.2984383911476
 30
0.0
  0
POINT
  5
5664
330
5626
100
AcDbEntity
  8
DEFPOINTS
 62
     0
100
AcDbPoint
 10
355.5804369584301
 20
311.2984383911476
 30
0.0
  0
ENDBLK
  5
5628
330
5626
100
AcDbEntity
  8
0
100
AcDbBlockEnd
  0
BLOCK
  5
56BE
330
56BD
100
AcDbEntity
  8
0
100
AcDbBlockBegin
  2
*D19
 70
     1
 10
0.0
 20
0.0
 30
0.0
  3
*D19
  1

  0
LINE
  5
56CA
330
56BD
100
AcDbEntity
  8
Sichtbare Kanten(IBH-ISO)
 62
     1
370
    25
100
AcDbLine
 10
416.6730138257245
 20
311.2984406139891
 30
0.0
 11
416.6730138257245
 21
292.8576720098897
 31
0.0
  0
LINE
  5
56CB
330
56BD
100
AcDbEntity
  8
Sichtbare Kanten(IBH-ISO)
 62
     1
370
    25
100
AcDbLine
 10
419.9150138257245
 20
311.2984406139891
 30
0.0
 11
419.9150138257245
 21
292.8576720098897
 31
0.0
  0
LINE
  5
56CC
330
56BD
100
AcDbEntity
  8
Sichtbare Kanten(IBH-ISO)
 62
     1
370
    25
100
AcDbLine
 10
415.1730138257245
 20
293.8576720098897
 30
0.0
 11
413.6730138257245
 21
293.8576720098897
 31
0.0
  0
LINE
  5
56CD
330
56BD
100
AcDbEntity
  8
Sichtbare Kanten(IBH-ISO)
 62
     1
370
    25
100
AcDbLine
 10
421.4150138257244
 20
293.8576720098897
 30
0.0
 11
426.9275136737326
 21
293.8576720098897
 31
0.0
  0
INSERT
  5
56CE
330
56BD
100
AcDbEntity
  8
Sichtbare Kanten(IBH-ISO)
 62
     1
370
    25
100
AcDbBlockReference
  2
Filled-2
 10
416.6730138257245
 20
293.8576720098897
 30
0.0
 41
1.5
 42
1.5
 43
1.5
  0
INSERT
  5
56CF
330
56BD
100
AcDbEntity
  8
Sichtbare Kanten(IBH-ISO)
 62
     1
370
    25
100
AcDbBlockReference
  2
Filled-2
 10
419.9150138257245
 20
293.8576720098897
 30
0.0
 41
1.5
 42
1.5
 43
1.5
 50
180.0
  0
MTEXT
  5
56D0
330
56BD
100
AcDbEntity
  8
Sichtbare Kanten(IBH-ISO)
 62
     7
100
AcDbMText
 10
424.9212637497285
 20
295.3076720098897
 30
0.0
 40
2.5
 41
0.0
 71
     5
 72
     1
  1
\A1;M4
  7
IBH-BEM
 73
     1
 44
1.0
  0
POINT
  5
56D1
330
56BD
100
AcDbEntity
  8
DEFPOINTS
 62
     0
100
AcDbPoint
 10
416.6730138257245
 20
311.2984406139891
 30
0.0
  0
POINT
  5
56D2
330
56BD
100
AcDbEntity
  8
DEFPOINTS
 62
     0
100
AcDbPoint
 10
419.9150138257245
 20
311.2984406139891
 30
0.0
  0
POINT
  5
56D3
330
56BD
100
AcDbEntity
  8
DEFPOINTS
 62
     0
100
AcDbPoint
 10
419.9150138257245
 20
293.8576720098897
 30
0.0
  0
ENDBLK
  5
56BF
330
56BD
100
AcDbEntity
  8
0
100
AcDbBlockEnd
  0
BLOCK
  5
5784
330
577C
100
AcDbEntity
  8
0
100
AcDbBlockBegin
  2
A$C28A40D98
 70
     0
 10
0.0
 20
0.0
 30
0.0
  3
A$C28A40D98
  1

  0
ARC
  5
577D
330
577C
100
AcDbEntity
  8
0
100
AcDbCircle
 10
-8.002057008200836
 20
0.464815327532449
 30
0.0
 40
0.5
100
AcDbArc
 50
99.99999999999861
 51
270.0
  0
LINE
  5
577E
330
577C
100
AcDbEntity
  8
0
100
AcDbLine
 10
-2.342654919008509
 20
-0.0351846724676079
 30
0.0
 11
-8.002057008200836
 21
-0.0351846724675511
 31
0.0
  0
LINE
  5
577F
330
577C
100
AcDbEntity
  8
0
100
AcDbLine
 10
-8.088881097034288
 20
0.9572192040385516
 30
0.0
 11
-2.347296355333867
 21
1.96961550602441
 31
0.0
  0
ARC
  5
5780
330
577C
100
AcDbEntity
  8
0
100
AcDbCircle
 10
-2.0
 20
0.0
 30
0.0
 40
2.0
100
AcDbArc
 50
0.0
 51
100.0000000000018
  0
ARC
  5
5781
330
577C
100
AcDbEntity
  8
0
100
AcDbCircle
 10
-2.342654919008509
 20
-0.3351846724676193
 30
0.0
 40
0.3
100
AcDbArc
 50
352.4053566314096
 51
90.0
  0
ENDBLK
  5
5785
330
577C
100
AcDbEntity
  8
0
100
AcDbBlockEnd
  0
BLOCK
  5
578F
330
5787
100
AcDbEntity
  8
0
100
AcDbBlockBegin
  2
A$C4F5C5639
 70
     0
 10
0.0
 20
0.0
 30
0.0
  3
A$C4F5C5639
  1

  0
ARC
  5
5788
330
5787
100
AcDbEntity
  8
0
100
AcDbCircle
 10
-8.002057008200836
 20
0.464815327532449
 30
0.0
 40
0.5
100
AcDbArc
 50
99.99999999999861
 51
270.0
  0
LINE
  5
5789
330
5787
100
AcDbEntity
  8
0
100
AcDbLine
 10
-2.342654919008509
 20
-0.0351846724676079
 30
0.0
 11
-8.002057008200836
 21
-0.0351846724675511
 31
0.0
  0
LINE
  5
578A
330
5787
100
AcDbEntity
  8
0
100
AcDbLine
 10
-8.088881097034288
 20
0.9572192040385516
 30
0.0
 11
-2.347296355333867
 21
1.96961550602441
 31
0.0
  0
ARC
  5
578B
330
5787
100
AcDbEntity
  8
0
100
AcDbCircle
 10
-2.0
 20
0.0
 30
0.0
 40
2.0
100
AcDbArc
 50
0.0
 51
100.0000000000018
  0
ARC
  5
578C
330
5787
100
AcDbEntity
  8
0
100
AcDbCircle
 10
-2.342654919008509
 20
-0.3351846724676193
 30
0.0
 40
0.3
100
AcDbArc
 50
352.4053566314096
 51
90.0
  0
ENDBLK
  5
5790
330
5787
100
AcDbEntity
  8
0
100
AcDbBlockEnd
  0
BLOCK
  5
579A
330
5792
100
AcDbEntity
  8
0
100
AcDbBlockBegin
  2
A$C5D5D4110
 70
     0
 10
0.0
 20
0.0
 30
0.0
  3
A$C5D5D4110
  1

  0
ARC
  5
5793
330
5792
100
AcDbEntity
  8
0
100
AcDbCircle
 10
-8.002057008200836
 20
0.464815327532449
 30
0.0
 40
0.5
100
AcDbArc
 50
99.99999999999861
 51
270.0
  0
LINE
  5
5794
330
5792
100
AcDbEntity
  8
0
100
AcDbLine
 10
-2.342654919008509
 20
-0.0351846724676079
 30
0.0
 11
-8.002057008200836
 21
-0.0351846724675511
 31
0.0
  0
LINE
  5
5795
330
5792
100
AcDbEntity
  8
0
100
AcDbLine
 10
-8.088881097034288
 20
0.9572192040385516
 30
0.0
 11
-2.347296355333867
 21
1.96961550602441
 31
0.0
  0
ARC
  5
5796
330
5792
100
AcDbEntity
  8
0
100
AcDbCircle
 10
-2.0
 20
0.0
 30
0.0
 40
2.0
100
AcDbArc
 50
0.0
 51
100.0000000000018
  0
ARC
  5
5797
330
5792
100
AcDbEntity
  8
0
100
AcDbCircle
 10
-2.342654919008509
 20
-0.3351846724676193
 30
0.0
 40
0.3
100
AcDbArc
 50
352.4053566314096
 51
90.0
  0
ENDBLK
  5
579B
330
5792
100
AcDbEntity
  8
0
100
AcDbBlockEnd
  0
BLOCK
  5
57A5
330
579D
100
AcDbEntity
  8
0
100
AcDbBlockBegin
  2
A$C7AB63612
 70
     0
 10
0.0
 20
0.0
 30
0.0
  3
A$C7AB63612
  1

  0
ARC
  5
579E
330
579D
100
AcDbEntity
  8
0
100
AcDbCircle
 10
-8.002057008200836
 20
0.464815327532449
 30
0.0
 40
0.5
100
AcDbArc
 50
99.99999999999861
 51
270.0
  0
LINE
  5
579F
330
579D
100
AcDbEntity
  8
0
100
AcDbLine
 10
-2.342654919008509
 20
-0.0351846724676079
 30
0.0
 11
-8.002057008200836
 21
-0.0351846724675511
 31
0.0
  0
LINE
  5
57A0
330
579D
100
AcDbEntity
  8
0
100
AcDbLine
 10
-8.088881097034288
 20
0.9572192040385516
 30
0.0
 11
-2.347296355333867
 21
1.96961550602441
 31
0.0
  0
ARC
  5
57A1
330
579D
100
AcDbEntity
  8
0
100
AcDbCircle
 10
-2.0
 20
0.0
 30
0.0
 40
2.0
100
AcDbArc
 50
0.0
 51
100.0000000000018
  0
ARC
  5
57A2
330
579D
100
AcDbEntity
  8
0
100
AcDbCircle
 10
-2.342654919008509
 20
-0.3351846724676193
 30
0.0
 40
0.3
100
AcDbArc
 50
352.4053566314096
 51
90.0
  0
ENDBLK
  5
57A6
330
579D
100
AcDbEntity
  8
0
100
AcDbBlockEnd
  0
ENDSEC
  0
SECTION
  2
ENTITIES
  0
LINE
  5
DE6
330
1F
100
AcDbEntity
  8
1
100
AcDbLine
 10
382.9220942939868
 20
313.1984383911478
 30
0.0
 11
382.9220942939868
 21
309.1984383911478
 31
0.0
  0
LINE
  5
DE7
330
1F
100
AcDbEntity
  8
1
100
AcDbLine
 10
383.9216921149247
 20
309.4984383911476
 30
0.0
 11
385.6216921149252
 21
311.1984383911474
 31
0.0
  0
LINE
  5
DEB
330
1F
100
AcDbEntity
  8
0
100
AcDbLine
 10
375.8728270856269
 20
319.1984406139895
 30
0.0
 11
375.8728270856267
 21
304.3984406139887
 31
0.0
  0
LINE
  5
DEC
330
1F
100
AcDbEntity
  8
0
100
AcDbLine
 10
375.8728270856268
 20
304.3984406139886
 30
0.0
 11
375.8728270856269
 21
319.6984406139893
 31
0.0
  0
LINE
  5
DEE
330
1F
100
AcDbEntity
  8
1
100
AcDbLine
 10
383.9216921149251
 20
309.4984383911478
 30
0.0
 11
375.8728270856269
 21
309.4984383911476
 31
0.0
  0
LINE
  5
DEF
330
1F
100
AcDbEntity
  8
1
100
AcDbLine
 10
376.2668278934333
 20
309.1984383911476
 30
0.0
 11
375.8728270856269
 21
308.8044375833412
 31
0.0
  0
LINE
  5
DF0
330
1F
100
AcDbEntity
  8
1
100
AcDbLine
 10
382.922094293987
 20
309.1984383911478
 30
0.0
 11
376.2668278934333
 21
309.1984383911476
 31
0.0
  0
LINE
  5
DF5
330
1F
100
AcDbEntity
  8
1
100
AcDbLine
 10
383.9216921149249
 20
312.8984383911479
 30
0.0
 11
375.8728270856269
 21
312.8984383911479
 31
0.0
  0
LINE
  5
DF6
330
1F
100
AcDbEntity
  8
1
100
AcDbLine
 10
383.9216921149247
 20
312.8984383911479
 30
0.0
 11
385.6216921149252
 21
311.1984383911474
 31
0.0
  0
LINE
  5
DF7
330
1F
100
AcDbEntity
  8
1
100
AcDbLine
 10
376.2668278934333
 20
313.1984383911478
 30
0.0
 11
375.8728270856269
 21
313.5924391989542
 31
0.0
  0
LINE
  5
DF8
330
1F
100
AcDbEntity
  8
1
100
AcDbLine
 10
382.922094293987
 20
313.1984383911478
 30
0.0
 11
376.2668278934333
 21
313.1984383911478
 31
0.0
  0
LINE
  5
E39
330
1F
100
AcDbEntity
  8
0
100
AcDbLine
 10
401.3728270856269
 20
304.3984406139887
 30
0.0
 11
401.3728270856269
 21
319.698440613989
 31
0.0
  0
LINE
  5
E3A
330
1F
100
AcDbEntity
  8
0
100
AcDbLine
 10
401.3728270856269
 20
304.3984406139887
 30
0.0
 11
401.3728270856269
 21
319.698440613989
 31
0.0
  0
LINE
  5
1156
330
1F
100
AcDbEntity
  8
0
100
AcDbLine
 10
401.3728270856269
 20
319.698440613989
 30
0.0
 11
375.872827085627
 21
319.6984406139892
 31
0.0
  0
LINE
  5
141A
330
1F
100
AcDbEntity
  8
0
100
AcDbLine
 10
385.872827085627
 20
304.698440613989
 30
0.0
 11
385.8728270856269
 21
319.698440613989
 31
0.0
  0
LINE
  5
141B
330
1F
100
AcDbEntity
  8
0
100
AcDbLine
 10
385.8728270856269
 20
304.698440613989
 30
0.0
 11
401.3728270856269
 21
304.698440613989
 31
0.0
  0
CIRCLE
  5
142F
330
1F
100
AcDbEntity
  8
0
370
    -2
100
AcDbCircle
 10
390.6556345188716
 20
316.0082489620491
 30
0.0
 40
2.43
  0
CIRCLE
  5
1430
330
1F
100
AcDbEntity
  8
0
370
    -2
100
AcDbCircle
 10
396.9556345188715
 20
316.0082489620491
 30
0.0
 40
2.43
  0
CIRCLE
  5
1432
330
1F
100
AcDbEntity
  8
0
370
    -2
100
AcDbCircle
 10
396.9556345188715
 20
307.9082489620491
 30
0.0
 40
2.43
  0
CIRCLE
  5
1434
330
1F
100
AcDbEntity
  8
0
370
    -2
100
AcDbCircle
 10
390.6556345188716
 20
307.9082489620491
 30
0.0
 40
2.43
  0
LINE
  5
1435
330
1F
100
AcDbEntity
  8
0
370
    30
100
AcDbLine
 10
388.9056940358916
 20
309.5942526115197
 30
0.0
 11
392.4055750018513
 21
306.2222453125786
 31
0.0
  0
LINE
  5
1436
330
1F
100
AcDbEntity
  8
0
370
    30
100
AcDbLine
 10
395.2056940358915
 20
309.5942526115197
 30
0.0
 11
398.7055750018512
 21
306.2222453125786
 31
0.0
  0
LINE
  5
1438
330
1F
100
AcDbEntity
  8
0
370
    30
100
AcDbLine
 10
388.9056940358916
 20
317.6942526115198
 30
0.0
 11
392.4055750018513
 21
314.3222453125785
 31
0.0
  0
LINE
  5
1439
330
1F
100
AcDbEntity
  8
0
370
    30
100
AcDbLine
 10
395.2056940358915
 20
317.6942526115198
 30
0.0
 11
398.7055750018512
 21
314.3222453125785
 31
0.0
  0
LINE
  5
14D0
330
1F
100
AcDbEntity
  8
0
 62
     1
100
AcDbLine
 10
486.9524756514997
 20
132.7593580816346
 30
0.0
 11
486.9524756514997
 21
158.5617721360021
 31
0.0
  0
LINE
  5
14D1
330
1F
100
AcDbEntity
  8
0
 62
     1
100
AcDbLine
 10
468.7496363705478
 20
158.5617721360021
 30
0.0
 11
468.7496363705479
 21
132.7593580816346
 31
0.0
  0
LINE
  5
14D2
330
1F
100
AcDbEntity
  8
0
 62
     1
100
AcDbLine
 10
449.5036218995001
 20
158.5617721360021
 30
0.0
 11
449.5036218995001
 21
132.7593580816346
 31
0.0
  0
ARC
  5
14D3
330
1F
100
AcDbEntity
  8
0
 62
     1
100
AcDbCircle
 10
474.66120562478
 20
141.8409874885038
 30
0.0
 40
1.7793776
100
AcDbArc
 50
36.86989764584663
 51
323.1301023541534
  0
LINE
  5
14D4
330
1F
100
AcDbEntity
  8
0
 62
     1
100
AcDbLine
 10
476.0847077047804
 20
142.9086140485038
 30
0.0
 11
477.68614754478
 21
140.7733609285038
 31
0.0
  0
LINE
  5
14D5
330
1F
100
AcDbEntity
  8
0
 62
     1
100
AcDbLine
 10
477.68614754478
 20
142.9086140485038
 30
0.0
 11
476.0847077047804
 21
140.7733609285038
 31
0.0
  0
ARC
  5
14D6
330
1F
100
AcDbEntity
  8
0
 62
     1
100
AcDbCircle
 10
479.1096496247798
 20
141.8409874885038
 30
0.0
 40
1.7793776
100
AcDbArc
 50
216.8698976458447
 51
143.1301023541533
  0
LINE
  5
14D7
330
1F
100
AcDbEntity
  8
0
 62
     1
100
AcDbLine
 10
423.1581704892071
 20
158.5617721360021
 30
0.0
 11
423.1581704892071
 21
132.7593580816346
 31
0.0
  0
LINE
  5
14D8
330
1F
100
AcDbEntity
  8
0
 62
     1
100
AcDbLine
 10
486.9524756514993
 20
180.1302091476605
 30
0.0
 11
486.9524756514993
 21
205.932623202028
 31
0.0
  0
LINE
  5
14D9
330
1F
100
AcDbEntity
  8
0
 62
     1
100
AcDbLine
 10
477.68614754478
 20
190.2794651145297
 30
0.0
 11
476.08470770478
 21
188.1442119945297
 31
0.0
  0
LINE
  5
14DA
330
1F
100
AcDbEntity
  8
0
 62
     1
100
AcDbLine
 10
476.08470770478
 20
190.2794651145297
 30
0.0
 11
477.68614754478
 21
188.1442119945297
 31
0.0
  0
LINE
  5
14DB
330
1F
100
AcDbEntity
  8
0
 62
     1
100
AcDbLine
 10
468.7496363705476
 20
205.932623202028
 30
0.0
 11
468.7496363705476
 21
180.1302091476605
 31
0.0
  0
ARC
  5
14DC
330
1F
100
AcDbEntity
  8
0
 62
     1
100
AcDbCircle
 10
479.1096496247797
 20
189.2118385545297
 30
0.0
 40
1.7793776
100
AcDbArc
 50
216.8698976458447
 51
143.1301023541533
  0
ARC
  5
14DD
330
1F
100
AcDbEntity
  8
0
 62
     1
100
AcDbCircle
 10
474.6612056247799
 20
189.2118385545297
 30
0.0
 40
1.7793776
100
AcDbArc
 50
36.86989764584663
 51
323.1301023541534
  0
MTEXT
  5
14DE
330
1F
100
AcDbEntity
  8
0
 62
     1
100
AcDbMText
 10
424.5271900985353
 20
143.1436091305135
 30
0.0
 40
3.17746
 41
41.71051742
 71
     1
 72
     5
  1
20,4-27,6  0,1
 73
     1
 44
1.0
  0
LINE
  5
14DF
330
1F
100
AcDbEntity
  8
0
 62
     1
100
AcDbLine
 10
449.5036218994997
 20
205.932623202028
 30
0.0
 11
449.5036218994997
 21
180.1302091476605
 31
0.0
  0
LINE
  5
14E0
330
1F
100
AcDbEntity
  8
0
 62
     1
100
AcDbLine
 10
423.1581704892071
 20
205.932623202028
 30
0.0
 11
423.1581704892071
 21
180.1302091476605
 31
0.0
  0
MTEXT
  5
14E1
330
1F
100
AcDbEntity
  8
0
 62
     1
100
AcDbMText
 10
424.527190098535
 20
190.5144601965394
 30
0.0
 40
3.17746
 41
41.71051742
 71
     1
 72
     5
  1
10,2-13,8  0,2
 73
     1
 44
1.0
  0
MTEXT
  5
14E2
330
1F
100
AcDbEntity
  8
0
 62
     1
100
AcDbMText
 10
471.024045517495
 20
184.7551155426708
 30
0.0
 40
3.17746
 41
16.0338603425
 71
     1
 72
     5
  1
<1Min.
 73
     1
 44
1.0
  0
LINE
  5
14E3
330
1F
100
AcDbEntity
  8
0
 62
     1
100
AcDbLine
 10
423.1581704892071
 20
180.1302091476602
 30
0.0
 11
486.9524756514993
 21
180.1302091476602
 31
0.0
  0
MTEXT
  5
14EF
330
1F
100
AcDbEntity
  8
0
 62
     1
100
AcDbMText
 10
426.4636278380563
 20
184.7425776073862
 30
0.0
 40
3.17746
 41
41.93181759767599
 71
     1
 72
     5
  1
12-24   0,2-0,4
 73
     1
 44
1.0
  0
LINE
  5
1500
330
1F
100
AcDbEntity
  8
0
 62
     1
100
AcDbLine
 10
423.1581704892071
 20
132.7593580816343
 30
0.0
 11
486.9524756514997
 21
132.7593580816343
 31
0.0
  0
MTEXT
  5
1509
330
1F
100
AcDbEntity
  8
0
 62
     1
100
AcDbMText
 10
428.7775956961048
 20
137.3717265413599
 30
0.0
 40
3.17746
 41
42.40044944832046
 71
     1
 72
     5
  1
24-48  0,1-0,2
 73
     1
 44
1.0
  0
MTEXT
  5
151B
330
1F
100
AcDbEntity
  8
0
 62
     1
100
AcDbMText
 10
471.0240455174953
 20
137.3842644766449
 30
0.0
 40
3.17746
 41
16.0338603425
 71
     1
 72
     5
  1
<1Min.
 73
     1
 44
1.0
  0
HATCH
  5
151C
330
1F
100
AcDbEntity
  8
0
 62
     1
100
AcDbHatch
 10
0.0
 20
0.0
 30
0.0
210
0.0
220
0.0
230
1.0
  2
SOLID
 70
     1
 71
     1
 91
        1
 92
        1
 93
        5
 72
     1
 10
476.3506665391878
 20
199.5857047440403
 11
478.5779802892969
 21
199.5857047440403
 72
     1
 10
478.5779802892969
 20
199.5857047440403
 11
479.1411700235713
 21
199.3807204445203
 72
     1
 10
479.1411700235713
 20
199.3807204445203
 11
478.5779802892969
 21
199.1757361450004
 72
     1
 10
478.5779802892969
 20
199.1757361450002
 11
476.3506665391878
 21
199.1757361450002
 72
     2
 10
476.3506665391878
 20
199.3807204445203
 40
0.2049842995200078
 50
90.0
 51
270.0
 73
     0
 97
        5
330
1525
330
151D
330
151E
330
1524
330
1529
 75
     0
 76
     1
 98
        1
 10
148.6007490327249
 20
10.33596247410862
450
        0
451
        0
460
0.0
461
0.0
452
        0
462
0.0
453
        0
470

  0
LINE
  5
151D
102
{ACAD_REACTORS
330
151C
102
}
330
1F
100
AcDbEntity
  8
0
 62
     1
100
AcDbLine
 10
479.1411700235713
 20
199.3807204445203
 30
0.0
 11
478.5779802892969
 21
199.5857047440403
 31
0.0
  0
LINE
  5
151E
102
{ACAD_REACTORS
330
151C
102
}
330
1F
100
AcDbEntity
  8
0
 62
     1
100
AcDbLine
 10
478.5779802892969
 20
199.1757361450004
 30
0.0
 11
479.1411700235713
 21
199.3807204445203
 31
0.0
  0
CIRCLE
  5
151F
330
1F
100
AcDbEntity
  8
0
 62
     1
100
AcDbCircle
 10
476.3506665391878
 20
199.3807204445203
 30
0.0
 40
3.416404992000001
  0
LINE
  5
1520
330
1F
100
AcDbEntity
  8
0
 62
     1
100
AcDbLine
 10
423.1581704892071
 20
205.9326232020282
 30
0.0
 11
486.9524756514993
 21
205.9326232020282
 31
0.0
  0
LINE
  5
1521
330
1F
100
AcDbEntity
  8
0
 62
     1
100
AcDbLine
 10
423.1581704892071
 20
192.3248953793129
 30
0.0
 11
486.9524756514993
 21
192.3248953793129
 31
0.0
  0
MTEXT
  5
1522
330
1F
100
AcDbEntity
  8
0
 62
     1
100
AcDbMText
 10
428.8182251432766
 20
204.3434597580884
 30
0.0
 40
3.17746
 41
42.2010378075
 71
     1
 72
     5
  1
Volt    Amp.
 73
     1
 44
1.0
  0
MTEXT
  5
1523
330
1F
100
AcDbEntity
  8
0
 62
     1
100
AcDbMText
 10
427.3510066820121
 20
198.1150169832271
 30
0.0
 40
3.17746
 41
23.60455597500001
 71
     1
 72
     5
  1
AC/DC
 73
     1
 44
1.0
  0
LINE
  5
1524
102
{ACAD_REACTORS
330
151C
102
}
330
1F
100
AcDbEntity
  8
0
 62
     1
100
AcDbLine
 10
476.3506665391878
 20
199.1757361450002
 30
0.0
 11
478.5779802892969
 21
199.1757361450002
 31
0.0
  0
LINE
  5
1525
102
{ACAD_REACTORS
330
151C
102
}
330
1F
100
AcDbEntity
  8
0
 62
     1
100
AcDbLine
 10
476.3506665391878
 20
199.5857047440403
 30
0.0
 11
478.5779802892969
 21
199.5857047440403
 31
0.0
  0
HATCH
  5
1526
330
1F
100
AcDbEntity
  8
0
 62
     1
100
AcDbHatch
 10
0.0
 20
0.0
 30
0.0
210
0.0
220
0.0
230
1.0
  2
SOLID
 70
     1
 71
     1
 91
        1
 92
        1
 93
        5
 72
     1
 10
476.4873227388679
 20
199.3807204445203
 11
476.4873227388681
 21
202.0221096157368
 72
     1
 10
476.4873227388681
 20
202.022109615737
 11
476.3506665391878
 21
202.7971254365204
 72
     1
 10
476.3506665391879
 20
202.7971254365204
 11
476.2140103395078
 21
202.022109615737
 72
     1
 10
476.2140103395078
 20
202.0221096157372
 11
476.2140103395078
 21
199.3807204445203
 72
     2
 10
476.3506665391878
 20
199.3807204445203
 40
0.1366561996799923
 50
180.0
 51
360.0
 73
     1
 97
        5
330
152C
330
1528
330
1527
330
152B
330
152A
 75
     0
 76
     1
 98
        1
 10
148.6007490327249
 20
10.33596247410862
450
        0
451
        0
460
0.0
461
0.0
452
        0
462
0.0
453
        0
470

  0
LINE
  5
1527
102
{ACAD_REACTORS
330
1526
102
}
330
1F
100
AcDbEntity
  8
0
 62
     1
100
AcDbLine
 10
476.3506665391879
 20
202.7971254365204
 30
0.0
 11
476.2140103395078
 21
202.022109615737
 31
0.0
  0
LINE
  5
1528
102
{ACAD_REACTORS
330
1526
102
}
330
1F
100
AcDbEntity
  8
0
 62
     1
100
AcDbLine
 10
476.4873227388681
 20
202.022109615737
 30
0.0
 11
476.3506665391878
 21
202.7971254365204
 31
0.0
  0
ARC
  5
1529
102
{ACAD_REACTORS
330
151C
102
}
330
1F
100
AcDbEntity
  8
0
 62
     1
100
AcDbCircle
 10
476.3506665391878
 20
199.3807204445203
 30
0.0
 40
0.2049842995200078
100
AcDbArc
 50
90.0
 51
270.0
  0
ARC
  5
152A
102
{ACAD_REACTORS
330
1526
102
}
330
1F
100
AcDbEntity
  8
0
 62
     1
100
AcDbCircle
 10
476.3506665391878
 20
199.3807204445203
 30
0.0
 40
0.1366561996799923
100
AcDbArc
 50
180.0
 51
0.0
  0
LINE
  5
152B
102
{ACAD_REACTORS
330
1526
102
}
330
1F
100
AcDbEntity
  8
0
 62
     1
100
AcDbLine
 10
476.2140103395078
 20
199.3807204445203
 30
0.0
 11
476.2140103395078
 21
202.0221096157372
 31
0.0
  0
LINE
  5
152C
102
{ACAD_REACTORS
330
1526
102
}
330
1F
100
AcDbEntity
  8
0
 62
     1
100
AcDbLine
 10
476.4873227388679
 20
199.3807204445203
 30
0.0
 11
476.4873227388681
 21
202.0221096157368
 31
0.0
  0
LINE
  5
152D
330
1F
100
AcDbEntity
  8
0
 62
     1
100
AcDbLine
 10
423.1581704892071
 20
158.5617721360023
 30
0.0
 11
486.9524756514997
 21
158.5617721360023
 31
0.0
  0
LINE
  5
152E
330
1F
100
AcDbEntity
  8
0
 62
     1
100
AcDbLine
 10
423.1581704892071
 20
144.954044313287
 30
0.0
 11
486.9524756514997
 21
144.954044313287
 31
0.0
  0
MTEXT
  5
152F
330
1F
100
AcDbEntity
  8
0
 62
     1
100
AcDbMText
 10
427.0478911060457
 20
156.9726086920625
 30
0.0
 40
3.17746
 41
40.77316672000001
 71
     1
 72
     5
  1
Volt    Amp.
 73
     1
 44
1.0
  0
MTEXT
  5
1530
330
1F
100
AcDbEntity
  8
0
 62
     1
100
AcDbMText
 10
425.0377720383333
 20
150.6784675701021
 30
0.0
 40
3.17746
 41
23.60455597500001
 71
     1
 72
     5
  1
AC/DC
 73
     1
 44
1.0
  0
LINE
  5
1531
102
{ACAD_REACTORS
330
153B
102
}
330
1F
100
AcDbEntity
  8
0
 62
     1
100
AcDbLine
 10
478.6727131086434
 20
151.061835968328
 30
0.0
 11
478.2033883300817
 21
151.2326562179279
 31
0.0
  0
LINE
  5
1532
102
{ACAD_REACTORS
330
153B
102
}
330
1F
100
AcDbEntity
  8
0
 62
     1
100
AcDbLine
 10
478.2033883300817
 20
150.8910157187281
 30
0.0
 11
478.6727131086434
 21
151.061835968328
 31
0.0
  0
HATCH
  5
1533
330
1F
100
AcDbEntity
  8
0
 62
     1
100
AcDbHatch
 10
0.0
 20
0.0
 30
0.0
210
0.0
220
0.0
230
1.0
  2
SOLID
 70
     1
 71
     1
 91
        1
 92
        1
 93
        5
 72
     1
 10
476.4611737047238
 20
151.061835968328
 11
476.4611737047244
 21
153.2629936110082
 72
     1
 10
476.4611737047244
 20
153.2629936110086
 11
476.347293538324
 21
153.9088401283278
 72
     1
 10
476.3472935383243
 20
153.9088401283278
 11
476.2334133719242
 21
153.2629936110086
 72
     1
 10
476.2334133719242
 20
153.2629936110088
 11
476.2334133719242
 21
151.061835968328
 72
     2
 10
476.347293538324
 20
151.061835968328
 40
0.1138801663999936
 50
180.0
 51
360.0
 73
     1
 97
        5
330
1539
330
1535
330
1534
330
1538
330
1537
 75
     0
 76
     1
 98
        1
 10
203.222362282938
 20
-6.475462340347952
450
        0
451
        0
460
0.0
461
0.0
452
        0
462
0.0
453
        0
470

  0
LINE
  5
1534
102
{ACAD_REACTORS
330
1533
102
}
330
1F
100
AcDbEntity
  8
0
 62
     1
100
AcDbLine
 10
476.3472935383243
 20
153.9088401283278
 30
0.0
 11
476.2334133719242
 21
153.2629936110086
 31
0.0
  0
LINE
  5
1535
102
{ACAD_REACTORS
330
1533
102
}
330
1F
100
AcDbEntity
  8
0
 62
     1
100
AcDbLine
 10
476.4611737047244
 20
153.2629936110086
 30
0.0
 11
476.347293538324
 21
153.9088401283278
 31
0.0
  0
ARC
  5
1536
102
{ACAD_REACTORS
330
153B
102
}
330
1F
100
AcDbEntity
  8
0
 62
     1
100
AcDbCircle
 10
476.347293538324
 20
151.061835968328
 30
0.0
 40
0.1708202496000065
100
AcDbArc
 50
90.0
 51
270.0
  0
ARC
  5
1537
102
{ACAD_REACTORS
330
1533
102
}
330
1F
100
AcDbEntity
  8
0
 62
     1
100
AcDbCircle
 10
476.347293538324
 20
151.061835968328
 30
0.0
 40
0.1138801663999936
100
AcDbArc
 50
180.0
 51
0.0
  0
LINE
  5
1538
102
{ACAD_REACTORS
330
1533
102
}
330
1F
100
AcDbEntity
  8
0
 62
     1
100
AcDbLine
 10
476.2334133719242
 20
151.061835968328
 30
0.0
 11
476.2334133719242
 21
153.2629936110088
 31
0.0
  0
LINE
  5
1539
102
{ACAD_REACTORS
330
1533
102
}
330
1F
100
AcDbEntity
  8
0
 62
     1
100
AcDbLine
 10
476.4611737047238
 20
151.061835968328
 30
0.0
 11
476.4611737047244
 21
153.2629936110082
 31
0.0
  0
CIRCLE
  5
153A
330
1F
100
AcDbEntity
  8
0
 62
     1
100
AcDbCircle
 10
476.347293538324
 20
151.061835968328
 30
0.0
 40
2.84700416
  0
HATCH
  5
153B
330
1F
100
AcDbEntity
  8
0
 62
     1
100
AcDbHatch
 10
0.0
 20
0.0
 30
0.0
210
0.0
220
0.0
230
1.0
  2
SOLID
 70
     1
 71
     1
 91
        1
 92
        1
 93
        5
 72
     1
 10
476.347293538324
 20
151.2326562179279
 11
478.2033883300817
 21
151.2326562179279
 72
     1
 10
478.2033883300817
 20
151.2326562179279
 11
478.6727131086434
 21
151.061835968328
 72
     1
 10
478.6727131086434
 20
151.061835968328
 11
478.2033883300817
 21
150.8910157187281
 72
     1
 10
478.2033883300817
 20
150.8910157187279
 11
476.347293538324
 21
150.8910157187279
 72
     2
 10
476.347293538324
 20
151.061835968328
 40
0.1708202496000065
 50
90.0
 51
270.0
 73
     0
 97
        5
330
153D
330
1531
330
1532
330
153C
330
1536
 75
     0
 76
     1
 98
        1
 10
203.222362282938
 20
-6.475462340347952
450
        0
451
        0
460
0.0
461
0.0
452
        0
462
0.0
453
        0
470

  0
LINE
  5
153C
102
{ACAD_REACTORS
330
153B
102
}
330
1F
100
AcDbEntity
  8
0
 62
     1
100
AcDbLine
 10
476.347293538324
 20
150.8910157187279
 30
0.0
 11
478.2033883300817
 21
150.8910157187279
 31
0.0
  0
LINE
  5
153D
102
{ACAD_REACTORS
330
153B
102
}
330
1F
100
AcDbEntity
  8
0
 62
     1
100
AcDbLine
 10
476.347293538324
 20
151.2326562179279
 30
0.0
 11
478.2033883300817
 21
151.2326562179279
 31
0.0
  0
LINE
  5
1630
330
1F
100
AcDbEntity
  8
0
100
AcDbLine
 10
401.3728270856269
 20
319.698440613989
 30
0.0
 11
401.3728270856269
 21
320.198440613989
 31
0.0
  0
LINE
  5
1631
330
1F
100
AcDbEntity
  8
0
100
AcDbLine
 10
401.3728270856269
 20
320.198440613989
 30
0.0
 11
375.872827085627
 21
320.198440613989
 31
0.0
  0
HATCH
  5
1680
330
1F
100
AcDbEntity
  8
Rot
100
AcDbHatch
 10
0.0
 20
0.0
 30
0.0
210
0.0
220
0.0
230
1.0
  2
SOLID
 70
     1
 71
     0
 91
        5
 92
       16
 93
        1
 72
     2
 10
396.9556345188715
 20
316.0082489620491
 40
2.43
 50
0.0
 51
360.0
 73
     1
 97
        0
 92
       16
 93
        1
 72
     2
 10
390.6556345188716
 20
316.0082489620491
 40
2.43
 50
0.0
 51
360.0
 73
     1
 97
        0
 92
       16
 93
        1
 72
     2
 10
390.6556345188716
 20
307.9082489620491
 40
2.43
 50
0.0
 51
360.0
 73
     1
 97
        0
 92
       16
 93
        1
 72
     2
 10
396.9556345188715
 20
307.9082489620491
 40
2.43
 50
0.0
 51
360.0
 73
     1
 97
        0
 92
        1
 93
        4
 72
     1
 10
385.8728270856269
 20
304.698440613989
 11
401.3728270856269
 21
304.698440613989
 72
     1
 10
401.3728270856269
 20
304.698440613989
 11
401.3728270856269
 21
319.698440613989
 72
     1
 10
401.3728270856269
 20
319.698440613989
 11
385.8728270856269
 21
319.698440613989
 72
     1
 10
385.8728270856269
 20
319.698440613989
 11
385.872827085627
 21
304.698440613989
 97
        0
 75
     0
 76
     1
 98
        1
 10
-0.4659461834148147
 20
120.0682314663292
450
        0
451
        0
460
0.0
461
0.0
452
        0
462
0.0
453
        0
470

  0
DIMENSION
  5
260D
330
1F
100
AcDbEntity
  8
Bemaßungen(IBH-ISO)
  6
Continuous
 62
     1
420
 16711680
370
    25
100
AcDbDimension
  2
*D2
 10
470.7940138257245
 20
298.5750846354795
 30
0.0
 11
444.3463899890639
 21
298.5750846354795
 31
0.0
 70
   160
  1
<>
 71
     4
 42
52.5
  3
IBH-ISO-IBH-ISO
100
AcDbAlignedDimension
 13
418.2940138257245
 23
311.2984406139891
 33
0.0
 14
470.7940138257245
 24
311.2984406139891
 34
0.0
 50
180.0
100
AcDbRotatedDimension
1001
ACAD
1000
DSTYLE
1002
{
1070
   271
1070
     2
1070
   272
1070
     2
1070
    47
1040
0.0
1070
    48
1040
0.0
1002
}
  0
LINE
  5
260E
330
1F
100
AcDbEntity
  8
Mittelpunktmarkierung(IBH-ISO)
  6
CHAIN
 48
21.16850090026856
370
    -2
100
AcDbLine
 10
439.2940138257261
 20
313.6734406139904
 30
0.0
 11
428.7940138257262
 21
313.6734406139904
 31
0.0
  0
ARC
  5
261C
330
1F
100
AcDbEntity
  8
Sichtbare Kanten(IBH-ISO)
370
    -2
100
AcDbCircle
 10
433.1200430850711
 20
315.3336448395041
 30
0.0
 40
0.3000000000000007
100
AcDbArc
 50
49.80122535090218
 51
188.3941858292752
  0
ARC
  5
261D
330
1F
100
AcDbEntity
  8
Sichtbare Kanten(IBH-ISO)
370
    -2
100
AcDbCircle
 10
433.0682201612886
 20
312.0431563674728
 30
0.0
 40
0.3000000000000002
100
AcDbArc
 50
169.8012253509034
 51
308.394185829275
  0
LINE
  5
261F
330
1F
100
AcDbEntity
  8
Sichtbare Kanten(IBH-ISO)
370
    -2
100
AcDbLine
 10
422.9940138257244
 20
306.148440613989
 30
0.0
 11
440.7940138257244
 21
306.148440613989
 31
0.0
  0
LINE
  5
2620
330
1F
100
AcDbEntity
  8
Sichtbare Kanten(IBH-ISO)
370
    -2
100
AcDbLine
 10
465.7940138257244
 20
320.1984406139907
 30
0.0
 11
423.2940138257241
 21
320.1984406139891
 31
0.0
  0
LINE
  5
2621
330
1F
100
AcDbEntity
  8
Sichtbare Kanten(IBH-ISO)
370
    -2
100
AcDbLine
 10
464.7440138257307
 20
318.0161619340723
 30
0.0
 11
424.3440138257299
 21
318.0161619340725
 31
0.0
  0
LINE
  5
2622
330
1F
100
AcDbEntity
  8
Sichtbare Kanten(IBH-ISO)
370
    -2
100
AcDbLine
 10
423.5440138257299
 20
319.946375038336
 30
0.0
 11
465.5440138257307
 21
319.9463750383359
 31
0.0
  0
LINE
  5
2623
330
1F
100
AcDbEntity
  8
Sichtbare Kanten(IBH-ISO)
370
    -2
100
AcDbLine
 10
426.0440138257251
 20
306.3154852625921
 30
0.0
 11
437.0440138257301
 21
306.3154852625921
 31
0.0
  0
ARC
  5
2625
330
1F
100
AcDbEntity
  8
Sichtbare Kanten(IBH-ISO)
370
    -2
100
AcDbCircle
 10
434.0440138257301
 20
310.7154852625922
 30
0.0
 40
2.300000000000046
100
AcDbArc
 50
180.0968509436976
 51
359.9031490564457
  0
LINE
  5
2626
330
1F
100
AcDbEntity
  8
Sichtbare Kanten(IBH-ISO)
370
    -2
100
AcDbLine
 10
436.1034708024355
 20
309.6914554968562
 30
0.0
 11
431.9845568490266
 21
309.6914554968562
 31
0.0
  0
LINE
  5
2627
330
1F
100
AcDbEntity
  8
Sichtbare Kanten(IBH-ISO)
370
    -2
100
AcDbLine
 10
435.5078506985724
 20
308.941455496856
 30
0.0
 11
432.5801769528898
 21
308.941455496856
 31
0.0
  0
LINE
  5
2628
330
1F
100
AcDbEntity
  8
Sichtbare Kanten(IBH-ISO)
370
    -2
100
AcDbLine
 10
432.3840759242268
 20
309.1234406139891
 30
0.0
 11
435.7039517272354
 21
309.1234406139891
 31
0.0
  0
LINE
  5
2629
330
1F
100
AcDbEntity
  8
Sichtbare Kanten(IBH-ISO)
370
    -2
100
AcDbLine
 10
431.9036959031416
 20
309.8734406139894
 30
0.0
 11
436.1843317483205
 21
309.8734406139894
 31
0.0
  0
LINE
  5
262A
330
1F
100
AcDbEntity
  8
Sichtbare Kanten(IBH-ISO)
370
    -2
100
AcDbLine
 10
435.2950074721495
 20
308.7854554968559
 30
0.0
 11
432.7930201793126
 21
308.7854554968559
 31
0.0
  0
LINE
  5
262B
330
1F
100
AcDbEntity
  8
Sichtbare Kanten(IBH-ISO)
370
    -2
100
AcDbLine
 10
435.8973663175253
 20
309.353470379723
 30
0.0
 11
432.1906613339369
 21
309.353470379723
 31
0.0
  0
LINE
  5
262C
330
1F
100
AcDbEntity
  8
Sichtbare Kanten(IBH-ISO)
370
    -2
100
AcDbLine
 10
436.0182300631241
 20
309.5354554968561
 30
0.0
 11
432.069797588338
 21
309.5354554968561
 31
0.0
  0
LINE
  5
262D
330
1F
100
AcDbEntity
  8
Sichtbare Kanten(IBH-ISO)
370
    -2
100
AcDbLine
 10
414.7940138257244
 20
304.398440613989
 30
0.0
 11
474.2940138257245
 21
304.398440613989
 31
0.0
  0
LINE
  5
262E
330
1F
100
AcDbEntity
  8
Sichtbare Kanten(IBH-ISO)
370
    -2
100
AcDbLine
 10
450.1592343246
 20
304.8984406139891
 30
0.0
 11
422.9940138257245
 21
304.898440613989
 31
0.0
  0
LINE
  5
2C04
330
1F
100
AcDbEntity
  8
Sichtbare Kanten(IBH-ISO)
370
    -2
100
AcDbLine
 10
423.5440138257299
 20
319.0106192969629
 30
0.0
 11
423.5440138257299
 21
319.946375038336
 31
0.0
  0
LINE
  5
2C09
330
1F
100
AcDbEntity
  8
Sichtbare Kanten(IBH-ISO)
370
    -2
100
AcDbLine
 10
414.7940138257244
 20
304.398440613989
 30
0.0
 11
414.7940138257244
 21
320.1984406139891
 31
0.0
  0
LINE
  5
2C0A
330
1F
100
AcDbEntity
  8
Sichtbare Kanten(IBH-ISO)
370
    -2
100
AcDbLine
 10
423.2940138257244
 20
315.0763462331251
 30
0.0
 11
423.2940138257244
 21
320.1984406139891
 31
0.0
  0
LINE
  5
2C0B
330
1F
100
AcDbEntity
  8
Sichtbare Kanten(IBH-ISO)
370
    -2
100
AcDbLine
 10
420.7940138257245
 20
307.0984406139891
 30
0.0
 11
420.7940138257245
 21
320.1984406139891
 31
0.0
  0
LINE
  5
2C0C
330
1F
100
AcDbEntity
  8
Sichtbare Kanten(IBH-ISO)
370
    -2
100
AcDbLine
 10
422.1940138257244
 20
306.948440613989
 30
0.0
 11
422.1940138257244
 21
320.1984406139891
 31
0.0
  0
ARC
  5
2C12
330
1F
100
AcDbEntity
  8
Sichtbare Kanten(IBH-ISO)
370
    -2
100
AcDbCircle
 10
422.9940138257245
 20
307.0984406139891
 30
0.0
 40
2.200000000000001
100
AcDbArc
 50
180.0
 51
270.0
  0
LINE
  5
2C13
330
1F
100
AcDbEntity
  8
Mittelpunktmarkierung(IBH-ISO)
  6
CHAIN
 48
21.16850090026856
370
    -2
100
AcDbLine
 10
418.2940138257245
 20
314.4194406139891
 30
0.0
 11
418.2940138257245
 21
308.177440613989
 31
0.0
  0
CIRCLE
  5
2C18
330
1F
100
AcDbEntity
  8
Sichtbare Kanten(IBH-ISO)
370
    -2
100
AcDbCircle
 10
418.2940138257245
 20
311.2984406139891
 30
0.0
 40
1.621
  0
LINE
  5
2C59
330
1F
100
AcDbEntity
  8
Mittelpunktmarkierung(IBH-ISO)
  6
CHAIN
 48
21.16850090026856
370
    -2
100
AcDbLine
 10
421.4150138257244
 20
311.2984406139891
 30
0.0
 11
415.1730138257245
 21
311.2984406139891
 31
0.0
  0
LINE
  5
2CC1
330
1F
100
AcDbEntity
  8
Sichtbare Kanten(IBH-ISO)
370
    -2
100
AcDbLine
 10
430.54401382573
 20
310.6734406492626
 30
0.0
 11
430.54401382573
 21
313.6734406139904
 31
0.0
  0
LINE
  5
2CF0
330
1F
100
AcDbEntity
  8
Sichtbare Kanten(IBH-ISO)
370
    -2
100
AcDbLine
 10
432.9884229201783
 20
310.4414554968564
 30
0.0
 11
431.76039658821
 21
310.4414554968564
 31
0.0
  0
LINE
  5
2CF1
330
1F
100
AcDbEntity
  8
Sichtbare Kanten(IBH-ISO)
370
    -2
100
AcDbLine
 10
431.7458563501292
 20
310.6234406139896
 30
0.0
 11
432.5415159258449
 21
310.6234406139896
 31
0.0
  0
LINE
  5
2CF2
330
1F
100
AcDbEntity
  8
Sichtbare Kanten(IBH-ISO)
370
    -2
100
AcDbLine
 10
436.2610924853963
 20
310.1034703797233
 30
0.0
 11
431.8269351660651
 21
310.1034703797233
 31
0.0
  0
LINE
  5
2CF3
330
1F
100
AcDbEntity
  8
Sichtbare Kanten(IBH-ISO)
370
    -2
100
AcDbLine
 10
436.3034549957058
 20
310.2854554968563
 30
0.0
 11
431.7845726557527
 21
310.2854554968563
 31
0.0
  0
LINE
  5
2D00
330
1F
100
AcDbEntity
  8
Sichtbare Kanten(IBH-ISO)
370
    -2
100
AcDbLine
 10
423.5440138257246
 20
315.6168162869652
 30
0.0
 11
426.044013825725
 21
314.1734406139907
 31
0.0
  0
LINE
  5
2D03
330
1F
100
AcDbEntity
  8
Sichtbare Kanten(IBH-ISO)
370
    -2
100
AcDbLine
 10
423.2940138257244
 20
315.0763462331251
 30
0.0
 11
425.5940138257244
 21
313.748440613989
 31
0.0
  0
LINE
  5
2D0C
330
1F
100
AcDbEntity
  8
Sichtbare Kanten(IBH-ISO)
370
    -2
100
AcDbLine
 10
426.044013825725
 20
314.1734406139907
 30
0.0
 11
426.044013825725
 21
306.3154852625921
 31
0.0
  0
LINE
  5
2D1E
330
1F
100
AcDbEntity
  8
Sichtbare Kanten(IBH-ISO)
370
    -2
100
AcDbLine
 10
425.5940138257244
 20
311.7234406139875
 30
0.0
 11
425.5940138257244
 21
311.748440613989
 31
0.0
  0
LINE
  5
2D1F
330
1F
100
AcDbEntity
  8
Sichtbare Kanten(IBH-ISO)
370
    -2
100
AcDbLine
 10
425.5940138257244
 20
313.748440613989
 30
0.0
 11
425.5940138257244
 21
306.148440613989
 31
0.0
  0
LINE
  5
2D23
330
1F
100
AcDbEntity
  8
Sichtbare Kanten(IBH-ISO)
370
    -2
100
AcDbLine
 10
423.2940138257244
 20
316.4984406139904
 30
0.0
 11
423.2985338257244
 21
316.4984406139904
 31
0.0
  0
LINE
  5
2D25
330
1F
100
AcDbEntity
  8
Sichtbare Kanten(IBH-ISO)
370
    -2
100
AcDbLine
 10
423.2985338257244
 20
315.0737366099085
 30
0.0
 11
423.2985338257244
 21
316.4984406139904
 31
0.0
  0
LINE
  5
2D27
330
1F
100
AcDbEntity
  8
Sichtbare Kanten(IBH-ISO)
370
    -2
100
AcDbLine
 10
424.3440138257299
 20
315.1549360716103
 30
0.0
 11
424.3440138257299
 21
318.0595289101681
 31
0.0
  0
LINE
  5
2D29
330
1F
100
AcDbEntity
  8
Sichtbare Kanten(IBH-ISO)
370
    -2
100
AcDbLine
 10
423.5440138257299
 20
319.0106192969629
 30
0.0
 11
423.5440138257299
 21
318.0595289101681
 31
0.0
  0
LINE
  5
2D2A
330
1F
100
AcDbEntity
  8
Sichtbare Kanten(IBH-ISO)
370
    -2
100
AcDbLine
 10
423.5440138257299
 20
315.9463750383359
 30
0.0
 11
423.5440138257299
 21
318.0595289101681
 31
0.0
  0
LINE
  5
2D2B
330
1F
100
AcDbEntity
  8
Sichtbare Kanten(IBH-ISO)
370
    -2
100
AcDbLine
 10
423.5440138257246
 20
315.6168162869652
 30
0.0
 11
423.5440138257246
 21
315.9463750383394
 31
0.0
  0
ARC
  5
2D31
330
1F
100
AcDbEntity
  8
Sichtbare Kanten(IBH-ISO)
370
    -2
100
AcDbCircle
 10
431.6361123572923
 20
315.1146708795142
 30
0.0
 40
1.199999999999998
100
AcDbArc
 50
289.8012253508999
 51
8.394185829275182
  0
ARC
  5
2D34
330
1F
100
AcDbEntity
  8
Sichtbare Kanten(IBH-ISO)
370
    -2
100
AcDbCircle
 10
432.1442494206336
 20
313.7033605929864
 30
0.0
 40
0.3
100
AcDbArc
 50
109.8012253508968
 51
248.3941858292732
  0
ARC
  5
2D35
330
1F
100
AcDbEntity
  8
Sichtbare Kanten(IBH-ISO)
370
    -2
100
AcDbCircle
 10
431.5919210688627
 20
312.3087519052786
 30
0.0
 40
1.200000000000001
100
AcDbArc
 50
349.8012253509002
 51
68.39418582927621
  0
LINE
  5
2D36
330
1F
100
AcDbEntity
  8
Sichtbare Kanten(IBH-ISO)
370
    -2
100
AcDbLine
 10
420.7940138257271
 20
319.1984406139878
 30
0.0
 11
422.1940138257273
 21
319.1984406139878
 31
0.0
  0
LINE
  5
2D37
330
1F
100
AcDbEntity
  8
Sichtbare Kanten(IBH-ISO)
370
    -2
100
AcDbLine
 10
422.1940138257273
 20
320.1984406139881
 30
0.0
 11
420.7940138257271
 21
320.1984406139879
 31
0.0
  0
LINE
  5
2D39
330
1F
100
AcDbEntity
  8
Sichtbare Kanten(IBH-ISO)
370
    -2
100
AcDbLine
 10
420.7940138257245
 20
320.1984406139891
 30
0.0
 11
414.7940138257244
 21
320.1984406139891
 31
0.0
  0
LINE
  5
2D3B
330
1F
100
AcDbEntity
  8
Sichtbare Kanten(IBH-ISO)
370
    -2
100
AcDbLine
 10
423.2940138257241
 20
319.1984406139889
 30
0.0
 11
423.5440138257323
 21
319.1984406139889
 31
0.0
  0
LINE
  5
2D3C
330
1F
100
AcDbEntity
  8
Sichtbare Kanten(IBH-ISO)
370
    -2
100
AcDbLine
 10
423.2940138257244
 20
320.1984406139891
 30
0.0
 11
422.1940138257244
 21
320.1984406139891
 31
0.0
  0
DIMENSION
  5
32F8
330
1F
100
AcDbEntity
  8
Bemaßungen(IBH-ISO)
  6
Continuous
 62
     1
420
 16711680
370
    25
100
AcDbDimension
  2
*D3
 10
405.348884208824
 20
320.1984406139882
 30
0.0
 11
405.3488842088239
 21
311.4338740935101
 31
0.0
 70
   160
  1
<>
 71
     4
 42
15.80000000000001
  3
IBH-ISO-IBH-ISO
100
AcDbAlignedDimension
 13
401.3728270856269
 23
304.3984406139882
 33
0.0
 14
401.3728270856269
 24
320.1984406139882
 34
0.0
 50
270.0
100
AcDbRotatedDimension
  0
LINE
  5
32FA
102
{ACAD_REACTORS
330
35E2
102
}
330
1F
100
AcDbEntity
  8
Sichtbare Kanten(IBH-ISO)
370
    -2
100
AcDbLine
 10
476.5940138257246
 20
320.1984406139898
 30
0.0
 11
476.5940138257246
 21
304.3984406139891
 31
0.0
  0
LINE
  5
32FB
330
1F
100
AcDbEntity
  8
Sichtbare Kanten(IBH-ISO)
370
    -2
100
AcDbLine
 10
465.5440138257307
 20
319.0106192969627
 30
0.0
 11
465.5440138257307
 21
319.9463750383359
 31
0.0
  0
LINE
  5
3300
102
{ACAD_REACTORS
330
35E2
102
}
330
1F
100
AcDbEntity
  8
Sichtbare Kanten(IBH-ISO)
370
    -2
100
AcDbLine
 10
474.2940138257245
 20
304.398440613989
 30
0.0
 11
474.2940138257245
 21
320.1984406139891
 31
0.0
  0
LINE
  5
3301
330
1F
100
AcDbEntity
  8
Sichtbare Kanten(IBH-ISO)
370
    -2
100
AcDbLine
 10
465.7940138257244
 20
315.0763462331251
 30
0.0
 11
465.7940138257244
 21
320.1984406139891
 31
0.0
  0
LINE
  5
3316
330
1F
100
AcDbEntity
  8
Sichtbare Kanten(IBH-ISO)
370
    -2
100
AcDbLine
 10
440.7440138257299
 20
308.215485262592
 30
0.0
 11
448.3440138257301
 21
308.215485262592
 31
0.0
  0
LINE
  5
3318
330
1F
100
AcDbEntity
  8
Sichtbare Kanten(IBH-ISO)
370
    -2
100
AcDbLine
 10
440.7440138257302
 20
317.3154852625923
 30
0.0
 11
448.3440138257304
 21
317.3154852625922
 31
0.0
  0
LINE
  5
3319
330
1F
100
AcDbEntity
  8
Sichtbare Kanten(IBH-ISO)
370
    -2
100
AcDbLine
 10
451.427346321816
 20
306.9321527665106
 30
0.0
 11
437.6606813296485
 21
306.9321527665105
 31
0.0
  0
LINE
  5
331B
330
1F
100
AcDbEntity
  8
Sichtbare Kanten(IBH-ISO)
370
    -2
100
AcDbLine
 10
448.3440138257331
 20
307.4414554968555
 30
0.0
 11
440.7440138257302
 21
307.4414554968555
 31
0.0
  0
LINE
  5
331C
330
1F
100
AcDbEntity
  8
Sichtbare Kanten(IBH-ISO)
370
    -2
100
AcDbLine
 10
440.7440138257302
 20
307.6234406139887
 30
0.0
 11
448.3440138257331
 21
307.6234406139887
 31
0.0
  0
LINE
  5
331D
330
1F
100
AcDbEntity
  8
Sichtbare Kanten(IBH-ISO)
370
    -2
100
AcDbLine
 10
451.0740435914711
 20
307.2854554968555
 30
0.0
 11
438.0139840599934
 21
307.2854554968554
 31
0.0
  0
LINE
  5
331E
330
1F
100
AcDbEntity
  8
Sichtbare Kanten(IBH-ISO)
370
    -2
100
AcDbLine
 10
451.2560287086042
 20
307.1034703797224
 30
0.0
 11
437.8319989428604
 21
307.1034703797224
 31
0.0
  0
LINE
  5
331F
330
1F
100
AcDbEntity
  8
Sichtbare Kanten(IBH-ISO)
370
    -2
100
AcDbLine
 10
448.3440138257331
 20
307.8534703797226
 30
0.0
 11
440.7440138257302
 21
307.8534703797226
 31
0.0
  0
LINE
  5
3320
330
1F
100
AcDbEntity
  8
Sichtbare Kanten(IBH-ISO)
370
    -2
100
AcDbLine
 10
448.3440138257331
 20
308.0354554968557
 30
0.0
 11
440.7440138257302
 21
308.0354554968557
 31
0.0
  0
LINE
  5
3321
330
1F
100
AcDbEntity
  8
Sichtbare Kanten(IBH-ISO)
370
    -2
100
AcDbLine
 10
437.4269691771269
 20
306.698440613989
 30
0.0
 11
447.2940138257245
 21
306.6984406139891
 31
0.0
  0
LINE
  5
3322
330
1F
100
AcDbEntity
  8
Mittelpunktmarkierung(IBH-ISO)
  6
CHAIN
 48
21.16850090026856
370
    -2
100
AcDbLine
 10
434.0440138257262
 20
318.9234406139904
 30
0.0
 11
434.0440138257262
 21
308.4234406139905
 31
0.0
  0
LINE
  5
3324
330
1F
100
AcDbEntity
  8
Sichtbare Kanten(IBH-ISO)
370
    -2
100
AcDbLine
 10
438.0440138257301
 20
312.3110834774541
 30
0.0
 11
438.0440138257301
 21
310.0590416214246
 31
0.0
  0
LINE
  5
3325
330
1F
100
AcDbEntity
  8
Sichtbare Kanten(IBH-ISO)
370
    -2
100
AcDbLine
 10
437.54401382573
 20
313.6734406139904
 30
0.0
 11
437.5440138257302
 21
310.7154852625921
 31
0.0
  0
LINE
  5
3326
330
1F
100
AcDbEntity
  8
Sichtbare Kanten(IBH-ISO)
370
    -2
100
AcDbLine
 10
440.7440138257302
 20
310.0590416214246
 30
0.0
 11
440.7440138257302
 21
312.3110834774541
 31
0.0
  0
LINE
  5
3327
330
1F
100
AcDbEntity
  8
Sichtbare Kanten(IBH-ISO)
370
    -2
100
AcDbLine
 10
438.0440138257301
 20
307.315485262592
 30
0.0
 11
440.7440138257302
 21
307.315485262592
 31
0.0
  0
LINE
  5
332B
330
1F
100
AcDbEntity
  8
Sichtbare Kanten(IBH-ISO)
370
    -2
100
AcDbLine
 10
438.2440138257245
 20
306.6984406139891
 30
0.0
 11
440.7940138257244
 21
306.6984406139891
 31
0.0
  0
LINE
  5
332D
330
1F
100
AcDbEntity
  8
Sichtbare Kanten(IBH-ISO)
370
    -2
100
AcDbLine
 10
438.0440138257301
 20
307.3154852625921
 30
0.0
 11
437.0440138257301
 21
306.3154852625921
 31
0.0
  0
LINE
  5
3330
330
1F
100
AcDbEntity
  8
Sichtbare Kanten(IBH-ISO)
370
    -2
100
AcDbLine
 10
437.4269691771269
 20
306.6984406139891
 30
0.0
 11
438.2440138257245
 21
306.6984406139891
 31
0.0
  0
LINE
  5
3332
330
1F
100
AcDbEntity
  8
Sichtbare Kanten(IBH-ISO)
370
    -2
100
AcDbLine
 10
436.3276310632522
 20
310.4414554968564
 30
0.0
 11
435.0996047717713
 21
310.4414554968564
 31
0.0
  0
LINE
  5
3335
330
1F
100
AcDbEntity
  8
Sichtbare Kanten(IBH-ISO)
370
    -2
100
AcDbLine
 10
434.9547240620482
 20
308.6034703797228
 30
0.0
 11
433.1333035894139
 21
308.6034703797228
 31
0.0
  0
LINE
  5
3336
330
1F
100
AcDbEntity
  8
Sichtbare Kanten(IBH-ISO)
370
    -2
100
AcDbLine
 10
438.0440138257301
 20
307.315485262592
 30
0.0
 11
438.0440138257301
 21
310.0590416214246
 31
0.0
  0
LINE
  5
3337
330
1F
100
AcDbEntity
  8
Sichtbare Kanten(IBH-ISO)
370
    -2
100
AcDbLine
 10
435.5465117661047
 20
310.6234406139896
 30
0.0
 11
436.3421713013329
 21
310.6234406139896
 31
0.0
  0
LINE
  5
335A
330
1F
100
AcDbEntity
  8
Sichtbare Kanten(IBH-ISO)
370
    -2
100
AcDbLine
 10
440.7940138257244
 20
306.6984406139891
 30
0.0
 11
440.7940138257244
 21
306.198440613989
 31
0.0
  0
LINE
  5
335B
330
1F
100
AcDbEntity
  8
Sichtbare Kanten(IBH-ISO)
370
    -2
100
AcDbLine
 10
440.7940138257244
 20
306.148440613989
 30
0.0
 11
440.7940138257244
 21
306.198440613989
 31
0.0
  0
LINE
  5
3362
330
1F
100
AcDbEntity
  8
Sichtbare Kanten(IBH-ISO)
370
    -2
100
AcDbLine
 10
440.7440138257302
 20
310.0590416214246
 30
0.0
 11
440.7440138257302
 21
307.315485262592
 31
0.0
  0
LINE
  5
3367
330
1F
100
AcDbEntity
  8
Sichtbare Kanten(IBH-ISO)
370
    -2
100
AcDbLine
 10
438.0440138257301
 20
312.3110834774541
 30
0.0
 11
440.7440138257302
 21
312.3110834774541
 31
0.0
  0
LINE
  5
3368
330
1F
100
AcDbEntity
  8
Sichtbare Kanten(IBH-ISO)
370
    -2
100
AcDbLine
 10
435.0198074778654
 20
315.3037248366391
 30
0.0
 11
434.0440138262177
 21
313.6734406492627
 31
0.0
  0
LINE
  5
3369
330
1F
100
AcDbEntity
  8
Sichtbare Kanten(IBH-ISO)
370
    -2
100
AcDbLine
 10
433.1200430966116
 20
315.3336448152597
 30
0.0
 11
434.0440138263455
 21
313.6734406492607
 31
0.0
  0
ARC
  5
336A
330
1F
100
AcDbEntity
  8
Sichtbare Kanten(IBH-ISO)
370
    -2
100
AcDbCircle
 10
436.4961065825896
 20
315.0381293227023
 30
0.0
 40
1.199999999999999
100
AcDbArc
 50
169.8012253509002
 51
248.3941858292762
  0
ARC
  5
336C
330
1F
100
AcDbEntity
  8
Sichtbare Kanten(IBH-ISO)
370
    -2
100
AcDbCircle
 10
436.4519152941601
 20
312.2322103484667
 30
0.0
 40
1.200000000000003
100
AcDbArc
 50
109.8012253508998
 51
188.3941858292752
  0
LINE
  5
336E
330
1F
100
AcDbEntity
  8
Sichtbare Kanten(IBH-ISO)
370
    -2
100
AcDbLine
 10
434.9679845465655
 20
312.013235887291
 30
0.0
 11
434.0440138262177
 21
313.6734406492627
 31
0.0
  0
LINE
  5
336F
330
1F
100
AcDbEntity
  8
Sichtbare Kanten(IBH-ISO)
370
    -2
100
AcDbLine
 10
433.0682201653117
 20
312.0431558659116
 30
0.0
 11
434.0440138263455
 21
313.6734406492607
 31
0.0
  0
ARC
  5
3370
330
1F
100
AcDbEntity
  8
Sichtbare Kanten(IBH-ISO)
370
    -2
100
AcDbCircle
 10
434.9679845663812
 20
312.0132363884768
 30
0.0
 40
0.3000000000000003
100
AcDbArc
 50
229.8012253509022
 51
8.394185829275182
  0
ARC
  5
3371
330
1F
100
AcDbEntity
  8
Sichtbare Kanten(IBH-ISO)
370
    -2
100
AcDbCircle
 10
433.9998225372966
 20
310.8675216397549
 30
0.0
 40
1.199999999999997
100
AcDbArc
 50
49.80122535090218
 51
128.394185829277
  0
ARC
  5
3372
330
1F
100
AcDbEntity
  8
Sichtbare Kanten(IBH-ISO)
370
    -2
100
AcDbCircle
 10
435.9437782308187
 20
313.6435206349944
 30
0.0
 40
0.3000000000000001
100
AcDbArc
 50
289.8012253508999
 51
68.39418582927923
  0
ARC
  5
3373
330
1F
100
AcDbEntity
  8
Sichtbare Kanten(IBH-ISO)
370
    -2
100
AcDbCircle
 10
435.0198074901637
 20
315.3037248605081
 30
0.0
 40
0.3000000000000003
100
AcDbArc
 50
349.801225350897
 51
128.394185829277
  0
ARC
  5
3374
330
1F
100
AcDbEntity
  8
Sichtbare Kanten(IBH-ISO)
370
    -2
100
AcDbCircle
 10
434.0882051141557
 20
316.4793595882259
 30
0.0
 40
1.199999999999999
100
AcDbArc
 50
229.8012253508997
 51
308.394185829275
  0
LINE
  5
3376
330
1F
100
AcDbEntity
  8
Sichtbare Kanten(IBH-ISO)
370
    -2
100
AcDbLine
 10
440.7440138257302
 20
312.3110834774541
 30
0.0
 11
440.7440138257302
 21
317.1285251350223
 31
0.0
  0
LINE
  5
337F
330
1F
100
AcDbEntity
  8
Sichtbare Kanten(IBH-ISO)
370
    -2
100
AcDbLine
 10
440.7440138257302
 20
317.1285251350223
 30
0.0
 11
440.7440138257302
 21
317.3154852625922
 31
0.0
  0
LINE
  5
3382
330
1F
100
AcDbEntity
  8
Sichtbare Kanten(IBH-ISO)
370
    -2
100
AcDbLine
 10
451.0440138257305
 20
310.0590416214245
 30
0.0
 11
451.0440138257305
 21
312.311083477454
 31
0.0
  0
LINE
  5
3384
330
1F
100
AcDbEntity
  8
Sichtbare Kanten(IBH-ISO)
370
    -2
100
AcDbLine
 10
448.3440138257304
 20
312.3110834774541
 30
0.0
 11
448.3440138257304
 21
310.0590416214245
 31
0.0
  0
LINE
  5
3385
330
1F
100
AcDbEntity
  8
Sichtbare Kanten(IBH-ISO)
370
    -2
100
AcDbLine
 10
448.3440138257304
 20
307.315485262592
 30
0.0
 11
451.0440138257305
 21
307.315485262592
 31
0.0
  0
LINE
  5
3386
330
1F
100
AcDbEntity
  8
Sichtbare Kanten(IBH-ISO)
370
    -2
100
AcDbLine
 10
447.2940138257245
 20
306.6984406139891
 30
0.0
 11
450.8440138257244
 21
306.6984406139891
 31
0.0
  0
LINE
  5
338A
330
1F
100
AcDbEntity
  8
Sichtbare Kanten(IBH-ISO)
370
    -2
100
AcDbLine
 10
447.2940138257245
 20
306.1484406139889
 30
0.0
 11
447.2940138257245
 21
306.6984406139891
 31
0.0
  0
LINE
  5
338B
330
1F
100
AcDbEntity
  8
Sichtbare Kanten(IBH-ISO)
370
    -2
100
AcDbLine
 10
448.3440138257304
 20
307.315485262592
 30
0.0
 11
448.3440138257304
 21
310.0590416214245
 31
0.0
  0
LINE
  5
338C
330
1F
100
AcDbEntity
  8
Sichtbare Kanten(IBH-ISO)
370
    -2
100
AcDbLine
 10
451.6610584743333
 20
306.6984406139891
 30
0.0
 11
451.0440138257304
 21
307.3154852625921
 31
0.0
  0
LINE
  5
338F
330
1F
100
AcDbEntity
  8
Sichtbare Kanten(IBH-ISO)
370
    -2
100
AcDbLine
 10
450.8440138257244
 20
306.6984406139891
 30
0.0
 11
451.6610584743329
 21
306.6984406139891
 31
0.0
  0
LINE
  5
3392
330
1F
100
AcDbEntity
  8
Sichtbare Kanten(IBH-ISO)
370
    -2
100
AcDbLine
 10
451.0440138257304
 20
310.0590416214245
 30
0.0
 11
451.0440138257304
 21
307.3154852625919
 31
0.0
  0
LINE
  5
3396
330
1F
100
AcDbEntity
  8
Sichtbare Kanten(IBH-ISO)
370
    -2
100
AcDbLine
 10
448.3440138257304
 20
312.3110834774541
 30
0.0
 11
451.0440138257305
 21
312.311083477454
 31
0.0
  0
LINE
  5
3398
330
1F
100
AcDbEntity
  8
Sichtbare Kanten(IBH-ISO)
370
    -2
100
AcDbLine
 10
448.3440138257304
 20
317.1285251350222
 30
0.0
 11
448.3440138257304
 21
312.3110834774541
 31
0.0
  0
LINE
  5
33A1
330
1F
100
AcDbEntity
  8
Sichtbare Kanten(IBH-ISO)
370
    -2
100
AcDbLine
 10
448.3440138257304
 20
317.3154852625922
 30
0.0
 11
448.3440138257304
 21
317.1285251350222
 31
0.0
  0
LINE
  5
33B5
330
1F
100
AcDbEntity
  8
Mittelpunktmarkierung(IBH-ISO)
  6
CHAIN
 48
21.16850090026856
370
    -2
100
AcDbLine
 10
473.9150138257245
 20
311.2984406139891
 30
0.0
 11
467.6730138257245
 21
311.2984406139891
 31
0.0
  0
LINE
  5
33FD
330
1F
100
AcDbEntity
  8
Sichtbare Kanten(IBH-ISO)
370
    -2
100
AcDbLine
 10
458.4269691771269
 20
306.6984406139891
 30
0.0
 11
459.2440138257245
 21
306.6984406139891
 31
0.0
  0
LINE
  5
3438
330
1F
100
AcDbEntity
  8
Sichtbare Kanten(IBH-ISO)
370
    -2
100
AcDbLine
 10
465.5440138257307
 20
315.6168162869653
 30
0.0
 11
463.0440138257304
 21
314.1734406139908
 31
0.0
  0
LINE
  5
343D
330
1F
100
AcDbEntity
  8
Sichtbare Kanten(IBH-ISO)
370
    -2
100
AcDbLine
 10
463.4940138257245
 20
313.748440613989
 30
0.0
 11
465.7940138257244
 21
315.0763462331251
 31
0.0
  0
LINE
  5
346C
330
1F
100
AcDbEntity
  8
Sichtbare Kanten(IBH-ISO)
370
    -2
100
AcDbLine
 10
464.7440138257307
 20
318.0595289101679
 30
0.0
 11
464.7440138257308
 21
315.1549360716135
 31
0.0
  0
LINE
  5
3471
330
1F
100
AcDbEntity
  8
Sichtbare Kanten(IBH-ISO)
370
    -2
100
AcDbLine
 10
465.5440138257307
 20
319.0106192969627
 30
0.0
 11
465.5440138257307
 21
318.0595289101679
 31
0.0
  0
LINE
  5
3472
330
1F
100
AcDbEntity
  8
Sichtbare Kanten(IBH-ISO)
370
    -2
100
AcDbLine
 10
465.5440138257307
 20
315.9463750383358
 30
0.0
 11
465.5440138257307
 21
318.0595289101679
 31
0.0
  0
LINE
  5
3473
330
1F
100
AcDbEntity
  8
Sichtbare Kanten(IBH-ISO)
370
    -2
100
AcDbLine
 10
465.5440138257307
 20
315.6168162869653
 30
0.0
 11
465.5440138257307
 21
315.9463750383395
 31
0.0
  0
LINE
  5
3482
330
1F
100
AcDbEntity
  8
Mittelpunktmarkierung(IBH-ISO)
  6
CHAIN
 48
21.16850090026856
370
    -2
100
AcDbLine
 10
470.7940138257245
 20
314.4194406139891
 30
0.0
 11
470.7940138257245
 21
308.177440613989
 31
0.0
  0
LINE
  5
3484
330
1F
100
AcDbEntity
  8
Sichtbare Kanten(IBH-ISO)
370
    -2
100
AcDbLine
 10
470.7940138257245
 20
312.9194406139884
 30
0.0
 11
470.7940138257245
 21
309.6774406139883
 31
0.0
  0
CIRCLE
  5
348A
330
1F
100
AcDbEntity
  8
Sichtbare Kanten(IBH-ISO)
370
    -2
100
AcDbCircle
 10
470.7940138257245
 20
311.2984406139891
 30
0.0
 40
1.621
  0
LINE
  5
34AA
102
{ACAD_REACTORS
330
35E2
102
}
330
1F
100
AcDbEntity
  8
Sichtbare Kanten(IBH-ISO)
370
    -2
100
AcDbLine
 10
476.5940138257246
 20
304.3984406139891
 30
0.0
 11
474.2940138257245
 21
304.3984406139891
 31
0.0
  0
LINE
  5
34E9
330
1F
100
AcDbEntity
  8
Sichtbare Kanten(IBH-ISO)
370
    -2
100
AcDbLine
 10
474.2940138257245
 20
320.1984406139891
 30
0.0
 11
465.7940138257244
 21
320.1984406139891
 31
0.0
  0
LINE
  5
34EA
330
1F
100
AcDbEntity
  8
Sichtbare Kanten(IBH-ISO)
370
    -2
100
AcDbLine
 10
465.5440138257374
 20
319.1984406139904
 30
0.0
 11
465.7940138257245
 21
319.1984406139904
 31
0.0
  0
LINE
  5
34EB
102
{ACAD_REACTORS
330
35E2
102
}
330
1F
100
AcDbEntity
  8
Sichtbare Kanten(IBH-ISO)
370
    -2
100
AcDbLine
 10
474.2940138257245
 20
320.1984406139898
 30
0.0
 11
476.5940138257246
 21
320.1984406139898
 31
0.0
  0
HATCH
  5
35E2
330
1F
100
AcDbEntity
  8
Rot
370
    -2
100
AcDbHatch
 10
0.0
 20
0.0
 30
0.0
210
0.0
220
0.0
230
1.0
  2
SOLID
 70
     1
 71
     1
 91
        1
 92
        1
 93
        4
 72
     1
 10
474.2940138257245
 20
320.1984406139898
 11
476.5940138257246
 21
320.1984406139898
 72
     1
 10
476.5940138257246
 20
320.1984406139898
 11
476.5940138257246
 21
304.3984406139891
 72
     1
 10
476.5940138257246
 20
304.3984406139891
 11
474.2940138257245
 21
304.3984406139891
 72
     1
 10
474.2940138257245
 20
304.398440613989
 11
474.2940138257245
 21
320.1984406139891
 97
        4
330
34EB
330
32FA
330
34AA
330
3300
 75
     0
 76
     1
 98
        1
 10
0.0
 20
0.0
450
        0
451
        0
460
0.0
461
0.0
452
        0
462
0.0
453
        0
470

  0
LINE
  5
35EF
330
1F
100
AcDbEntity
  8
0
100
AcDbLine
 10
375.8728270856269
 20
319.6984406139893
 30
0.0
 11
375.8728270856269
 21
320.198440613989
 31
0.0
  0
LINE
  5
363F
330
1F
100
AcDbEntity
  8
0
100
AcDbLine
 10
401.3728270856269
 20
304.3984406139887
 30
0.0
 11
375.8728270856269
 21
304.3984406139886
 31
0.0
  0
DIMENSION
  5
3640
330
1F
100
AcDbEntity
  8
Bemaßungen(IBH-ISO)
100
AcDbDimension
  2
*D4
 10
401.3728270856269
 20
296.9007512726436
 30
0.0
 11
388.6228270856269
 21
297.9936084155008
 31
0.0
 70
    32
 71
     5
 42
25.50000000000006
  3
IBH-ISO-IBH-ISO
100
AcDbAlignedDimension
 13
375.8728270856269
 23
304.3984406139886
 33
0.0
 14
401.3728270856269
 24
304.3984406139887
 34
0.0
100
AcDbRotatedDimension
  0
HATCH
  5
3681
330
1F
100
AcDbEntity
  8
Rot
370
    -2
100
AcDbHatch
 10
0.0
 20
0.0
 30
0.0
210
0.0
220
0.0
230
1.0
  2
SOLID
 70
     1
 71
     0
 91
        5
 92
       16
 93
        1
 72
     2
 10
397.4215807022864
 20
195.9400174957199
 40
2.43
 50
0.0
 51
360.0
 73
     1
 97
        0
 92
       16
 93
        1
 72
     2
 10
391.1215807022864
 20
195.9400174957199
 40
2.43
 50
0.0
 51
360.0
 73
     1
 97
        0
 92
       16
 93
        1
 72
     2
 10
391.1215807022864
 20
187.8400174957198
 40
2.43
 50
0.0
 51
360.0
 73
     1
 97
        0
 92
       16
 93
        1
 72
     2
 10
397.4215807022864
 20
187.8400174957198
 40
2.43
 50
0.0
 51
360.0
 73
     1
 97
        0
 92
        1
 93
        4
 72
     1
 10
386.3387732690417
 20
184.6302091476598
 11
401.8387732690418
 21
184.6302091476598
 72
     1
 10
401.8387732690418
 20
184.6302091476598
 11
401.8387732690417
 21
199.6302091476598
 72
     1
 10
401.8387732690417
 20
199.6302091476598
 11
386.3387732690417
 21
199.6302091476598
 72
     1
 10
386.3387732690417
 20
199.6302091476598
 11
386.3387732690418
 21
184.6302091476598
 97
        0
 75
     0
 76
     1
 98
        1
 10
0.0
 20
0.0
450
        0
451
        0
460
0.0
461
0.0
452
        0
462
0.0
453
        0
470

  0
LINE
  5
3682
330
1F
100
AcDbEntity
  8
1
370
    -2
100
AcDbLine
 10
383.3880404774016
 20
193.1302069248186
 30
0.0
 11
383.3880404774016
 21
189.1302069248186
 31
0.0
  0
LINE
  5
3683
330
1F
100
AcDbEntity
  8
1
370
    -2
100
AcDbLine
 10
384.3876382983395
 20
189.4302069248183
 30
0.0
 11
386.08763829834
 21
191.1302069248181
 31
0.0
  0
LINE
  5
3684
330
1F
100
AcDbEntity
  8
0
370
    -2
100
AcDbLine
 10
376.3387732690417
 20
199.1302091476602
 30
0.0
 11
376.3387732690416
 21
184.3302091476594
 31
0.0
  0
LINE
  5
3685
330
1F
100
AcDbEntity
  8
0
370
    -2
100
AcDbLine
 10
376.3387732690416
 20
184.3302091476594
 30
0.0
 11
376.3387732690417
 21
199.63020914766
 31
0.0
  0
LINE
  5
3686
330
1F
100
AcDbEntity
  8
1
370
    -2
100
AcDbLine
 10
384.3876382983399
 20
189.4302069248185
 30
0.0
 11
376.3387732690417
 21
189.4302069248183
 31
0.0
  0
LINE
  5
3687
330
1F
100
AcDbEntity
  8
1
370
    -2
100
AcDbLine
 10
376.7327740768481
 20
189.1302069248183
 30
0.0
 11
376.3387732690417
 21
188.736206117012
 31
0.0
  0
LINE
  5
3688
330
1F
100
AcDbEntity
  8
1
370
    -2
100
AcDbLine
 10
383.3880404774019
 20
189.1302069248186
 30
0.0
 11
376.7327740768481
 21
189.1302069248183
 31
0.0
  0
LINE
  5
3689
330
1F
100
AcDbEntity
  8
1
370
    -2
100
AcDbLine
 10
376.3387732690415
 20
191.1302069248183
 30
0.0
 11
375.693871610044
 21
191.1302069248183
 31
0.0
  0
LINE
  5
368A
330
1F
100
AcDbEntity
  8
1
370
    -2
100
AcDbLine
 10
384.3876382983397
 20
192.8302069248186
 30
0.0
 11
376.3387732690417
 21
192.8302069248186
 31
0.0
  0
LINE
  5
368B
330
1F
100
AcDbEntity
  8
1
370
    -2
100
AcDbLine
 10
384.3876382983395
 20
192.8302069248186
 30
0.0
 11
386.08763829834
 21
191.1302069248181
 31
0.0
  0
LINE
  5
368C
330
1F
100
AcDbEntity
  8
1
370
    -2
100
AcDbLine
 10
376.7327740768481
 20
193.1302069248186
 30
0.0
 11
376.3387732690417
 21
193.5242077326249
 31
0.0
  0
LINE
  5
368D
330
1F
100
AcDbEntity
  8
1
370
    -2
100
AcDbLine
 10
383.3880404774019
 20
193.1302069248186
 30
0.0
 11
376.7327740768481
 21
193.1302069248186
 31
0.0
  0
ARC
  5
368E
330
1F
100
AcDbEntity
  8
0
370
    -2
100
AcDbCircle
 10
374.4367162672352
 20
198.6308617822685
 30
0.0
 40
0.5
100
AcDbArc
 50
99.99999999999861
 51
270.0
  0
LINE
  5
368F
330
1F
100
AcDbEntity
  8
0
370
    -2
100
AcDbLine
 10
380.438773275436
 20
198.1308617822685
 30
0.0
 11
374.4367162672352
 21
198.1308617822685
 31
0.0
  0
LINE
  5
3690
330
1F
100
AcDbEntity
  8
0
370
    -2
100
AcDbLine
 10
401.8387732690417
 20
184.3302091476594
 30
0.0
 11
401.8387732690417
 21
199.6302091476598
 31
0.0
  0
LINE
  5
3691
330
1F
100
AcDbEntity
  8
0
370
    -2
100
AcDbLine
 10
401.8387732690417
 20
184.3302091476594
 30
0.0
 11
401.8387732690417
 21
199.6302091476598
 31
0.0
  0
LINE
  5
3692
330
1F
100
AcDbEntity
  8
0
370
    -2
100
AcDbLine
 10
401.8387732690417
 20
199.6302091476598
 30
0.0
 11
376.3387732690418
 21
199.63020914766
 31
0.0
  0
LINE
  5
3693
330
1F
100
AcDbEntity
  8
0
370
    -2
100
AcDbLine
 10
386.3387732690418
 20
184.6302091476598
 30
0.0
 11
386.3387732690417
 21
199.6302091476598
 31
0.0
  0
LINE
  5
3694
330
1F
100
AcDbEntity
  8
0
370
    -2
100
AcDbLine
 10
386.3387732690417
 20
184.6302091476598
 30
0.0
 11
401.8387732690418
 21
184.6302091476598
 31
0.0
  0
CIRCLE
  5
3695
330
1F
100
AcDbEntity
  8
0
370
    -2
100
AcDbCircle
 10
391.1215807022864
 20
195.9400174957199
 30
0.0
 40
2.43
  0
CIRCLE
  5
3696
330
1F
100
AcDbEntity
  8
0
370
    -2
100
AcDbCircle
 10
397.4215807022864
 20
195.9400174957199
 30
0.0
 40
2.43
  0
CIRCLE
  5
3697
330
1F
100
AcDbEntity
  8
0
370
    -2
100
AcDbCircle
 10
397.4215807022864
 20
187.8400174957198
 30
0.0
 40
2.43
  0
CIRCLE
  5
3698
330
1F
100
AcDbEntity
  8
0
370
    -2
100
AcDbCircle
 10
391.1215807022864
 20
187.8400174957198
 30
0.0
 40
2.43
  0
LINE
  5
3699
330
1F
100
AcDbEntity
  8
0
370
    -2
100
AcDbLine
 10
389.3716402193064
 20
189.5260211451905
 30
0.0
 11
392.8715211852661
 21
186.1540138462493
 31
0.0
  0
LINE
  5
369A
330
1F
100
AcDbEntity
  8
0
370
    -2
100
AcDbLine
 10
395.6716402193063
 20
189.5260211451905
 30
0.0
 11
399.171521185266
 21
186.1540138462493
 31
0.0
  0
LINE
  5
369B
330
1F
100
AcDbEntity
  8
0
370
    -2
100
AcDbLine
 10
389.3716402193064
 20
197.6260211451905
 30
0.0
 11
392.8715211852661
 21
194.2540138462493
 31
0.0
  0
LINE
  5
369C
330
1F
100
AcDbEntity
  8
0
370
    -2
100
AcDbLine
 10
395.6716402193063
 20
197.6260211451905
 30
0.0
 11
399.171521185266
 21
194.2540138462493
 31
0.0
  0
LINE
  5
369D
330
1F
100
AcDbEntity
  8
0
370
    -2
100
AcDbLine
 10
401.8387732690417
 20
199.6302091476598
 30
0.0
 11
401.8387732690417
 21
200.1302091476598
 31
0.0
  0
LINE
  5
369E
330
1F
100
AcDbEntity
  8
0
370
    -2
100
AcDbLine
 10
401.8387732690417
 20
200.1302091476598
 30
0.0
 11
376.3387732690418
 21
200.1302091476598
 31
0.0
  0
LINE
  5
369F
330
1F
100
AcDbEntity
  8
0
370
    -2
100
AcDbLine
 10
380.438773275436
 20
198.1308617822685
 30
0.0
 11
380.438773275436
 21
194.8203422749873
 31
0.0
  0
LINE
  5
36A0
330
1F
100
AcDbEntity
  8
0
370
    -2
100
AcDbLine
 10
376.3387732690417
 20
199.63020914766
 30
0.0
 11
376.3387732690417
 21
200.1302091476597
 31
0.0
  0
LINE
  5
36A1
330
1F
100
AcDbEntity
  8
0
370
    -2
100
AcDbLine
 10
374.3498921784018
 20
199.1232656587746
 30
0.0
 11
380.0914769201022
 21
200.1356619607605
 31
0.0
  0
LINE
  5
36A2
330
1F
100
AcDbEntity
  8
0
370
    -2
100
AcDbLine
 10
382.438773275436
 20
198.166046454736
 30
0.0
 11
382.438773275436
 21
194.8203422749873
 31
0.0
  0
ARC
  5
36A3
330
1F
100
AcDbEntity
  8
0
370
    -2
100
AcDbCircle
 10
380.438773275436
 20
198.166046454736
 30
0.0
 40
2.0
100
AcDbArc
 50
0.0
 51
100.0000000000018
  0
LINE
  5
36A4
330
1F
100
AcDbEntity
  8
0
370
    -2
100
AcDbLine
 10
401.8387732690417
 20
184.3302091476594
 30
0.0
 11
376.3387732690417
 21
184.3302091476594
 31
0.0
  0
HATCH
  5
36CD
330
1F
100
AcDbEntity
  8
Rot
370
    -2
100
AcDbHatch
 10
0.0
 20
0.0
 30
0.0
210
0.0
220
0.0
230
1.0
  2
SOLID
 70
     1
 71
     0
 91
        5
 92
       16
 93
        1
 72
     2
 10
397.4215807022864
 20
148.569166429694
 40
2.43
 50
0.0
 51
360.0
 73
     1
 97
        0
 92
       16
 93
        1
 72
     2
 10
391.1215807022864
 20
148.569166429694
 40
2.43
 50
0.0
 51
360.0
 73
     1
 97
        0
 92
       16
 93
        1
 72
     2
 10
391.1215807022864
 20
140.4691664296939
 40
2.43
 50
0.0
 51
360.0
 73
     1
 97
        0
 92
       16
 93
        1
 72
     2
 10
397.4215807022864
 20
140.4691664296939
 40
2.43
 50
0.0
 51
360.0
 73
     1
 97
        0
 92
        1
 93
        4
 72
     1
 10
386.3387732690417
 20
137.2593580816339
 11
401.8387732690418
 21
137.2593580816339
 72
     1
 10
401.8387732690418
 20
137.2593580816339
 11
401.8387732690417
 21
152.2593580816339
 72
     1
 10
401.8387732690417
 20
152.2593580816339
 11
386.3387732690417
 21
152.2593580816339
 72
     1
 10
386.3387732690417
 20
152.2593580816339
 11
386.3387732690418
 21
137.2593580816339
 97
        0
 75
     0
 76
     1
 98
        1
 10
0.0
 20
-47.37085106602589
450
        0
451
        0
460
0.0
461
0.0
452
        0
462
0.0
453
        0
470

  0
LINE
  5
36CE
330
1F
100
AcDbEntity
  8
1
370
    -2
100
AcDbLine
 10
383.3880404774016
 20
145.7593558587927
 30
0.0
 11
383.3880404774016
 21
141.7593558587927
 31
0.0
  0
LINE
  5
36CF
330
1F
100
AcDbEntity
  8
1
370
    -2
100
AcDbLine
 10
384.3876382983395
 20
142.0593558587924
 30
0.0
 11
386.08763829834
 21
143.7593558587922
 31
0.0
  0
LINE
  5
36D0
330
1F
100
AcDbEntity
  8
0
370
    -2
100
AcDbLine
 10
376.3387732690417
 20
151.7593580816343
 30
0.0
 11
376.3387732690416
 21
136.9593580816335
 31
0.0
  0
LINE
  5
36D1
330
1F
100
AcDbEntity
  8
0
370
    -2
100
AcDbLine
 10
376.3387732690416
 20
136.9593580816335
 30
0.0
 11
376.3387732690417
 21
152.2593580816342
 31
0.0
  0
LINE
  5
36D2
330
1F
100
AcDbEntity
  8
1
370
    -2
100
AcDbLine
 10
384.3876382983399
 20
142.0593558587926
 30
0.0
 11
376.3387732690417
 21
142.0593558587924
 31
0.0
  0
LINE
  5
36D3
330
1F
100
AcDbEntity
  8
1
370
    -2
100
AcDbLine
 10
376.7327740768481
 20
141.7593558587924
 30
0.0
 11
376.3387732690417
 21
141.3653550509861
 31
0.0
  0
LINE
  5
36D4
330
1F
100
AcDbEntity
  8
1
370
    -2
100
AcDbLine
 10
383.3880404774019
 20
141.7593558587927
 30
0.0
 11
376.7327740768481
 21
141.7593558587924
 31
0.0
  0
LINE
  5
36D5
330
1F
100
AcDbEntity
  8
1
370
    -2
100
AcDbLine
 10
376.3387732690415
 20
143.7593558587924
 30
0.0
 11
375.693871610044
 21
143.7593558587924
 31
0.0
  0
LINE
  5
36D6
330
1F
100
AcDbEntity
  8
1
370
    -2
100
AcDbLine
 10
384.3876382983397
 20
145.4593558587927
 30
0.0
 11
376.3387732690417
 21
145.4593558587927
 31
0.0
  0
LINE
  5
36D7
330
1F
100
AcDbEntity
  8
1
370
    -2
100
AcDbLine
 10
384.3876382983395
 20
145.4593558587927
 30
0.0
 11
386.08763829834
 21
143.7593558587922
 31
0.0
  0
LINE
  5
36D8
330
1F
100
AcDbEntity
  8
1
370
    -2
100
AcDbLine
 10
376.7327740768481
 20
145.7593558587927
 30
0.0
 11
376.3387732690417
 21
146.153356666599
 31
0.0
  0
LINE
  5
36D9
330
1F
100
AcDbEntity
  8
1
370
    -2
100
AcDbLine
 10
383.3880404774019
 20
145.7593558587927
 30
0.0
 11
376.7327740768481
 21
145.7593558587927
 31
0.0
  0
ARC
  5
36DA
330
1F
100
AcDbEntity
  8
0
370
    -2
100
AcDbCircle
 10
374.4367162672352
 20
151.2600107162426
 30
0.0
 40
0.5
100
AcDbArc
 50
99.99999999999861
 51
270.0
  0
LINE
  5
36DB
330
1F
100
AcDbEntity
  8
0
370
    -2
100
AcDbLine
 10
380.438773275436
 20
150.7600107162426
 30
0.0
 11
374.4367162672352
 21
150.7600107162426
 31
0.0
  0
LINE
  5
36DC
330
1F
100
AcDbEntity
  8
0
370
    -2
100
AcDbLine
 10
401.8387732690417
 20
136.9593580816335
 30
0.0
 11
401.8387732690417
 21
152.2593580816339
 31
0.0
  0
LINE
  5
36DD
330
1F
100
AcDbEntity
  8
0
370
    -2
100
AcDbLine
 10
401.8387732690417
 20
136.9593580816335
 30
0.0
 11
401.8387732690417
 21
152.2593580816339
 31
0.0
  0
LINE
  5
36DE
330
1F
100
AcDbEntity
  8
0
370
    -2
100
AcDbLine
 10
401.8387732690417
 20
152.2593580816339
 30
0.0
 11
376.3387732690418
 21
152.2593580816341
 31
0.0
  0
LINE
  5
36DF
330
1F
100
AcDbEntity
  8
0
370
    -2
100
AcDbLine
 10
386.3387732690418
 20
137.2593580816339
 30
0.0
 11
386.3387732690417
 21
152.2593580816339
 31
0.0
  0
LINE
  5
36E0
330
1F
100
AcDbEntity
  8
0
370
    -2
100
AcDbLine
 10
386.3387732690417
 20
137.2593580816339
 30
0.0
 11
401.8387732690418
 21
137.2593580816339
 31
0.0
  0
CIRCLE
  5
36E1
330
1F
100
AcDbEntity
  8
0
370
    -2
100
AcDbCircle
 10
391.1215807022864
 20
148.569166429694
 30
0.0
 40
2.43
  0
CIRCLE
  5
36E2
330
1F
100
AcDbEntity
  8
0
370
    -2
100
AcDbCircle
 10
397.4215807022864
 20
148.569166429694
 30
0.0
 40
2.43
  0
CIRCLE
  5
36E3
330
1F
100
AcDbEntity
  8
0
370
    -2
100
AcDbCircle
 10
397.4215807022864
 20
140.4691664296939
 30
0.0
 40
2.43
  0
CIRCLE
  5
36E4
330
1F
100
AcDbEntity
  8
0
370
    -2
100
AcDbCircle
 10
391.1215807022864
 20
140.4691664296939
 30
0.0
 40
2.43
  0
LINE
  5
36E5
330
1F
100
AcDbEntity
  8
0
370
    -2
100
AcDbLine
 10
389.3716402193064
 20
142.1551700791646
 30
0.0
 11
392.8715211852661
 21
138.7831627802234
 31
0.0
  0
LINE
  5
36E6
330
1F
100
AcDbEntity
  8
0
370
    -2
100
AcDbLine
 10
395.6716402193063
 20
142.1551700791646
 30
0.0
 11
399.171521185266
 21
138.7831627802234
 31
0.0
  0
LINE
  5
36E7
330
1F
100
AcDbEntity
  8
0
370
    -2
100
AcDbLine
 10
389.3716402193064
 20
150.2551700791646
 30
0.0
 11
392.8715211852661
 21
146.8831627802234
 31
0.0
  0
LINE
  5
36E8
330
1F
100
AcDbEntity
  8
0
370
    -2
100
AcDbLine
 10
395.6716402193063
 20
150.2551700791646
 30
0.0
 11
399.171521185266
 21
146.8831627802234
 31
0.0
  0
LINE
  5
36E9
330
1F
100
AcDbEntity
  8
0
370
    -2
100
AcDbLine
 10
401.8387732690417
 20
152.2593580816339
 30
0.0
 11
401.8387732690417
 21
152.7593580816339
 31
0.0
  0
LINE
  5
36EA
330
1F
100
AcDbEntity
  8
0
370
    -2
100
AcDbLine
 10
401.8387732690417
 20
152.7593580816339
 30
0.0
 11
376.3387732690418
 21
152.7593580816339
 31
0.0
  0
LINE
  5
36EB
330
1F
100
AcDbEntity
  8
0
370
    -2
100
AcDbLine
 10
380.438773275436
 20
150.7600107162426
 30
0.0
 11
380.438773275436
 21
147.4494912089614
 31
0.0
  0
LINE
  5
36EC
330
1F
100
AcDbEntity
  8
0
370
    -2
100
AcDbLine
 10
376.3387732690417
 20
152.2593580816342
 30
0.0
 11
376.3387732690417
 21
152.7593580816338
 31
0.0
  0
LINE
  5
36ED
330
1F
100
AcDbEntity
  8
0
370
    -2
100
AcDbLine
 10
374.3498921784018
 20
151.7524145927487
 30
0.0
 11
380.0914769201022
 21
152.7648108947345
 31
0.0
  0
LINE
  5
36EE
330
1F
100
AcDbEntity
  8
0
370
    -2
100
AcDbLine
 10
382.438773275436
 20
150.7951953887101
 30
0.0
 11
382.438773275436
 21
147.4494912089614
 31
0.0
  0
ARC
  5
36EF
330
1F
100
AcDbEntity
  8
0
370
    -2
100
AcDbCircle
 10
380.438773275436
 20
150.7951953887101
 30
0.0
 40
2.0
100
AcDbArc
 50
0.0
 51
100.0000000000018
  0
LINE
  5
36F0
330
1F
100
AcDbEntity
  8
0
370
    -2
100
AcDbLine
 10
401.8387732690417
 20
136.9593580816335
 30
0.0
 11
376.3387732690417
 21
136.9593580816335
 31
0.0
  0
LINE
  5
36F1
330
1F
100
AcDbEntity
  8
0
370
    40
100
AcDbLine
 10
391.1215807022863
 20
193.51001749572
 30
0.0
 11
409.5463101327884
 21
193.51001749572
 31
0.0
  0
LINE
  5
36F9
330
1F
100
AcDbEntity
  8
0
370
    40
100
AcDbLine
 10
391.1215807022863
 20
185.4100174957199
 30
0.0
 11
409.5463101327884
 21
185.4100174957199
 31
0.0
  0
LINE
  5
3796
330
1F
100
AcDbEntity
  8
0
370
    40
100
AcDbLine
 10
397.4215807022863
 20
146.139166429694
 30
0.0
 11
409.5463101327884
 21
146.1391664296941
 31
0.0
  0
LINE
  5
3797
330
1F
100
AcDbEntity
  8
0
370
    40
100
AcDbLine
 10
397.4215807022863
 20
138.039166429694
 30
0.0
 11
409.5463101327884
 21
138.039166429694
 31
0.0
  0
LINE
  5
3799
330
1F
100
AcDbEntity
  8
0
370
    40
100
AcDbLine
 10
388.7215807022864
 20
148.569166429694
 30
0.0
 11
388.7215807022864
 21
140.4691664296939
 31
0.0
  0
LINE
  5
3870
330
1F
100
AcDbEntity
  8
Sichtbare Kanten(IBH-ISO)
370
    -2
100
AcDbLine
 10
501.2380101222602
 20
304.3984406139887
 30
0.0
 11
501.2380101222602
 21
320.1984406139887
 31
0.0
  0
LINE
  5
3871
330
1F
100
AcDbEntity
  8
0
370
    -3
100
AcDbLine
 10
509.78801012226
 20
304.3984406139887
 30
0.0
 11
509.7880101222602
 21
320.1984406139887
 31
0.0
  0
LINE
  5
3873
330
1F
100
AcDbEntity
  8
0
370
    -3
100
AcDbLine
 10
509.78801012226
 20
304.3984406139887
 30
0.0
 11
501.2380101222602
 21
304.3984406139887
 31
0.0
  0
LINE
  5
3876
330
1F
100
AcDbEntity
  8
Sichtbare Kanten(IBH-ISO)
370
    -2
100
AcDbLine
 10
484.3380101222601
 20
304.3984406139887
 30
0.0
 11
501.2380101222602
 21
304.3984406139887
 31
0.0
  0
LINE
  5
3886
330
1F
100
AcDbEntity
  8
Sichtbare Kanten(IBH-ISO)
370
    -2
100
AcDbLine
 10
501.2380101222602
 20
320.1984406139887
 30
0.0
 11
484.3380101222602
 21
320.1984406139887
 31
0.0
  0
LINE
  5
3887
330
1F
100
AcDbEntity
  8
0
370
    -3
100
AcDbLine
 10
509.78801012226
 20
320.1984406139887
 30
0.0
 11
501.2380101222602
 21
320.1984406139887
 31
0.0
  0
LINE
  5
3888
330
1F
100
AcDbEntity
  8
Sichtbare Kanten(IBH-ISO)
370
    -3
100
AcDbLine
 10
509.7880101222602
 20
318.543459914873
 30
0.0
 11
512.0140142295531
 21
318.699117285469
 31
0.0
  0
ARC
  5
3889
330
1F
100
AcDbEntity
  8
Sichtbare Kanten(IBH-ISO)
370
    -3
100
AcDbCircle
 10
511.9880101222602
 20
319.1984406139888
 30
0.0
 40
0.4999999999999992
100
AcDbArc
 50
272.9811961774493
 51
81.99999999999915
  0
LINE
  5
388A
330
1F
100
AcDbEntity
  8
Sichtbare Kanten(IBH-ISO)
370
    -3
100
AcDbLine
 10
512.0575966727403
 20
319.6935746483595
 30
0.0
 11
509.7880101222602
 21
320.0125442365933
 31
0.0
  0
DIMENSION
  5
45D9
330
1F
100
AcDbEntity
  8
Bemaßungen(IBH-ISO)
  6
Continuous
 62
     1
420
 16711680
370
    -2
100
AcDbDimension
  2
*D5
 10
465.5440138256548
 20
238.5484978859653
 30
0.0
 11
444.5440138256548
 21
238.5484978859653
 31
0.0
 70
   160
  1
<>
 71
     4
 42
42.00000000000005
  3
IBH-ISO-IBH-ISO
100
AcDbAlignedDimension
 13
423.5440138256548
 23
245.0484978859655
 33
0.0
 14
465.5440138256548
 24
245.0484978859655
 34
0.0
 50
180.0
100
AcDbRotatedDimension
1001
ACAD
1000
DSTYLE
1002
{
1070
   271
1070
     2
1070
   272
1070
     2
1070
    47
1040
0.0
1070
    48
1040
0.0
1002
}
  0
DIMENSION
  5
45DA
330
1F
100
AcDbEntity
  8
Bemaßungen(IBH-ISO)
  6
Continuous
 62
     1
420
 16711680
370
    -2
100
AcDbDimension
  2
*D6
 10
476.5940138256494
 20
276.4559787326332
 30
0.0
 11
444.3190138256494
 21
276.4559787326332
 31
0.0
 70
   160
  1
<>
 71
     4
 42
55.30000000000012
  3
IBH-ISO-IBH-ISO
100
AcDbAlignedDimension
 13
421.2940138256493
 23
272.8734978859664
 33
0.0
 14
476.5940138256494
 24
272.8234978859671
 34
0.0
 50
180.0
100
AcDbRotatedDimension
1001
ACAD
1000
DSTYLE
1002
{
1070
   271
1070
     2
1070
   272
1070
     2
1070
    47
1040
0.0
1070
    48
1040
0.0
1002
}
  0
DIMENSION
  5
45DB
330
1F
100
AcDbEntity
  8
Bemaßungen(IBH-ISO)
  6
Continuous
 62
     1
420
 16711680
370
    -2
100
AcDbDimension
  2
*D7
 10
474.2940138256495
 20
234.1584673291198
 30
0.0
 11
444.5440138256494
 21
234.1584673291198
 31
0.0
 70
   160
  1
<>
 71
     4
 42
59.5
  3
IBH-ISO-IBH-ISO
100
AcDbAlignedDimension
 13
414.7940138256494
 23
247.3734978859664
 33
0.0
 14
474.2940138256495
 24
247.3734978859664
 34
0.0
 50
180.0
100
AcDbRotatedDimension
1001
ACAD
1000
DSTYLE
1002
{
1070
   271
1070
     2
1070
   272
1070
     2
1070
    47
1040
0.0
1070
    48
1040
0.0
1002
}
  0
LINE
  5
45DC
330
1F
100
AcDbEntity
  8
Sichtbare Kanten(IBH-ISO)
370
    -2
100
AcDbLine
 10
465.7940138256495
 20
259.1234978859662
 30
0.0
 11
423.2940138256489
 21
259.1234978859668
 31
0.0
  0
LINE
  5
45DD
330
1F
100
AcDbEntity
  8
Sichtbare Kanten(IBH-ISO)
370
    -2
100
AcDbLine
 10
421.3940138256494
 20
272.1234978859638
 30
0.0
 11
465.2940138256504
 21
272.1234978859632
 31
0.0
  0
LINE
  5
45DE
330
1F
100
AcDbEntity
  8
Sichtbare Kanten(IBH-ISO)
370
    -2
100
AcDbLine
 10
423.5440138256548
 20
252.1371594051986
 30
0.0
 11
465.5440138256557
 21
252.1371594051986
 31
0.0
  0
LINE
  5
45DF
330
1F
100
AcDbEntity
  8
Sichtbare Kanten(IBH-ISO)
370
    -2
100
AcDbLine
 10
465.5440138256557
 20
252.3598363667348
 30
0.0
 11
423.5440138256548
 21
252.3598363667348
 31
0.0
  0
LINE
  5
45E0
330
1F
100
AcDbEntity
  8
Sichtbare Kanten(IBH-ISO)
370
    -2
100
AcDbLine
 10
423.5440138256548
 20
245.0484978859662
 30
0.0
 11
465.5440138256557
 21
245.0484978859662
 31
0.0
  0
LINE
  5
45E1
330
1F
100
AcDbEntity
  8
Sichtbare Kanten(IBH-ISO)
370
    -2
100
AcDbLine
 10
423.5440138256548
 20
253.0484978859664
 30
0.0
 11
465.5440138256557
 21
253.0484978859663
 31
0.0
  0
LINE
  5
45E2
330
1F
100
AcDbEntity
  8
Sichtbare Kanten(IBH-ISO)
370
    -2
100
AcDbLine
 10
465.5440138256556
 20
253.5484978859662
 30
0.0
 11
423.5440138256495
 21
253.5484978859664
 31
0.0
  0
LINE
  5
45E3
330
1F
100
AcDbEntity
  8
Sichtbare Kanten(IBH-ISO)
370
    -2
100
AcDbLine
 10
423.5440138256495
 20
258.548497885968
 30
0.0
 11
465.5440138256556
 21
258.548497885968
 31
0.0
  0
LINE
  5
45E4
330
1F
100
AcDbEntity
  8
Sichtbare Kanten(IBH-ISO)
370
    -2
100
AcDbLine
 10
438.2130393859863
 20
258.6577605741946
 30
0.0
 11
423.5440138256495
 21
258.6577605741947
 31
0.0
  0
LINE
  5
45E5
330
1F
100
AcDbEntity
  8
Sichtbare Kanten(IBH-ISO)
370
    -2
100
AcDbLine
 10
421.2940138256493
 20
272.8734978859664
 30
0.0
 11
474.2940138256495
 21
272.8734978859664
 31
0.0
  0
LINE
  5
45E6
330
1F
100
AcDbEntity
  8
Sichtbare Kanten(IBH-ISO)
370
    -2
100
AcDbLine
 10
474.2940138256495
 20
272.2234978859664
 30
0.0
 11
421.2940138256493
 21
272.2234978859664
 31
0.0
  0
DIMENSION
  5
45E7
330
1F
100
AcDbEntity
  8
Bemaßungen(IBH-ISO)
  6
Continuous
 62
     1
420
 16711680
370
    -2
100
AcDbDimension
  2
*D8
 10
402.8294742744677
 20
272.8734978859666
 30
0.0
 11
402.8294742744676
 21
260.1234978859665
 31
0.0
 70
   160
  1
<>
 71
     4
 42
25.50000000000026
  3
IBH-ISO-IBH-ISO
100
AcDbAlignedDimension
 13
414.7940138256494
 23
247.3734978859664
 33
0.0
 14
421.2940138256493
 24
272.8734978859666
 34
0.0
 50
90.0
100
AcDbRotatedDimension
1001
ACAD
1000
DSTYLE
1002
{
1070
   279
1070
     1
1070
   271
1070
     2
1070
   272
1070
     2
1070
    47
1040
0.0
1070
    48
1040
0.0
1002
}
  0
LINE
  5
45E9
330
1F
100
AcDbEntity
  8
Sichtbare Kanten(IBH-ISO)
370
    -2
100
AcDbLine
 10
421.2940138256493
 20
272.8734978859666
 30
0.0
 11
421.2940138256493
 21
255.8734978859665
 31
0.0
  0
LINE
  5
45EA
330
1F
100
AcDbEntity
  8
Sichtbare Kanten(IBH-ISO)
370
    -2
100
AcDbLine
 10
421.3940138256502
 20
255.773497885965
 30
0.0
 11
421.3940138256494
 21
272.1234978859638
 31
0.0
  0
DIMENSION
  5
45EB
330
1F
100
AcDbEntity
  8
Bemaßungen(IBH-ISO)
  6
Continuous
 62
     1
420
 16711680
370
    -2
100
AcDbDimension
  2
*D9
 10
406.1958494389431
 20
255.8734978859664
 30
0.0
 11
406.1958494389431
 21
251.6234978859665
 31
0.0
 70
   160
  1
<>
 71
     4
 42
8.5
  3
IBH-ISO-IBH-ISO
100
AcDbAlignedDimension
 13
414.7940138256494
 23
247.3734978859664
 33
0.0
 14
414.7940138256494
 24
255.8734978859664
 34
0.0
 50
90.0
100
AcDbRotatedDimension
1001
ACAD
1000
DSTYLE
1002
{
1070
   279
1070
     1
1070
   271
1070
     2
1070
   272
1070
     2
1070
    47
1040
0.0
1070
    48
1040
0.0
1002
}
  0
LINE
  5
45ED
330
1F
100
AcDbEntity
  8
Sichtbare Kanten(IBH-ISO)
370
    -2
100
AcDbLine
 10
423.2940138256489
 20
259.1234978859668
 30
0.0
 11
423.2940138256489
 21
248.1234978859643
 31
0.0
  0
LINE
  5
45EE
330
1F
100
AcDbEntity
  8
Sichtbare Kanten(IBH-ISO)
370
    -2
100
AcDbLine
 10
415.5440138256502
 20
250.8734978859642
 30
0.0
 11
415.5440138256501
 21
255.7734978859654
 31
0.0
  0
LINE
  5
45EF
330
1F
100
AcDbEntity
  8
Sichtbare Kanten(IBH-ISO)
370
    -2
100
AcDbLine
 10
423.5440138256495
 20
253.5484978859664
 30
0.0
 11
423.5440138256495
 21
258.548497885968
 31
0.0
  0
LINE
  5
45F0
330
1F
100
AcDbEntity
  8
Sichtbare Kanten(IBH-ISO)
370
    -2
100
AcDbLine
 10
414.7940138256494
 20
247.3734978859664
 30
0.0
 11
414.7940138256494
 21
255.8734978859664
 31
0.0
  0
LINE
  5
45F1
330
1F
100
AcDbEntity
  8
Sichtbare Kanten(IBH-ISO)
370
    -2
100
AcDbLine
 10
415.4440138256494
 20
255.8734978859664
 30
0.0
 11
415.4440138256493
 21
248.0234978859664
 31
0.0
  0
ARC
  5
45F2
330
1F
100
AcDbEntity
  8
Sichtbare Kanten(IBH-ISO)
370
    -2
100
AcDbCircle
 10
421.4940138256493
 20
248.0234978859652
 30
0.0
 40
0.5499999999999972
100
AcDbArc
 50
180.0
 51
0.0
  0
LINE
  5
45F3
330
1F
100
AcDbEntity
  8
Sichtbare Kanten(IBH-ISO)
370
    -2
100
AcDbLine
 10
423.2940138256489
 20
248.1234978859643
 30
0.0
 11
418.2940138256499
 21
248.1234978859644
 31
0.0
  0
LINE
  5
45F4
330
1F
100
AcDbEntity
  8
Sichtbare Kanten(IBH-ISO)
370
    -2
100
AcDbLine
 10
420.7940138256494
 20
247.3734978859625
 30
0.0
 11
422.1940138256494
 21
247.3734978859619
 31
0.0
  0
ARC
  5
45F5
330
1F
100
AcDbEntity
  8
Sichtbare Kanten(IBH-ISO)
370
    -2
100
AcDbCircle
 10
418.2940138256498
 20
250.8734978859641
 30
0.0
 40
2.750000000000615
100
AcDbArc
 50
180.0
 51
270.0000000000033
  0
ARC
  5
45F6
330
1F
100
AcDbEntity
  8
Sichtbare Kanten(IBH-ISO)
370
    -2
100
AcDbCircle
 10
418.2940138256498
 20
250.8734978859641
 30
0.0
 40
2.750000000000619
100
AcDbArc
 50
270.0
 51
180.0
  0
LINE
  5
45F7
330
1F
100
AcDbEntity
  8
Sichtbare Kanten(IBH-ISO)
370
    -2
100
AcDbLine
 10
418.2940138256499
 20
248.1234978859644
 30
0.0
 11
415.5440138256503
 21
248.1234978859644
 31
0.0
  0
LINE
  5
45F9
330
1F
100
AcDbEntity
  8
Sichtbare Kanten(IBH-ISO)
370
    -2
100
AcDbLine
 10
415.4440138256493
 20
248.0234978859664
 30
0.0
 11
420.7940138256494
 21
248.0234978859664
 31
0.0
  0
LINE
  5
45FA
330
1F
100
AcDbEntity
  8
Sichtbare Kanten(IBH-ISO)
370
    -2
100
AcDbLine
 10
420.7940138256494
 20
247.3734978859664
 30
0.0
 11
414.7940138256494
 21
247.3734978859664
 31
0.0
  0
LINE
  5
45FB
330
1F
100
AcDbEntity
  8
Sichtbare Kanten(IBH-ISO)
370
    -2
100
AcDbLine
 10
415.5440138256503
 20
248.1234978859644
 30
0.0
 11
415.5440138256502
 21
250.8734978859642
 31
0.0
  0
CIRCLE
  5
45FD
330
1F
100
AcDbEntity
  8
Sichtbare Kanten(IBH-ISO)
370
    -2
100
AcDbCircle
 10
418.2940138256478
 20
250.8734978859652
 30
0.0
 40
2.350000000000013
  0
LINE
  5
4777
330
1F
100
AcDbEntity
  8
Sichtbare Kanten(IBH-ISO)
370
    -2
100
AcDbLine
 10
420.9440138256494
 20
248.123497885966
 30
0.0
 11
420.9440138256494
 21
248.0234978859652
 31
0.0
  0
LINE
  5
4779
330
1F
100
AcDbEntity
  8
Sichtbare Kanten(IBH-ISO)
370
    -2
100
AcDbLine
 10
420.7940138256494
 20
248.0234978859661
 30
0.0
 11
420.7940138256494
 21
248.123497885966
 31
0.0
  0
LINE
  5
477A
330
1F
100
AcDbEntity
  8
Sichtbare Kanten(IBH-ISO)
370
    -2
100
AcDbLine
 10
420.7940138256494
 20
248.0234978859664
 30
0.0
 11
420.7940138256494
 21
247.3734978859664
 31
0.0
  0
LINE
  5
48BE
330
1F
100
AcDbEntity
  8
Sichtbare Kanten(IBH-ISO)
370
    -2
100
AcDbLine
 10
423.5440138256548
 20
245.4789113354863
 30
0.0
 11
423.5440138256548
 21
252.1371594051986
 31
0.0
  0
LINE
  5
48BF
330
1F
100
AcDbEntity
  8
Sichtbare Kanten(IBH-ISO)
370
    -2
100
AcDbLine
 10
423.5440138256548
 20
245.4789113354863
 30
0.0
 11
423.5440138256548
 21
245.0484978859662
 31
0.0
  0
LINE
  5
48C0
330
1F
100
AcDbEntity
  8
Sichtbare Kanten(IBH-ISO)
370
    -2
100
AcDbLine
 10
422.0440138256493
 20
248.0234978859652
 30
0.0
 11
422.0440138256493
 21
248.123497885966
 31
0.0
  0
LINE
  5
48C1
330
1F
100
AcDbEntity
  8
Sichtbare Kanten(IBH-ISO)
370
    -2
100
AcDbLine
 10
421.4940138256493
 20
247.4734978859627
 30
0.0
 11
422.1940138256494
 21
247.4734978859623
 31
0.0
  0
LINE
  5
48C2
330
1F
100
AcDbEntity
  8
Sichtbare Kanten(IBH-ISO)
370
    -2
100
AcDbLine
 10
423.2940138256494
 20
248.0234978859661
 30
0.0
 11
423.2940138256494
 21
248.123497885966
 31
0.0
  0
LINE
  5
48C3
330
1F
100
AcDbEntity
  8
Sichtbare Kanten(IBH-ISO)
370
    -2
100
AcDbLine
 10
423.2940138256494
 20
247.3734978859649
 30
0.0
 11
423.5440138256548
 21
247.3734978859649
 31
0.0
  0
LINE
  5
48C4
330
1F
100
AcDbEntity
  8
Sichtbare Kanten(IBH-ISO)
370
    -2
100
AcDbLine
 10
422.1940138256494
 20
248.123497885966
 30
0.0
 11
422.1940138256494
 21
248.0234978859661
 31
0.0
  0
LINE
  5
48C5
330
1F
100
AcDbEntity
  8
Sichtbare Kanten(IBH-ISO)
370
    -2
100
AcDbLine
 10
422.1940138256494
 20
248.0234978859664
 30
0.0
 11
423.2940138256494
 21
248.0234978859664
 31
0.0
  0
LINE
  5
48C6
330
1F
100
AcDbEntity
  8
Sichtbare Kanten(IBH-ISO)
370
    -2
100
AcDbLine
 10
423.2940138256494
 20
248.0234978859664
 30
0.0
 11
423.2940138256494
 21
247.3734978859664
 31
0.0
  0
LINE
  5
48C7
330
1F
100
AcDbEntity
  8
Sichtbare Kanten(IBH-ISO)
370
    -2
100
AcDbLine
 10
423.2940138256494
 20
247.3734978859664
 30
0.0
 11
422.1940138256494
 21
247.3734978859664
 31
0.0
  0
LINE
  5
48C8
330
1F
100
AcDbEntity
  8
Sichtbare Kanten(IBH-ISO)
370
    -2
100
AcDbLine
 10
422.1940138256494
 20
247.3734978859664
 30
0.0
 11
422.1940138256494
 21
248.0234978859664
 31
0.0
  0
LINE
  5
48C9
330
1F
100
AcDbEntity
  8
Sichtbare Kanten(IBH-ISO)
370
    -2
100
AcDbLine
 10
423.5440138256548
 20
252.3598363667348
 30
0.0
 11
423.5440138256548
 21
252.1371594051986
 31
0.0
  0
LINE
  5
48CA
330
1F
100
AcDbEntity
  8
Sichtbare Kanten(IBH-ISO)
370
    -2
100
AcDbLine
 10
424.1883513929482
 20
253.2984978859592
 30
0.0
 11
424.0440138256548
 21
253.0484978859663
 31
0.0
  0
LINE
  5
48CB
330
1F
100
AcDbEntity
  8
Sichtbare Kanten(IBH-ISO)
370
    -2
100
AcDbLine
 10
423.5440138256548
 20
253.0484978859664
 30
0.0
 11
423.5440138256548
 21
252.3598363667348
 31
0.0
  0
LINE
  5
48CC
330
1F
100
AcDbEntity
  8
Sichtbare Kanten(IBH-ISO)
370
    -2
100
AcDbLine
 10
424.3326889602444
 20
253.0484978859661
 30
0.0
 11
424.0440138256496
 21
253.5484978859663
 31
0.0
  0
LINE
  5
48CD
330
1F
100
AcDbEntity
  8
Sichtbare Kanten(IBH-ISO)
370
    -2
100
AcDbLine
 10
423.2940138256494
 20
254.3734978859649
 30
0.0
 11
423.5440138256499
 21
254.3137113080302
 31
0.0
  0
LINE
  5
48D0
330
1F
100
AcDbEntity
  8
Sichtbare Kanten(IBH-ISO)
370
    -2
100
AcDbLine
 10
415.5440138256501
 20
255.7734978859654
 30
0.0
 11
421.3940138256502
 21
255.773497885965
 31
0.0
  0
LINE
  5
48D1
330
1F
100
AcDbEntity
  8
Sichtbare Kanten(IBH-ISO)
370
    -2
100
AcDbLine
 10
414.7940138256494
 20
255.8734978859664
 30
0.0
 11
421.2940138256493
 21
255.8734978859664
 31
0.0
  0
LINE
  5
48D5
330
1F
100
AcDbEntity
  8
Sichtbare Kanten(IBH-ISO)
370
    -2
100
AcDbLine
 10
421.2940138256493
 20
255.773497885965
 30
0.0
 11
421.2940138256493
 21
255.8734978859664
 31
0.0
  0
LINE
  5
48F9
330
1F
100
AcDbEntity
  8
Sichtbare Kanten(IBH-ISO)
370
    -2
100
AcDbLine
 10
423.5440138256495
 20
258.5974531949807
 30
0.0
 11
423.5440138256495
 21
258.548497885968
 31
0.0
  0
LINE
  5
48FA
330
1F
100
AcDbEntity
  8
Sichtbare Kanten(IBH-ISO)
370
    -2
100
AcDbLine
 10
423.5440138256495
 20
258.5974531949807
 30
0.0
 11
423.5440138256495
 21
258.6577605741947
 31
0.0
  0
LINE
  5
48FB
330
1F
100
AcDbEntity
  8
Sichtbare Kanten(IBH-ISO)
370
    -2
100
AcDbLine
 10
423.5440138256499
 20
257.8734978859638
 30
0.0
 11
423.2940138256494
 21
257.8734978859638
 31
0.0
  0
CIRCLE
  5
48FC
330
1F
100
AcDbEntity
  8
Sichtbare Kanten(IBH-ISO)
370
    -2
100
AcDbCircle
 10
424.2940138256471
 20
267.3734978859623
 30
0.0
 40
2.350000000000008
  0
CIRCLE
  5
496B
330
1F
100
AcDbEntity
  8
Sichtbare Kanten(IBH-ISO)
370
    -2
100
AcDbCircle
 10
424.2940138256498
 20
267.3734978859649
 30
0.0
 40
2.750000000000618
  0
LINE
  5
4BBB
330
1F
100
AcDbEntity
  8
Sichtbare Kanten(IBH-ISO)
370
    -2
100
AcDbLine
 10
421.2940138256493
 20
272.2234978859664
 30
0.0
 11
421.2940138256493
 21
272.8734978859664
 31
0.0
  0
LINE
  5
4BBC
330
1F
100
AcDbEntity
  8
Sichtbare Kanten(IBH-ISO)
370
    -2
100
AcDbLine
 10
476.5940138256494
 20
272.8234978859671
 30
0.0
 11
476.5940138256494
 21
254.9234978859666
 31
0.0
  0
LINE
  5
4BBD
330
1F
100
AcDbEntity
  8
Sichtbare Kanten(IBH-ISO)
370
    -2
100
AcDbLine
 10
472.7940138256494
 20
254.9234978859666
 30
0.0
 11
472.7940138256494
 21
272.1734978859671
 31
0.0
  0
CIRCLE
  5
4BBE
330
1F
100
AcDbEntity
  8
Sichtbare Kanten(IBH-ISO)
370
    -2
100
AcDbCircle
 10
465.2940138256428
 20
269.3734978859626
 30
0.0
 40
2.350000000000008
  0
CIRCLE
  5
4BBF
330
1F
100
AcDbEntity
  8
Sichtbare Kanten(IBH-ISO)
370
    -2
100
AcDbCircle
 10
465.2940138256504
 20
269.3734978859657
 30
0.0
 40
2.750000000000618
  0
LINE
  5
4BC0
330
1F
100
AcDbEntity
  8
Sichtbare Kanten(IBH-ISO)
370
    -2
100
AcDbLine
 10
472.7940138256494
 20
254.9234978859667
 30
0.0
 11
472.7940138256488
 21
272.1234978859631
 31
0.0
  0
DIMENSION
  5
4BC1
330
1F
100
AcDbEntity
  8
Bemaßungen(IBH-ISO)
  6
Continuous
 62
     1
420
 16711680
370
    -2
100
AcDbDimension
  2
*D10
 10
484.7940138256496
 20
254.9234978859666
 30
0.0
 11
484.7940138256496
 21
251.1484978859665
 31
0.0
 70
   160
  1
<>
 71
     4
 42
7.550000000000181
  3
IBH-ISO-IBH-ISO
100
AcDbAlignedDimension
 13
474.2940138256495
 23
247.3734978859664
 33
0.0
 14
476.5940138256495
 24
254.9234978859666
 34
0.0
 50
90.0
100
AcDbRotatedDimension
1001
ACAD
1000
DSTYLE
1002
{
1070
   279
1070
     1
1070
   271
1070
     2
1070
   272
1070
     2
1070
    47
1040
0.0
1070
    48
1040
0.0
1002
}
  0
DIMENSION
  5
4BC2
330
1F
100
AcDbEntity
  8
Bemaßungen(IBH-ISO)
  6
Continuous
 62
     1
420
 16711680
370
    -2
100
AcDbDimension
  2
*D11
 10
474.2940138256495
 20
242.0357777198424
 30
0.0
 11
481.6533887474184
 21
242.0357777198424
 31
0.0
 70
   160
  1
<>
 71
     4
 42
2.300000000000068
  3
IBH-ISO-IBH-ISO
100
AcDbAlignedDimension
 13
476.5940138256495
 23
254.9234978859666
 33
0.0
 14
474.2940138256495
 24
247.3734978859664
 34
0.0
 50
180.0
100
AcDbRotatedDimension
1001
ACAD
1000
DSTYLE
1002
{
1070
   271
1070
     2
1070
   272
1070
     2
1070
    47
1040
0.0
1070
    48
1040
0.0
1002
}
  0
LINE
  5
4BC3
330
1F
100
AcDbEntity
  8
Sichtbare Kanten(IBH-ISO)
370
    -2
100
AcDbLine
 10
465.5440138256556
 20
258.6577605741946
 30
0.0
 11
450.8749882653188
 21
258.6577605741946
 31
0.0
  0
POLYLINE
  5
4BC4
330
1F
100
AcDbEntity
  8
Sichtbare Kanten(IBH-ISO)
370
    -2
100
AcDb2dPolyline
 66
     1
 10
0.0
 20
0.0
 30
0.0
 70
   128
  0
VERTEX
  5
4BC5
330
4BC4
100
AcDbEntity
  8
Sichtbare Kanten(IBH-ISO)
370
    -2
100
AcDbVertex
100
AcDb2dVertex
 10
438.21303996205
 20
258.6577606245823
 30
0.0
  0
VERTEX
  5
4BC6
330
4BC4
100
AcDbEntity
  8
Sichtbare Kanten(IBH-ISO)
370
    -2
100
AcDbVertex
100
AcDb2dVertex
 10
438.5474303638902
 20
258.6648082777806
 30
0.0
  0
VERTEX
  5
4BC7
330
4BC4
100
AcDbEntity
  8
Sichtbare Kanten(IBH-ISO)
370
    -2
100
AcDbVertex
100
AcDb2dVertex
 10
438.8757291710344
 20
258.6860942885227
 30
0.0
  0
VERTEX
  5
4BC8
330
4BC4
100
AcDbEntity
  8
Sichtbare Kanten(IBH-ISO)
370
    -2
100
AcDbVertex
100
AcDb2dVertex
 10
439.1871884739368
 20
258.7218070074864
 30
0.0
  0
VERTEX
  5
4BC9
330
4BC4
100
AcDbEntity
  8
Sichtbare Kanten(IBH-ISO)
370
    -2
100
AcDbVertex
100
AcDb2dVertex
 10
439.4731334125964
 20
258.7713360831089
 30
0.0
  0
VERTEX
  5
4BCA
330
4BC4
100
AcDbEntity
  8
Sichtbare Kanten(IBH-ISO)
370
    -2
100
AcDbVertex
100
AcDb2dVertex
 10
439.7217431938617
 20
258.8320875212497
 30
0.0
  0
VERTEX
  5
4BCB
330
4BC4
100
AcDbEntity
  8
Sichtbare Kanten(IBH-ISO)
370
    -2
100
AcDbVertex
100
AcDb2dVertex
 10
439.9148837006062
 20
258.8971757933444
 30
0.0
  0
VERTEX
  5
4BCC
330
4BC4
100
AcDbEntity
  8
Sichtbare Kanten(IBH-ISO)
370
    -2
100
AcDbVertex
100
AcDb2dVertex
 10
439.9862662231892
 20
258.9278006598299
 30
0.0
  0
VERTEX
  5
4BCD
330
4BC4
100
AcDbEntity
  8
Sichtbare Kanten(IBH-ISO)
370
    -2
100
AcDbVertex
100
AcDb2dVertex
 10
440.0378349697559
 20
258.9537334486788
 30
0.0
  0
VERTEX
  5
4BCE
330
4BC4
100
AcDbEntity
  8
Sichtbare Kanten(IBH-ISO)
370
    -2
100
AcDbVertex
100
AcDb2dVertex
 10
440.0683263218373
 20
258.9720940634554
 30
0.0
  0
VERTEX
  5
4BCF
330
4BC4
100
AcDbEntity
  8
Sichtbare Kanten(IBH-ISO)
370
    -2
100
AcDbVertex
100
AcDb2dVertex
 10
440.0783589756458
 20
258.9791035696809
 30
0.0
  0
SEQEND
  5
4BD0
330
4BC4
100
AcDbEntity
  8
Sichtbare Kanten(IBH-ISO)
370
    -2
  0
LINE
  5
4BD1
330
1F
100
AcDbEntity
  8
Sichtbare Kanten(IBH-ISO)
370
    -2
100
AcDbLine
 10
440.1439394228707
 20
259.1234978859735
 30
0.0
 11
440.0499078673308
 21
258.9606304542639
 31
0.0
  0
POLYLINE
  5
4BD2
330
1F
100
AcDbEntity
  8
Sichtbare Kanten(IBH-ISO)
370
    -2
100
AcDb2dPolyline
 66
     1
 10
0.0
 20
0.0
 30
0.0
 70
   128
  0
VERTEX
  5
4BD3
330
4BD2
100
AcDbEntity
  8
Sichtbare Kanten(IBH-ISO)
370
    -2
100
AcDbVertex
100
AcDb2dVertex
 10
449.0096691524964
 20
258.9791035696809
 30
0.0
  0
VERTEX
  5
4BD4
330
4BD2
100
AcDbEntity
  8
Sichtbare Kanten(IBH-ISO)
370
    -2
100
AcDbVertex
100
AcDb2dVertex
 10
449.0195706760865
 20
258.9721107527558
 30
0.0
  0
VERTEX
  5
4BD5
330
4BD2
100
AcDbEntity
  8
Sichtbare Kanten(IBH-ISO)
370
    -2
100
AcDbVertex
100
AcDb2dVertex
 10
449.050333825348
 20
258.9537358328645
 30
0.0
  0
VERTEX
  5
4BD6
330
4BD2
100
AcDbEntity
  8
Sichtbare Kanten(IBH-ISO)
370
    -2
100
AcDbVertex
100
AcDb2dVertex
 10
449.1017964756472
 20
258.9276146933382
 30
0.0
  0
VERTEX
  5
4BD7
330
4BD2
100
AcDbEntity
  8
Sichtbare Kanten(IBH-ISO)
370
    -2
100
AcDbVertex
100
AcDb2dVertex
 10
449.1728523647767
 20
258.8971376463717
 30
0.0
  0
VERTEX
  5
4BD8
330
4BD2
100
AcDbEntity
  8
Sichtbare Kanten(IBH-ISO)
370
    -2
100
AcDbVertex
100
AcDb2dVertex
 10
449.3662360584719
 20
258.8320207640475
 30
0.0
  0
VERTEX
  5
4BD9
330
4BD2
100
AcDbEntity
  8
Sichtbare Kanten(IBH-ISO)
370
    -2
100
AcDbVertex
100
AcDb2dVertex
 10
449.6142390644534
 20
258.7713861510104
 30
0.0
  0
VERTEX
  5
4BDA
330
4BD2
100
AcDbEntity
  8
Sichtbare Kanten(IBH-ISO)
370
    -2
100
AcDbVertex
100
AcDb2dVertex
 10
449.9009684002383
 20
258.7218165442295
 30
0.0
  0
VERTEX
  5
4BDB
330
4BD2
100
AcDbEntity
  8
Sichtbare Kanten(IBH-ISO)
370
    -2
100
AcDbVertex
100
AcDb2dVertex
 10
450.2132848179325
 20
258.6859726950474
 30
0.0
  0
VERTEX
  5
4BDC
330
4BD2
100
AcDbEntity
  8
Sichtbare Kanten(IBH-ISO)
370
    -2
100
AcDbVertex
100
AcDb2dVertex
 10
450.5412796413883
 20
258.6646938368626
 30
0.0
  0
VERTEX
  5
4BDD
330
4BD2
100
AcDbEntity
  8
Sichtbare Kanten(IBH-ISO)
370
    -2
100
AcDbVertex
100
AcDb2dVertex
 10
450.8749893581852
 20
258.6577606245823
 30
0.0
  0
SEQEND
  5
4BDE
330
4BD2
100
AcDbEntity
  8
Sichtbare Kanten(IBH-ISO)
370
    -2
  0
LINE
  5
4BDF
330
1F
100
AcDbEntity
  8
Sichtbare Kanten(IBH-ISO)
370
    -2
100
AcDbLine
 10
449.0380877876084
 20
258.9606858735952
 30
0.0
 11
448.9440882284346
 21
259.1234978859735
 31
0.0
  0
LINE
  5
4BE0
330
1F
100
AcDbEntity
  8
Sichtbare Kanten(IBH-ISO)
370
    -2
100
AcDbLine
 10
465.7940138256499
 20
248.1234978859638
 30
0.0
 11
465.7940138256495
 21
259.1234978859662
 31
0.0
  0
LINE
  5
4BE1
330
1F
100
AcDbEntity
  8
Sichtbare Kanten(IBH-ISO)
370
    -2
100
AcDbLine
 10
473.5440138256514
 20
254.9234978859667
 30
0.0
 11
473.5440138256516
 21
248.1234978859637
 31
0.0
  0
LINE
  5
4BE2
330
1F
100
AcDbEntity
  8
Sichtbare Kanten(IBH-ISO)
370
    -2
100
AcDbLine
 10
465.5440138256556
 20
258.548497885968
 30
0.0
 11
465.5440138256556
 21
253.5484978859662
 31
0.0
  0
LINE
  5
4BE3
330
1F
100
AcDbEntity
  8
Sichtbare Kanten(IBH-ISO)
370
    -2
100
AcDbLine
 10
473.6440138256494
 20
248.0234978859664
 30
0.0
 11
473.6440138256494
 21
254.8734978859664
 31
0.0
  0
LINE
  5
4BE4
330
1F
100
AcDbEntity
  8
Sichtbare Kanten(IBH-ISO)
370
    -2
100
AcDbLine
 10
474.2940138256495
 20
254.8734978859664
 30
0.0
 11
474.2940138256495
 21
247.3734978859664
 31
0.0
  0
CIRCLE
  5
4BE5
330
1F
100
AcDbEntity
  8
Sichtbare Kanten(IBH-ISO)
370
    -2
100
AcDbCircle
 10
470.2940138256508
 20
250.873497885964
 30
0.0
 40
2.750000000000618
  0
LINE
  5
4BE6
330
1F
100
AcDbEntity
  8
Sichtbare Kanten(IBH-ISO)
370
    -2
100
AcDbLine
 10
470.2940138256509
 20
248.1234978859637
 30
0.0
 11
465.7940138256499
 21
248.1234978859638
 31
0.0
  0
LINE
  5
4BE8
330
1F
100
AcDbEntity
  8
Sichtbare Kanten(IBH-ISO)
370
    -2
100
AcDbLine
 10
474.2940138256495
 20
247.3734978859664
 30
0.0
 11
465.7940138256495
 21
247.3734978859664
 31
0.0
  0
LINE
  5
4BE9
330
1F
100
AcDbEntity
  8
Sichtbare Kanten(IBH-ISO)
370
    -2
100
AcDbLine
 10
465.7940138256495
 20
248.0234978859664
 30
0.0
 11
473.6440138256494
 21
248.0234978859664
 31
0.0
  0
LINE
  5
4BEA
330
1F
100
AcDbEntity
  8
Sichtbare Kanten(IBH-ISO)
370
    -2
100
AcDbLine
 10
465.5440138256557
 20
245.4789113354863
 30
0.0
 11
465.5440138256557
 21
252.1371594051986
 31
0.0
  0
LINE
  5
4BEB
330
1F
100
AcDbEntity
  8
Sichtbare Kanten(IBH-ISO)
370
    -2
100
AcDbLine
 10
465.5440138256557
 20
245.4789113354863
 30
0.0
 11
465.5440138256557
 21
245.0484978859662
 31
0.0
  0
LINE
  5
4BED
330
1F
100
AcDbEntity
  8
Sichtbare Kanten(IBH-ISO)
370
    -2
100
AcDbLine
 10
465.5440138256548
 20
247.3734978859649
 30
0.0
 11
465.7940138256495
 21
247.3734978859649
 31
0.0
  0
LINE
  5
4BEE
330
1F
100
AcDbEntity
  8
Sichtbare Kanten(IBH-ISO)
370
    -2
100
AcDbLine
 10
465.7940138256495
 20
248.1234978859654
 30
0.0
 11
465.7940138256495
 21
248.0234978859661
 31
0.0
  0
LINE
  5
4BEF
330
1F
100
AcDbEntity
  8
Sichtbare Kanten(IBH-ISO)
370
    -2
100
AcDbLine
 10
465.7940138256495
 20
247.3734978859664
 30
0.0
 11
465.7940138256495
 21
248.0234978859664
 31
0.0
  0
LINE
  5
4BF0
330
1F
100
AcDbEntity
  8
Sichtbare Kanten(IBH-ISO)
370
    -2
100
AcDbLine
 10
465.0440138256556
 20
253.0484978859662
 30
0.0
 11
464.8996762583573
 21
253.2984978859678
 31
0.0
  0
LINE
  5
4BF1
330
1F
100
AcDbEntity
  8
Sichtbare Kanten(IBH-ISO)
370
    -2
100
AcDbLine
 10
465.0440138256556
 20
253.5484978859662
 30
0.0
 11
464.7553386910607
 21
253.0484978859659
 31
0.0
  0
LINE
  5
4BF2
330
1F
100
AcDbEntity
  8
Sichtbare Kanten(IBH-ISO)
370
    -2
100
AcDbLine
 10
465.5440138256557
 20
252.1371594051986
 30
0.0
 11
465.5440138256557
 21
252.3598363667348
 31
0.0
  0
LINE
  5
4BF3
330
1F
100
AcDbEntity
  8
Sichtbare Kanten(IBH-ISO)
370
    -2
100
AcDbLine
 10
465.5440138256557
 20
253.0484978859663
 30
0.0
 11
465.5440138256557
 21
252.3598363667347
 31
0.0
  0
LINE
  5
4BF4
330
1F
100
AcDbEntity
  8
Sichtbare Kanten(IBH-ISO)
370
    -2
100
AcDbLine
 10
465.5440138256499
 20
254.3137113080305
 30
0.0
 11
465.7940138256495
 21
254.3734978859649
 31
0.0
  0
CIRCLE
  5
4BF6
330
1F
100
AcDbEntity
  8
Sichtbare Kanten(IBH-ISO)
370
    -2
100
AcDbCircle
 10
470.2940138256427
 20
250.873497885965
 30
0.0
 40
2.350000000000008
  0
LINE
  5
4C33
330
1F
100
AcDbEntity
  8
Sichtbare Kanten(IBH-ISO)
370
    -2
100
AcDbLine
 10
473.5440138256516
 20
248.1234978859637
 30
0.0
 11
470.2940138256509
 21
248.1234978859637
 31
0.0
  0
LINE
  5
4EB4
330
1F
100
AcDbEntity
  8
Sichtbare Kanten(IBH-ISO)
370
    -2
100
AcDbLine
 10
465.5440138256556
 20
258.5974531949805
 30
0.0
 11
465.5440138256556
 21
258.548497885968
 31
0.0
  0
LINE
  5
4EB5
330
1F
100
AcDbEntity
  8
Sichtbare Kanten(IBH-ISO)
370
    -2
100
AcDbLine
 10
465.5440138256556
 20
258.6577605741946
 30
0.0
 11
465.5440138256556
 21
258.5974531949806
 31
0.0
  0
LINE
  5
4EB6
330
1F
100
AcDbEntity
  8
Sichtbare Kanten(IBH-ISO)
370
    -2
100
AcDbLine
 10
465.7940138256495
 20
257.8734978859639
 30
0.0
 11
465.5440138256499
 21
257.8734978859638
 31
0.0
  0
LINE
  5
5173
330
1F
100
AcDbEntity
  8
Sichtbare Kanten(IBH-ISO)
370
    -2
100
AcDbLine
 10
472.7940138256494
 20
254.9234978859666
 30
0.0
 11
476.5940138256494
 21
254.9234978859666
 31
0.0
  0
LINE
  5
5174
330
1F
100
AcDbEntity
  8
Sichtbare Kanten(IBH-ISO)
370
    -2
100
AcDbLine
 10
474.2940138256495
 20
254.8734978859664
 30
0.0
 11
473.6440138256494
 21
254.8734978859664
 31
0.0
  0
LINE
  5
5175
330
1F
100
AcDbEntity
  8
Sichtbare Kanten(IBH-ISO)
370
    -2
100
AcDbLine
 10
473.5440138256514
 20
254.9234978859667
 30
0.0
 11
472.7940138256494
 21
254.9234978859667
 31
0.0
  0
LINE
  5
5176
330
1F
100
AcDbEntity
  8
Sichtbare Kanten(IBH-ISO)
370
    -2
100
AcDbLine
 10
473.6440138256494
 20
254.8734978859661
 30
0.0
 11
473.5440138256428
 21
254.8734978859661
 31
0.0
  0
ARC
  5
5177
330
1F
100
AcDbEntity
  8
Sichtbare Kanten(IBH-ISO)
370
    -2
100
AcDbCircle
 10
438.9940138256498
 20
271.891831219299
 30
0.0
 40
1.101666666666683
100
AcDbArc
 50
63.00853343840958
 51
116.9914665615984
  0
LINE
  5
5178
330
1F
100
AcDbEntity
  8
Sichtbare Kanten(IBH-ISO)
370
    -2
100
AcDbLine
 10
465.2940138256504
 20
272.1234978859632
 30
0.0
 11
472.7940138256488
 21
272.1234978859631
 31
0.0
  0
LINE
  5
5179
330
1F
100
AcDbEntity
  8
Sichtbare Kanten(IBH-ISO)
370
    -2
100
AcDbLine
 10
474.3940138256493
 20
272.1734978859672
 30
0.0
 11
472.7940138256494
 21
272.1734978859671
 31
0.0
  0
LINE
  5
517A
330
1F
100
AcDbEntity
  8
Sichtbare Kanten(IBH-ISO)
370
    -2
100
AcDbLine
 10
472.7940138256494
 20
272.1734978859669
 30
0.0
 11
472.7940138256494
 21
272.2234978859662
 31
0.0
  0
LINE
  5
517B
330
1F
100
AcDbEntity
  8
Sichtbare Kanten(IBH-ISO)
370
    -2
100
AcDbLine
 10
476.5940138256494
 20
272.8234978859671
 30
0.0
 11
474.3940138256493
 21
272.8234978859671
 31
0.0
  0
LINE
  5
517C
330
1F
100
AcDbEntity
  8
Sichtbare Kanten(IBH-ISO)
370
    -2
100
AcDbLine
 10
474.3940138256493
 20
272.8234978859671
 30
0.0
 11
474.3940138256493
 21
272.1734978859671
 31
0.0
  0
LINE
  5
517D
330
1F
100
AcDbEntity
  8
Sichtbare Kanten(IBH-ISO)
370
    -2
100
AcDbLine
 10
474.2940138256495
 20
272.8734978859664
 30
0.0
 11
474.2940138256495
 21
272.2234978859664
 31
0.0
  0
INSERT
  5
5244
330
1F
100
AcDbEntity
  8
0
100
AcDbBlockReference
  2
A$C733A0D24
 10
470.2940138256425
 20
250.873497885965
 30
0.0
 41
0.7
 42
0.7
 43
0.7
  0
INSERT
  5
5255
330
1F
100
AcDbEntity
  8
0
100
AcDbBlockReference
  2
A$C733A0D24
 10
465.2940138256503
 20
269.3734978859657
 30
0.0
 41
0.6999999999999887
 42
0.6999999999999887
 43
0.7
  0
INSERT
  5
525B
330
1F
100
AcDbEntity
  8
0
100
AcDbBlockReference
  2
A$C733A0D24
 10
424.294013825647
 20
267.3734978859623
 30
0.0
 41
0.6999999999999887
 42
0.6999999999999887
 43
0.7
  0
INSERT
  5
5261
330
1F
100
AcDbEntity
  8
0
100
AcDbBlockReference
  2
A$C733A0D24
 10
418.2940138256496
 20
250.8734978859641
 30
0.0
 41
0.6999999999999887
 42
0.6999999999999887
 43
0.7
  0
LINE
  5
52B3
102
{ACAD_REACTORS
330
52BA
330
52BB
102
}
330
1F
100
AcDbEntity
  8
Rot
100
AcDbLine
 10
476.5940138256494
 20
272.8234978859671
 30
0.0
 11
474.3940138256493
 21
272.8234978859671
 31
0.0
  0
LINE
  5
52B4
102
{ACAD_REACTORS
330
52BA
330
52BB
102
}
330
1F
100
AcDbEntity
  8
Rot
100
AcDbLine
 10
474.3940138256493
 20
272.8234978859671
 30
0.0
 11
474.3940138256493
 21
272.1734978859672
 31
0.0
  0
LINE
  5
52B5
102
{ACAD_REACTORS
330
52BA
330
52BB
102
}
330
1F
100
AcDbEntity
  8
Rot
100
AcDbLine
 10
474.3940138256493
 20
272.1734978859672
 30
0.0
 11
472.7940138256487
 21
272.1234978859631
 31
0.0
  0
LINE
  5
52B6
102
{ACAD_REACTORS
330
52BA
330
52BB
102
}
330
1F
100
AcDbEntity
  8
Rot
100
AcDbLine
 10
472.7940138256487
 20
272.1234978859631
 30
0.0
 11
472.7940138256494
 21
254.9234978859667
 31
0.0
  0
LINE
  5
52B7
102
{ACAD_REACTORS
330
52BA
330
52BB
102
}
330
1F
100
AcDbEntity
  8
Rot
100
AcDbLine
 10
472.7940138256494
 20
254.9234978859667
 30
0.0
 11
476.5940138256494
 21
254.9234978859666
 31
0.0
  0
LINE
  5
52B8
102
{ACAD_REACTORS
330
52BA
330
52BB
102
}
330
1F
100
AcDbEntity
  8
Rot
100
AcDbLine
 10
476.5940138256494
 20
254.9234978859666
 30
0.0
 11
476.5940138256494
 21
272.8234978859671
 31
0.0
  0
HATCH
  5
52BA
102
{ACAD_REACTORS
330
52BB
102
}
330
1F
100
AcDbEntity
  8
Rot
100
AcDbHatch
 10
0.0
 20
0.0
 30
0.0
210
0.0
220
0.0
230
1.0
  2
SOLID
 70
     1
 71
     1
 91
        1
 92
        1
 93
        6
 72
     1
 10
476.5940138256494
 20
254.9234978859666
 11
476.5940138256494
 21
272.8234978859671
 72
     1
 10
476.5940138256494
 20
272.8234978859671
 11
474.3940138256493
 21
272.8234978859671
 72
     1
 10
474.3940138256493
 20
272.8234978859671
 11
474.3940138256493
 21
272.1734978859672
 72
     1
 10
474.3940138256493
 20
272.1734978859672
 11
472.7940138256487
 21
272.1234978859631
 72
     1
 10
472.7940138256487
 20
272.1234978859631
 11
472.7940138256494
 21
254.9234978859667
 72
     1
 10
472.7940138256494
 20
254.9234978859667
 11
476.5940138256494
 21
254.9234978859666
 97
        6
330
52B8
330
52B3
330
52B4
330
52B5
330
52B6
330
52B7
 75
     0
 76
     1
 98
        1
 10
-19.93157634120723
 20
-0.933335613852364
450
        0
451
        0
460
0.0
461
0.0
452
        0
462
0.0
453
        0
470

  0
LINE
  5
52C3
330
1F
100
AcDbEntity
  8
0
100
AcDbLine
 10
484.3380101222602
 20
320.1984406139887
 30
0.0
 11
484.3380101222601
 21
304.3984406139887
 31
0.0
  0
LINE
  5
5342
330
1F
100
AcDbEntity
  8
1
100
AcDbLine
 10
375.8728270856267
 20
311.2984383911476
 30
0.0
 11
375.2279254266292
 21
311.2984383911476
 31
0.0
  0
ARC
  5
5343
102
{ACAD_REACTORS
330
5771
102
}
330
1F
100
AcDbEntity
  8
0
100
AcDbCircle
 10
374.0707700838204
 20
318.3484383911476
 30
0.0
 40
0.5
100
AcDbArc
 50
99.99999999999859
 51
270.0
  0
LINE
  5
5344
102
{ACAD_REACTORS
330
5771
102
}
330
1F
100
AcDbEntity
  8
0
100
AcDbLine
 10
379.7301721730128
 20
317.8484383911476
 30
0.0
 11
374.0707700838204
 21
317.8484383911476
 31
0.0
  0
LINE
  5
5346
102
{ACAD_REACTORS
330
5771
102
}
330
1F
100
AcDbEntity
  8
0
100
AcDbLine
 10
373.983945994987
 20
318.8408422676537
 30
0.0
 11
379.7255307366874
 21
319.8532385696396
 31
0.0
  0
ARC
  5
5348
102
{ACAD_REACTORS
330
5771
102
}
330
1F
100
AcDbEntity
  8
0
100
AcDbCircle
 10
380.0728270920213
 20
317.8836230636152
 30
0.0
 40
2.0
100
AcDbArc
 50
0.0
 51
100.0000000000018
  0
DIMENSION
  5
53C5
330
1F
100
AcDbEntity
  8
Bemaßungen(IBH-ISO)
100
AcDbDimension
  2
*D13
 10
412.5875289538267
 20
311.2984406139891
 30
0.0
 11
410.8875289538266
 21
315.7484406139892
 31
0.0
 70
    32
 71
     5
 42
8.900000000000034
  3
IBH-ISO-IBH-ISO
100
AcDbAlignedDimension
 13
414.7940138257244
 23
320.1984406139891
 33
0.0
 14
416.6730138257245
 24
311.2984406139891
 34
0.0
 50
90.0
100
AcDbRotatedDimension
  0
DIMENSION
  5
55ED
330
1F
100
AcDbEntity
  8
Bemaßungen(IBH-ISO)
100
AcDbDimension
  2
*D14
 10
370.4377411547609
 20
311.2984383911476
 30
0.0
 11
370.4377411547609
 21
307.7390634693787
 31
0.0
 70
   160
 71
     5
 42
5.800000000000011
  3
IBH-ISO-IBH-ISO
100
AcDbAlignedDimension
 13
375.8728270856267
 23
317.0984383911476
 33
0.0
 14
375.227925426629
 24
311.2984383911476
 34
0.0
 50
90.0
100
AcDbRotatedDimension
  0
DIMENSION
  5
55EE
330
1F
100
AcDbEntity
  8
Bemaßungen(IBH-ISO)
100
AcDbDimension
  2
*D15
 10
366.5778355006758
 20
311.2984383911476
 30
0.0
 11
366.5778355006758
 21
306.9953135006711
 31
0.0
 70
   160
 71
     5
 42
6.550000000000011
  3
IBH-ISO-IBH-ISO
100
AcDbAlignedDimension
 13
375.8728270856267
 23
317.8484383911476
 33
0.0
 14
375.227925426629
 24
311.2984383911476
 34
0.0
 50
90.0
100
AcDbRotatedDimension
  0
DIMENSION
  5
55EF
330
1F
100
AcDbEntity
  8
Bemaßungen(IBH-ISO)
100
AcDbDimension
  2
*D16
 10
362.9299179822671
 20
311.2984383911476
 30
0.0
 11
362.9299179822671
 21
307.7390634693787
 31
0.0
 70
   160
 71
     5
 42
7.300000000000011
  3
IBH-ISO-IBH-ISO
100
AcDbAlignedDimension
 13
375.8728270856267
 23
318.5984383911476
 33
0.0
 14
375.227925426629
 24
311.2984383911476
 34
0.0
 50
90.0
100
AcDbRotatedDimension
  0
DIMENSION
  5
55F0
330
1F
100
AcDbEntity
  8
Bemaßungen(IBH-ISO)
100
AcDbDimension
  2
*D17
 10
359.3892916379872
 20
311.2984383911476
 30
0.0
 11
359.3892916379872
 21
306.9953135006711
 31
0.0
 70
   160
 71
     5
 42
8.050000000000011
  3
IBH-ISO-IBH-ISO
100
AcDbAlignedDimension
 13
375.8728270856267
 23
319.3484383911476
 33
0.0
 14
375.227925426629
 24
311.2984383911476
 34
0.0
 50
90.0
100
AcDbRotatedDimension
  0
DIMENSION
  5
55F1
330
1F
100
AcDbEntity
  8
Bemaßungen(IBH-ISO)
100
AcDbDimension
  2
*D18
 10
355.5804369584301
 20
311.2984383911476
 30
0.0
 11
355.58043695843
 21
307.7390634693787
 31
0.0
 70
   160
 71
     5
 42
8.800000000000011
  3
IBH-ISO-IBH-ISO
100
AcDbAlignedDimension
 13
375.8728270856267
 23
320.0984383911476
 33
0.0
 14
375.227925426629
 24
311.2984383911476
 34
0.0
 50
90.0
100
AcDbRotatedDimension
  0
DIMENSION
  5
56BC
330
1F
100
AcDbEntity
  8
Sichtbare Kanten(IBH-ISO)
100
AcDbDimension
  2
*D19
 10
419.9150138257245
 20
293.8576720098897
 30
0.0
 11
424.9212637497285
 21
295.3076720098897
 31
0.0
 70
    32
  1
M4
 71
     5
 42
3.241999999999961
  3
IBH-ISO-IBH-ISO
100
AcDbAlignedDimension
 13
416.6730138257245
 23
311.2984406139891
 33
0.0
 14
419.9150138257245
 24
311.2984406139891
 34
0.0
100
AcDbRotatedDimension
  0
LINE
  5
5769
330
1F
100
AcDbEntity
  8
0
100
AcDbLine
 10
380.3275405432176
 20
319.7587892751203
 30
0.0
 11
378.6003448233765
 21
306.8048213763125
 31
0.0
  0
ARC
  5
5770
102
{ACAD_REACTORS
330
5771
102
}
330
1F
100
AcDbEntity
  8
0
100
AcDbCircle
 10
379.7301721730128
 20
317.5484383911475
 30
0.0
 40
0.3
100
AcDbArc
 50
352.4053566314087
 51
90.0
  0
INSERT
  5
5786
330
1F
100
AcDbEntity
  8
0
100
AcDbBlockReference
  2
A$C28A40D98
 10
381.9728270920212
 20
317.1336230636152
 30
0.0
  0
INSERT
  5
5791
330
1F
100
AcDbEntity
  8
0
100
AcDbBlockReference
  2
A$C4F5C5639
 10
382.1728270920212
 20
318.6336230636152
 30
0.0
  0
INSERT
  5
579C
330
1F
100
AcDbEntity
  8
0
100
AcDbBlockReference
  2
A$C5D5D4110
 10
382.2728270920213
 20
319.3836230636152
 30
0.0
  0
INSERT
  5
57A7
330
1F
100
AcDbEntity
  8
0
100
AcDbBlockReference
  2
A$C7AB63612
 10
382.3728270920211
 20
320.1336230636152
 30
0.0
  0
LINE
  5
57AF
330
1F
100
AcDbEntity
  8
0
100
AcDbLine
 10
382.3728270920211
 20
320.1336230636152
 30
0.0
 11
380.5956535337141
 21
306.8048213763125
 31
0.0
  0
LINE
  5
57B0
330
1F
100
AcDbEntity
  8
0
100
AcDbLine
 10
380.5956535337142
 20
306.8048213763125
 30
0.0
 11
378.6003448233765
 21
306.8048213763125
 31
0.0
  0
ARC
  5
57B5
330
1F
100
AcDbEntity
  8
Sichtbare Kanten(IBH-ISO)
370
    -2
100
AcDbCircle
 10
422.9940138257244
 20
306.948440613989
 30
0.0
 40
0.8
100
AcDbArc
 50
180.0
 51
269.9999999999998
  0
LINE
  5
57BA
330
1F
100
AcDbEntity
  8
Sichtbare Kanten(IBH-ISO)
370
    -2
100
AcDbLine
 10
463.4940138257361
 20
306.3154852625921
 30
0.0
 11
459.994013825736
 21
306.3154852625921
 31
0.0
  0
LINE
  5
57BB
330
1F
100
AcDbEntity
  8
Sichtbare Kanten(IBH-ISO)
370
    -2
100
AcDbLine
 10
463.0440138257354
 20
306.6984406139891
 30
0.0
 11
451.6610584743333
 21
306.6984406139891
 31
0.0
  0
LINE
  5
57BC
330
1F
100
AcDbEntity
  8
Sichtbare Kanten(IBH-ISO)
370
    -2
100
AcDbLine
 10
463.0440138257355
 20
314.1734406139907
 30
0.0
 11
463.0440138257354
 21
306.6984406139891
 31
0.0
  0
LINE
  5
57BD
330
1F
100
AcDbEntity
  8
Sichtbare Kanten(IBH-ISO)
370
    -2
100
AcDbLine
 10
463.494013825736
 20
313.748440613989
 30
0.0
 11
463.4940138257361
 21
306.3154852625921
 31
0.0
  0
LINE
  5
57BE
330
1F
100
AcDbEntity
  8
0
100
AcDbLine
 10
447.2940138257244
 20
306.1484406139889
 30
0.0
 11
450.1592343246
 21
306.148440613989
 31
0.0
  0
LINE
  5
57BF
330
1F
100
AcDbEntity
  8
0
100
AcDbLine
 10
450.1592343246
 20
306.148440613989
 30
0.0
 11
450.1592343246
 21
304.8984406139891
 31
0.0
  0
LINE
  5
57C0
330
1F
100
AcDbEntity
  8
0
100
AcDbLine
 10
459.9940138257361
 20
306.3154852625921
 30
0.0
 11
459.9940138257361
 21
305.598440613989
 31
0.0
  0
LINE
  5
57C4
330
1F
100
AcDbEntity
  8
Sichtbare Kanten(IBH-ISO)
370
    -2
100
AcDbLine
 10
451.9940138257361
 20
305.598440613989
 30
0.0
 11
459.994013825736
 21
305.598440613989
 31
0.0
  0
LINE
  5
57C5
330
1F
100
AcDbEntity
  8
0
100
AcDbLine
 10
451.994013825736
 20
306.6984406139891
 30
0.0
 11
451.9940138257361
 21
305.598440613989
 31
0.0
  0
CIRCLE
  5
57C7
330
1F
100
AcDbEntity
  8
0
100
AcDbCircle
 10
434.0440138459748
 20
313.6734406139904
 30
0.0
 40
3.399999999999999
  0
ARC
  5
57C8
330
1F
100
AcDbEntity
  8
0
100
AcDbCircle
 10
434.0440138459748
 20
313.6734406139904
 30
0.0
 40
3.499999979755216
100
AcDbArc
 50
0.0
 51
180.0000000000009
  0
ARC
  5
57CC
330
1F
100
AcDbEntity
  8
0
100
AcDbCircle
 10
434.0440138262177
 20
310.6734406492626
 30
0.0
 40
3.500000000487716
100
AcDbArc
 50
179.9999999999999
 51
0.6882465796108568
  0
LINE
  5
57CD
330
1F
100
AcDbEntity
  8
0
100
AcDbLine
 10
431.7440171116742
 20
310.711597418386
 30
0.0
 11
431.7440171116742
 21
311.1694408092368
 31
0.0
  0
LINE
  5
57CE
330
1F
100
AcDbEntity
  8
0
100
AcDbLine
 10
436.3440105397859
 20
310.7115974183917
 30
0.0
 11
436.3440105397859
 21
311.169440772046
 31
0.0
  0
LINE
  5
57E0
330
1F
100
AcDbEntity
  8
Sichtbare Kanten(IBH-ISO)
370
    -2
100
AcDbLine
 10
435.8669510363341
 20
310.8034406139896
 30
0.0
 11
436.3421713013329
 21
310.8034406139896
 31
0.0
  0
LINE
  5
57E1
330
1F
100
AcDbEntity
  8
Sichtbare Kanten(IBH-ISO)
370
    -2
100
AcDbLine
 10
436.1234127975942
 20
310.9834406139896
 30
0.0
 11
436.3421713013329
 21
310.9834406139896
 31
0.0
  0
LINE
  5
57E2
330
1F
100
AcDbEntity
  8
Sichtbare Kanten(IBH-ISO)
370
    -2
100
AcDbLine
 10
431.7458563501292
 20
310.8034406139896
 30
0.0
 11
432.2210766556155
 21
310.8034406139896
 31
0.0
  0
LINE
  5
57E3
330
1F
100
AcDbEntity
  8
Sichtbare Kanten(IBH-ISO)
370
    -2
100
AcDbLine
 10
431.7458563501292
 20
310.9834406139896
 30
0.0
 11
431.9646148943555
 21
310.9834406139896
 31
0.0
  0
ARC
  5
57F2
330
1F
100
AcDbEntity
  8
Sichtbare Kanten(IBH-ISO)
370
    -2
100
AcDbCircle
 10
455.9679845663893
 20
315.3336448395041
 30
0.0
 40
0.3000000000000007
100
AcDbArc
 50
351.6058141707253
 51
130.1987746490993
  0
ARC
  5
57F3
330
1F
100
AcDbEntity
  8
Sichtbare Kanten(IBH-ISO)
370
    -2
100
AcDbCircle
 10
456.0198074901718
 20
312.0431563674728
 30
0.0
 40
0.3000000000000002
100
AcDbArc
 50
231.6058141707244
 51
10.19877464909606
  0
ARC
  5
57F4
330
1F
100
AcDbEntity
  8
Sichtbare Kanten(IBH-ISO)
370
    -2
100
AcDbCircle
 10
455.0440138257303
 20
310.7154852625922
 30
0.0
 40
2.300000000000046
100
AcDbArc
 50
180.0968509435543
 51
359.9031490563024
  0
LINE
  5
57F5
330
1F
100
AcDbEntity
  8
Sichtbare Kanten(IBH-ISO)
370
    -2
100
AcDbLine
 10
452.9845568490249
 20
309.6914554968562
 30
0.0
 11
457.1034708024338
 21
309.6914554968562
 31
0.0
  0
LINE
  5
57F6
330
1F
100
AcDbEntity
  8
Sichtbare Kanten(IBH-ISO)
370
    -2
100
AcDbLine
 10
453.580176952888
 20
308.941455496856
 30
0.0
 11
456.5078506985706
 21
308.941455496856
 31
0.0
  0
LINE
  5
57F7
330
1F
100
AcDbEntity
  8
Sichtbare Kanten(IBH-ISO)
370
    -2
100
AcDbLine
 10
456.7039517272336
 20
309.1234406139891
 30
0.0
 11
453.384075924225
 21
309.1234406139891
 31
0.0
  0
LINE
  5
57F8
330
1F
100
AcDbEntity
  8
Sichtbare Kanten(IBH-ISO)
370
    -2
100
AcDbLine
 10
457.1843317483188
 20
309.8734406139894
 30
0.0
 11
452.9036959031399
 21
309.8734406139894
 31
0.0
  0
LINE
  5
57F9
330
1F
100
AcDbEntity
  8
Sichtbare Kanten(IBH-ISO)
370
    -2
100
AcDbLine
 10
453.7930201793109
 20
308.7854554968559
 30
0.0
 11
456.2950074721478
 21
308.7854554968559
 31
0.0
  0
LINE
  5
57FA
330
1F
100
AcDbEntity
  8
Sichtbare Kanten(IBH-ISO)
370
    -2
100
AcDbLine
 10
453.1906613339351
 20
309.353470379723
 30
0.0
 11
456.8973663175235
 21
309.353470379723
 31
0.0
  0
LINE
  5
57FB
330
1F
100
AcDbEntity
  8
Sichtbare Kanten(IBH-ISO)
370
    -2
100
AcDbLine
 10
453.0697975883363
 20
309.5354554968561
 30
0.0
 11
457.0182300631224
 21
309.5354554968561
 31
0.0
  0
LINE
  5
57FC
330
1F
100
AcDbEntity
  8
Sichtbare Kanten(IBH-ISO)
370
    -2
100
AcDbLine
 10
458.5440138257304
 20
310.6734406492626
 30
0.0
 11
458.5440138257304
 21
313.6734406139904
 31
0.0
  0
LINE
  5
57FD
330
1F
100
AcDbEntity
  8
Sichtbare Kanten(IBH-ISO)
370
    -2
100
AcDbLine
 10
456.0996047312821
 20
310.4414554968564
 30
0.0
 11
457.3276310632504
 21
310.4414554968564
 31
0.0
  0
LINE
  5
57FE
330
1F
100
AcDbEntity
  8
Sichtbare Kanten(IBH-ISO)
370
    -2
100
AcDbLine
 10
457.3421713013313
 20
310.6234406139896
 30
0.0
 11
456.5465117256155
 21
310.6234406139896
 31
0.0
  0
LINE
  5
57FF
330
1F
100
AcDbEntity
  8
Sichtbare Kanten(IBH-ISO)
370
    -2
100
AcDbLine
 10
457.3421713013313
 20
310.8034406139896
 30
0.0
 11
456.8669509958449
 21
310.8034406139896
 31
0.0
  0
LINE
  5
5800
330
1F
100
AcDbEntity
  8
Sichtbare Kanten(IBH-ISO)
370
    -2
100
AcDbLine
 10
457.3421713013313
 20
310.9834406139896
 30
0.0
 11
457.1234127571049
 21
310.9834406139896
 31
0.0
  0
LINE
  5
5801
330
1F
100
AcDbEntity
  8
Sichtbare Kanten(IBH-ISO)
370
    -2
100
AcDbLine
 10
452.8269351660641
 20
310.1034703797233
 30
0.0
 11
457.2610924853953
 21
310.1034703797233
 31
0.0
  0
LINE
  5
5802
330
1F
100
AcDbEntity
  8
Sichtbare Kanten(IBH-ISO)
370
    -2
100
AcDbLine
 10
452.7845726557546
 20
310.2854554968563
 30
0.0
 11
457.3034549957077
 21
310.2854554968563
 31
0.0
  0
ARC
  5
5803
330
1F
100
AcDbEntity
  8
Sichtbare Kanten(IBH-ISO)
370
    -2
100
AcDbCircle
 10
457.4519152941681
 20
315.1146708795142
 30
0.0
 40
1.199999999999998
100
AcDbArc
 50
171.6058141707253
 51
250.1987746490972
  0
ARC
  5
5804
330
1F
100
AcDbEntity
  8
Sichtbare Kanten(IBH-ISO)
370
    -2
100
AcDbCircle
 10
456.9437782308268
 20
313.7033605929864
 30
0.0
 40
0.3
100
AcDbArc
 50
291.6058141707275
 51
70.19877464910369
  0
ARC
  5
5805
330
1F
100
AcDbEntity
  8
Sichtbare Kanten(IBH-ISO)
370
    -2
100
AcDbCircle
 10
457.4961065825977
 20
312.3087519052786
 30
0.0
 40
1.200000000000001
100
AcDbArc
 50
111.605814170721
 51
190.1987746491003
  0
LINE
  5
5806
330
1F
100
AcDbEntity
  8
Sichtbare Kanten(IBH-ISO)
370
    -2
100
AcDbLine
 10
451.5440138257304
 20
313.6734406139904
 30
0.0
 11
451.5440138257302
 21
310.7154852625921
 31
0.0
  0
LINE
  5
5807
330
1F
100
AcDbEntity
  8
Sichtbare Kanten(IBH-ISO)
370
    -2
100
AcDbLine
 10
452.7603965882082
 20
310.4414554968564
 30
0.0
 11
453.9884228796891
 21
310.4414554968564
 31
0.0
  0
LINE
  5
5808
330
1F
100
AcDbEntity
  8
Sichtbare Kanten(IBH-ISO)
370
    -2
100
AcDbLine
 10
454.1333035894123
 20
308.6034703797228
 30
0.0
 11
455.9547240620465
 21
308.6034703797228
 31
0.0
  0
LINE
  5
5809
330
1F
100
AcDbEntity
  8
Sichtbare Kanten(IBH-ISO)
370
    -2
100
AcDbLine
 10
453.5415158853557
 20
310.6234406139896
 30
0.0
 11
452.7458563501275
 21
310.6234406139896
 31
0.0
  0
LINE
  5
580A
330
1F
100
AcDbEntity
  8
Sichtbare Kanten(IBH-ISO)
370
    -2
100
AcDbLine
 10
453.2210766151263
 20
310.8034406139896
 30
0.0
 11
452.7458563501275
 21
310.8034406139896
 31
0.0
  0
LINE
  5
580B
330
1F
100
AcDbEntity
  8
Sichtbare Kanten(IBH-ISO)
370
    -2
100
AcDbLine
 10
452.9646148538662
 20
310.9834406139896
 30
0.0
 11
452.7458563501275
 21
310.9834406139896
 31
0.0
  0
LINE
  5
580C
330
1F
100
AcDbEntity
  8
Sichtbare Kanten(IBH-ISO)
370
    -2
100
AcDbLine
 10
454.068220173595
 20
315.3037248366391
 30
0.0
 11
455.0440138252427
 21
313.6734406492627
 31
0.0
  0
LINE
  5
580D
330
1F
100
AcDbEntity
  8
Sichtbare Kanten(IBH-ISO)
370
    -2
100
AcDbLine
 10
455.9679845548488
 20
315.3336448152597
 30
0.0
 11
455.0440138251149
 21
313.6734406492607
 31
0.0
  0
ARC
  5
580E
330
1F
100
AcDbEntity
  8
Sichtbare Kanten(IBH-ISO)
370
    -2
100
AcDbCircle
 10
452.5919210688708
 20
315.0381293227023
 30
0.0
 40
1.199999999999999
100
AcDbArc
 50
291.605814170721
 51
10.19877464910032
  0
ARC
  5
580F
330
1F
100
AcDbEntity
  8
Sichtbare Kanten(IBH-ISO)
370
    -2
100
AcDbCircle
 10
452.6361123573003
 20
312.2322103484667
 30
0.0
 40
1.200000000000003
100
AcDbArc
 50
351.6058141707253
 51
70.19877464909718
  0
LINE
  5
5810
330
1F
100
AcDbEntity
  8
Sichtbare Kanten(IBH-ISO)
370
    -2
100
AcDbLine
 10
454.1200431048949
 20
312.013235887291
 30
0.0
 11
455.0440138252427
 21
313.6734406492627
 31
0.0
  0
LINE
  5
5811
330
1F
100
AcDbEntity
  8
Sichtbare Kanten(IBH-ISO)
370
    -2
100
AcDbLine
 10
456.0198074861487
 20
312.0431558659116
 30
0.0
 11
455.0440138251149
 21
313.6734406492607
 31
0.0
  0
ARC
  5
5812
330
1F
100
AcDbEntity
  8
Sichtbare Kanten(IBH-ISO)
370
    -2
100
AcDbCircle
 10
454.1200430850792
 20
312.0132363884768
 30
0.0
 40
0.3000000000000003
100
AcDbArc
 50
171.6058141707253
 51
310.1987746490993
  0
ARC
  5
5813
330
1F
100
AcDbEntity
  8
Sichtbare Kanten(IBH-ISO)
370
    -2
100
AcDbCircle
 10
455.0882051141638
 20
310.8675216397549
 30
0.0
 40
1.199999999999997
100
AcDbArc
 50
51.60581417072361
 51
130.1987746490993
  0
ARC
  5
5814
330
1F
100
AcDbEntity
  8
Sichtbare Kanten(IBH-ISO)
370
    -2
100
AcDbCircle
 10
453.1442494206417
 20
313.6435206349944
 30
0.0
 40
0.3000000000000001
100
AcDbArc
 50
111.6058141707206
 51
250.1987746490972
  0
ARC
  5
5815
330
1F
100
AcDbEntity
  8
Sichtbare Kanten(IBH-ISO)
370
    -2
100
AcDbCircle
 10
454.0682201612967
 20
315.3037248605081
 30
0.0
 40
0.3000000000000003
100
AcDbArc
 50
51.60581417072361
 51
190.1987746491034
  0
ARC
  5
5816
330
1F
100
AcDbEntity
  8
Sichtbare Kanten(IBH-ISO)
370
    -2
100
AcDbCircle
 10
454.9998225373047
 20
316.4793595882259
 30
0.0
 40
1.199999999999999
100
AcDbArc
 50
231.6058141707244
 51
310.1987746491004
  0
CIRCLE
  5
5817
330
1F
100
AcDbEntity
  8
0
100
AcDbCircle
 10
455.0440138054856
 20
313.6734406139904
 30
0.0
 40
3.399999999999999
  0
ARC
  5
5818
330
1F
100
AcDbEntity
  8
0
100
AcDbCircle
 10
455.0440138054856
 20
313.6734406139904
 30
0.0
 40
3.499999979755216
100
AcDbArc
 50
359.9999999999991
 51
180.0
  0
ARC
  5
5819
330
1F
100
AcDbEntity
  8
0
100
AcDbCircle
 10
455.0440138252427
 20
310.6734406492626
 30
0.0
 40
3.500000000487716
100
AcDbArc
 50
179.3117534203892
 51
0.0000000000000579
  0
LINE
  5
581A
330
1F
100
AcDbEntity
  8
0
100
AcDbLine
 10
457.3440105397862
 20
310.711597418386
 30
0.0
 11
457.3440105397862
 21
311.1694408092368
 31
0.0
  0
LINE
  5
581B
330
1F
100
AcDbEntity
  8
0
100
AcDbLine
 10
452.7440171116745
 20
310.7115974183917
 30
0.0
 11
452.7440171116745
 21
311.169440772046
 31
0.0
  0
VIEWPORT
  5
2E
330
1B
100
AcDbEntity
 67
     1
  8
0
100
AcDbViewport
 10
111.9196064561492
 20
149.468001695689
 30
0.0
 40
544.6815259917131
 41
303.1772303403609
 68
     1
 69
     1
 12
111.9196064561492
 22
149.468001695689
 13
0.0
 23
0.0
 14
10.0
 24
10.0
 15
10.0
 25
10.0
 16
0.0
 26
0.0
 36
1.0
 17
0.0
 27
0.0
 37
0.0
 42
50.0
 43
0.0
 44
0.0
 45
303.1772303403609
 50
0.0
 51
0.0
 72
   100
 90
    32800
  1

281
     0
 71
     1
 74
     0
110
0.0
120
0.0
130
0.0
111
1.0
121
0.0
131
0.0
112
0.0
122
1.0
132
0.0
 79
     0
146
0.0
170
     0
  0
INSERT
  5
75
330
1B
100
AcDbEntity
 67
     1
  8
Title Block
100
AcDbBlockReference
 66
     1
  2
DIN A4 title block
 10
0.0
 20
0.0
 30
0.0
  0
ATTRIB
  5
77
330
75
100
AcDbEntity
 67
     1
  8
RAHMEN05
100
AcDbText
 10
160.5913536854751
 20
32.21450001038333
 30
0.0
 40
5.0
  1

  7
ISO Proportional
 72
     4
 11
160.5913536854751
 21
32.21450001038333
 31
0.0
100
AcDbAttribute
  2
BENENNUNG
 70
     0
  0
ATTRIB
  5
78
330
75
100
AcDbEntity
 67
     1
  8
RAHMEN05
100
AcDbText
 10
139.5035696603037
 20
12.92730524092143
 30
0.0
 40
5.0
  1
A5000--B
  7
ISO Proportional
 72
     4
 11
154.2535696603037
 21
15.32473610229667
 31
0.0
100
AcDbAttribute
  2
ZEICHNUNGSNUMMER
 70
     0
  0
ATTRIB
  5
79
330
75
100
AcDbEntity
 67
     1
  8
RAHMEN025
100
AcDbText
 10
99.71813410214245
 20
31.45603256725529
 30
0.0
 40
2.5
  1
KDL
  7
ISO Proportional
100
AcDbAttribute
  2
NAME
 70
     0
  0
ATTRIB
  5
7A
330
75
100
AcDbEntity
 67
     1
  8
RAHMEN025
100
AcDbText
 10
83.45502135033781
 20
31.45603256725529
 30
0.0
 40
2.5
  1
30.06.09
  7
ISO Proportional
100
AcDbAttribute
  2
GEPRÜFT
 70
     0
  0
ATTRIB
  5
7B
330
75
100
AcDbEntity
 67
     1
  8
RAHMEN025
100
AcDbText
 10
83.45502135033781
 20
35.70603256725529
 30
0.0
 40
2.5
  1
29.06.09
  7
ISO Proportional
100
AcDbAttribute
  2
BEARBEIT.
 70
     0
  0
ATTRIB
  5
7C
330
75
100
AcDbEntity
 67
     1
  8
RAHMEN025
100
AcDbText
 10
99.71813410214245
 20
35.70603256725529
 30
0.0
 40
2.5
  1
KDL
  7
ISO Proportional
100
AcDbAttribute
  2
NAME
 70
     0
  0
ATTRIB
  5
7D
330
75
100
AcDbEntity
 67
     1
  8
RAHMEN025
100
AcDbText
 10
133.3916231867287
 20
55.81250000000001
 30
0.0
 40
2.5
  1
1:1
  7
ISO Proportional
100
AcDbAttribute
  2
MAßSTAB
 70
     0
  0
SEQEND
  5
76
330
75
100
AcDbEntity
 67
     1
  8
0
  0
VIEWPORT
  5
89
330
1B
100
AcDbEntity
 67
     1
  8
Viewport
100
AcDbViewport
 10
111.4000000000001
 20
176.125
 30
0.0
 40
187.1999999999997
 41
231.75
 68
     2
 69
     2
 12
431.8149826663417
 22
227.4312348848612
 13
0.0
 23
0.0
 14
10.0
 24
10.0
 15
10.0
 25
10.0
 16
0.0
 26
0.0
 36
1.0
 17
0.0
 27
0.0
 37
0.0
 42
50.0
 43
0.0
 44
0.0
 45
203.4497301738338
 50
0.0
 51
0.0
 72
   100
 90
    32832
  1

281
     0
 71
     1
 74
     0
110
0.0
120
0.0
130
0.0
111
1.0
121
0.0
131
0.0
112
0.0
122
1.0
132
0.0
 79
     0
146
0.0
170
     0
  0
MTEXT
  5
5890
330
1B
100
AcDbEntity
 67
     1
  8
0
100
AcDbMText
 10
129.514204465157
 20
36.8133838335965
 30
0.0
 40
3.5
 41
70.18810000000001
 71
     1
 72
     5
  1
 Kompakttüröffner\P   Arbeitsstrom
 73
     1
 44
1.0
  0
ENDSEC
  0
SECTION
  2
OBJECTS
  0
DICTIONARY
  5
C
330
0
100
AcDbDictionary
281
     1
  3
ACAD_COLOR
350
5456
  3
ACAD_GROUP
350
D
  3
ACAD_LAYOUT
350
1A
  3
ACAD_MATERIAL
350
542C
  3
ACAD_MLEADERSTYLE
350
547B
  3
ACAD_MLINESTYLE
350
17
  3
ACAD_PLOTSETTINGS
350
19
  3
ACAD_PLOTSTYLENAME
350
E
  3
ACAD_SCALELIST
350
5459
  3
ACAD_TABLESTYLE
350
5457
  3
ACAD_VISUALSTYLE
350
5445
  3
ACDB_RECOMPOSE_DATA
350
5687
  3
AcDbVariableDictionary
350
1643
  0
DICTIONARY
  5
548F
330
2
100
AcDbDictionary
280
     1
281
     1
  3
ACAD_LAYERSTATES
360
5490
  0
DICTIONARY
  5
5665
330
10
100
AcDbDictionary
280
     1
281
     1
  3
ADSK_XREC_LAYER_RECONCILED
360
5666
  0
DICTIONARY
  5
5667
330
33
100
AcDbDictionary
280
     1
281
     1
  3
ADSK_XREC_LAYER_RECONCILED
360
5668
  0
DICTIONARY
  5
5669
330
36
100
AcDbDictionary
280
     1
281
     1
  3
ADSK_XREC_LAYER_RECONCILED
360
566A
  0
DICTIONARY
  5
566B
330
5C
100
AcDbDictionary
280
     1
281
     1
  3
ADSK_XREC_LAYER_RECONCILED
360
566C
  0
DICTIONARY
  5
566D
330
72
100
AcDbDictionary
280
     1
281
     1
  3
ADSK_XREC_LAYER_RECONCILED
360
566E
  0
DICTIONARY
  5
566F
330
85
100
AcDbDictionary
280
     1
281
     1
  3
ADSK_XREC_LAYER_RECONCILED
360
5670
  0
DICTIONARY
  5
5671
330
86
100
AcDbDictionary
280
     1
281
     1
  3
ADSK_XREC_LAYER_RECONCILED
360
5672
  0
DICTIONARY
  5
5673
330
14F
100
AcDbDictionary
280
     1
281
     1
  3
ADSK_XREC_LAYER_RECONCILED
360
5674
  0
DICTIONARY
  5
5675
330
1642
100
AcDbDictionary
280
     1
281
     1
  3
ADSK_XREC_LAYER_RECONCILED
360
5676
  0
DICTIONARY
  5
5677
330
171E
100
AcDbDictionary
280
     1
281
     1
  3
ADSK_XREC_LAYER_RECONCILED
360
5678
  0
DICTIONARY
  5
5679
330
171F
100
AcDbDictionary
280
     1
281
     1
  3
ADSK_XREC_LAYER_RECONCILED
360
567A
  0
DICTIONARY
  5
567B
330
1720
100
AcDbDictionary
280
     1
281
     1
  3
ADSK_XREC_LAYER_RECONCILED
360
567C
  0
DICTIONARY
  5
164B
330
1F
100
AcDbDictionary
280
     1
281
     1
  3
ACAD_SORTENTS
360
164C
  0
DICTIONARY
  5
5782
330
577C
100
AcDbDictionary
280
     1
281
     1
  3
ACAD_SORTENTS
360
5783
  0
DICTIONARY
  5
578D
330
5787
100
AcDbDictionary
280
     1
281
     1
  3
ACAD_SORTENTS
360
578E
  0
DICTIONARY
  5
5798
330
5792
100
AcDbDictionary
280
     1
281
     1
  3
ACAD_SORTENTS
360
5799
  0
DICTIONARY
  5
57A3
330
579D
100
AcDbDictionary
280
     1
281
     1
  3
ACAD_SORTENTS
360
57A4
  0
DICTIONARY
  5
5456
102
{ACAD_REACTORS
330
C
102
}
330
C
100
AcDbDictionary
281
     1
  0
DICTIONARY
  5
D
102
{ACAD_REACTORS
330
C
102
}
330
C
100
AcDbDictionary
281
     1
  3
*A1
350
38DD
  3
*A2
350
38DE
  3
*A3
350
38DF
  3
*A4
350
38E0
  3
*A5
350
38E1
  3
*A6
350
52B2
  3
*A7
350
52BB
  3
*A8
350
5771
  0
DICTIONARY
  5
1A
102
{ACAD_REACTORS
330
C
102
}
330
C
100
AcDbDictionary
281
     1
  3
DIN A4 Title Block
350
1E
  3
Model
350
22
  0
DICTIONARY
  5
542C
102
{ACAD_REACTORS
330
C
102
}
330
C
100
AcDbDictionary
281
     1
  3
ByBlock
350
5435
  3
ByLayer
350
542D
  3
Global
350
543D
  0
DICTIONARY
  5
547B
102
{ACAD_REACTORS
330
C
102
}
330
C
100
AcDbDictionary
281
     1
  3
Standard
350
547C
  0
DICTIONARY
  5
17
102
{ACAD_REACTORS
330
C
102
}
330
C
100
AcDbDictionary
281
     1
  3
Standard
350
18
  0
DICTIONARY
  5
19
102
{ACAD_REACTORS
330
C
102
}
330
C
100
AcDbDictionary
281
     1
  3
DIN A4 title block - no output device
350
7E
  0
ACDBDICTIONARYWDFLT
  5
E
102
{ACAD_REACTORS
330
C
102
}
330
C
100
AcDbDictionary
281
     1
  3
Normal
350
F
100
AcDbDictionaryWithDefault
340
F
  0
DICTIONARY
  5
5459
102
{ACAD_REACTORS
330
C
102
}
330
C
100
AcDbDictionary
281
     1
  3
A0
350
545A
  3
A1
350
545B
  3
A2
350
545C
  3
A3
350
545D
  3
A4
350
545E
  3
A5
350
545F
  3
A6
350
5460
  3
A7
350
5461
  3
A8
350
5462
  3
A9
350
5463
  3
B0
350
5464
  3
B1
350
5465
  3
B2
350
5466
  3
B3
350
5467
  3
B4
350
5468
  3
B5
350
5469
  3
B6
350
546A
  3
B7
350
546B
  3
B8
350
546C
  3
B9
350
546D
  3
C0
350
546E
  3
C1
350
546F
  3
C2
350
5470
  3
C3
350
5471
  3
C4
350
5472
  3
C5
350
5473
  3
C6
350
5474
  3
C7
350
5475
  3
C8
350
5476
  3
C9
350
5477
  3
D0
350
5478
  3
D1
350
5479
  3
D2
350
547A
  0
DICTIONARY
  5
5457
102
{ACAD_REACTORS
330
C
102
}
330
C
100
AcDbDictionary
281
     1
  3
Standard
350
5458
  0
DICTIONARY
  5
5445
102
{ACAD_REACTORS
330
C
102
}
330
C
100
AcDbDictionary
281
     1
  3
2dWireframe
350
544B
  3
3D Hidden
350
544D
  3
3dWireframe
350
544C
  3
Basic
350
544A
  3
Brighten
350
5451
  3
ColorChange
350
5455
  3
Conceptual
350
544E
  3
Dim
350
5450
  3
Facepattern
350
5454
  3
Flat
350
5446
  3
FlatWithEdges
350
5447
  3
Gouraud
350
5448
  3
GouraudWithEdges
350
5449
  3
Linepattern
350
5453
  3
Realistic
350
544F
  3
Thicken
350
5452
  0
XRECORD
  5
5687
102
{ACAD_REACTORS
330
C
102
}
330
C
100
AcDbXrecord
280
     1
 90
        1
330
5458
  0
DICTIONARY
  5
1643
102
{ACAD_REACTORS
330
C
102
}
330
C
100
AcDbDictionary
281
     1
  3
CANNOSCALE
350
568B
  3
CMLEADERSTYLE
350
5689
  3
CTABLESTYLE
350
5688
  3
LAYEREVAL
350
5828
  3
LAYERNOTIFY
350
5829
  3
LIGHTINGUNITS
350
568C
  3
MSLTSCALE
350
568A
  3
SORTENTS
350
1644
  0
DICTIONARY
  5
5490
102
{ACAD_REACTORS
330
548F
102
}
330
548F
100
AcDbDictionary
281
     1
  0
XRECORD
  5
5666
102
{ACAD_REACTORS
330
5665
102
}
330
5665
100
AcDbXrecord
280
     1
290
     1
  0
XRECORD
  5
5668
102
{ACAD_REACTORS
330
5667
102
}
330
5667
100
AcDbXrecord
280
     1
290
     1
  0
XRECORD
  5
566A
102
{ACAD_REACTORS
330
5669
102
}
330
5669
100
AcDbXrecord
280
     1
290
     1
  0
XRECORD
  5
566C
102
{ACAD_REACTORS
330
566B
102
}
330
566B
100
AcDbXrecord
280
     1
290
     1
  0
XRECORD
  5
566E
102
{ACAD_REACTORS
330
566D
102
}
330
566D
100
AcDbXrecord
280
     1
290
     1
  0
XRECORD
  5
5670
102
{ACAD_REACTORS
330
566F
102
}
330
566F
100
AcDbXrecord
280
     1
290
     1
  0
XRECORD
  5
5672
102
{ACAD_REACTORS
330
5671
102
}
330
5671
100
AcDbXrecord
280
     1
290
     1
  0
XRECORD
  5
5674
102
{ACAD_REACTORS
330
5673
102
}
330
5673
100
AcDbXrecord
280
     1
290
     1
  0
XRECORD
  5
5676
102
{ACAD_REACTORS
330
5675
102
}
330
5675
100
AcDbXrecord
280
     1
290
     1
  0
XRECORD
  5
5678
102
{ACAD_REACTORS
330
5677
102
}
330
5677
100
AcDbXrecord
280
     1
290
     1
  0
XRECORD
  5
567A
102
{ACAD_REACTORS
330
5679
102
}
330
5679
100
AcDbXrecord
280
     1
290
     1
  0
XRECORD
  5
567C
102
{ACAD_REACTORS
330
567B
102
}
330
567B
100
AcDbXrecord
280
     1
290
     1
  0
SORTENTSTABLE
  5
164C
102
{ACAD_REACTORS
330
164B
102
}
330
164B
100
AcDbSortentsTable
330
1F
331
14D2
  5
14D5
331
1529
  5
152C
331
14DA
  5
14DD
331
1531
  5
1534
331
14E2
  5
1500
331
1539
  5
153C
331
57C7
  5
57CD
331
2D1E
  5
2D27
331
331D
  5
3321
331
4BC4
  5
4BE2
331
5261
  5
52B8
331
5173
  5
5179
331
3698
  5
369E
331
517B
  5
5261
331
348A
  5
35EF
331
36A0
  5
36CE
331
336C
  5
3373
331
34AA
  5
363F
331
45DE
  5
45E4
331
3797
  5
3886
331
3374
  5
3386
331
34EA
  5
3681
331
48C5
  5
48CB
331
45E6
  5
45EE
331
36D0
  5
36D6
331
48CD
  5
48FB
331
45EE
  5
45F4
331
141B
  5
1432
331
1631
  5
1635
331
2620
  5
2621
331
DEC
  5
DF0
331
2D36
  5
2D3C
331
5769
  5
57AF
331
2628
  5
2629
331
1522
  5
1525
331
4BE4
  5
4BEB
331
57B0
  5
57BE
331
48D5
  5
4BBB
331
4BF4
  5
5173
331
3325
  5
332C
331
3384
  5
338D
331
36D8
  5
36DE
331
45F6
  5
4777
331
4BBD
  5
4BC3
331
332D
  5
3334
331
338C
  5
33A2
331
3681
  5
3687
331
36E0
  5
36E6
331
3887
  5
45DB
331
36E8
  5
36EE
331
3689
  5
368F
331
3335
  5
335B
331
3473
  5
34EA
331
36F0
  5
3870
331
3691
  5
3697
331
35E2
  5
3683
331
14D3
  5
14D6
331
152A
  5
152D
331
14DB
  5
14DE
331
1532
  5
1535
331
55ED
  5
5769
331
57C0
  5
57C9
331
153A
  5
153D
331
14E3
  5
1509
331
3316
  5
331C
331
57C8
  5
57CE
331
2D1F
  5
2D28
331
331E
  5
3322
331
57E0
  5
3368
331
5791
  5
57BA
331
2D27
  5
2D2D
331
4EB4
  5
5176
331
5174
  5
517A
331
517C
  5
52B3
331
3699
  5
369F
331
48BE
  5
48C4
331
36A1
  5
36CF
331
45DF
  5
45E5
331
34EB
  5
3682
331
48C6
  5
48CC
331
45E7
  5
45EF
331
36D1
  5
36D7
331
45EF
  5
45F5
331
2C18
  5
2CC0
331
2621
  5
2622
331
151B
  5
151E
331
1434
  5
1438
331
2D37
  5
32F8
331
2629
  5
262A
331
DF5
  5
DF8
331
1523
  5
1526
331
2CF0
  5
2CF2
331
52BA
  5
5348
331
4BE5
  5
4BED
331
4BED
  5
4BF3
331
3870
  5
3888
331
5342
  5
55ED
331
3326
  5
332E
331
3385
  5
338E
331
36D9
  5
36DF
331
45F7
  5
4779
331
3682
  5
3688
331
4BBE
  5
4BC4
331
346C
  5
348A
331
36E1
  5
36E7
331
3888
  5
45DC
331
36E9
  5
36EF
331
3336
  5
3362
331
368A
  5
3690
331
4777
  5
48C1
331
36F1
  5
3871
331
3692
  5
3698
331
3484
  5
35E2
331
14D4
  5
14D7
331
152B
  5
152E
331
2D00
  5
2D1F
331
2C09
  5
2C0B
331
14DC
  5
14DF
331
1533
  5
1536
331
55EE
  5
576B
331
153B
  5
15B1
331
331F
  5
3324
331
525B
  5
52B7
331
57E1
  5
3369
331
4EB5
  5
5177
331
5175
  5
517B
331
36F9
  5
3873
331
369A
  5
36A0
331
52B3
  5
52BA
331
517D
  5
52B4
331
48BF
  5
48C5
331
336E
  5
3374
331
33B5
  5
3472
331
36A2
  5
36D0
331
45E0
  5
45E6
331
3376
  5
338A
331
33FD
  5
3473
331
3799
  5
3887
331
48C7
  5
48CD
331
36D2
  5
36D8
331
2C59
  5
2CC6
331
DE6
  5
DE9
331
2622
  5
2623
331
DEE
  5
DF1
331
1435
  5
1439
331
151C
  5
151F
331
2CC1
  5
2CF1
331
262A
  5
262B
331
DF6
  5
DF9
331
1524
  5
1527
331
2CF1
  5
2CF3
331
32F8
  5
3301
331
4BE6
  5
4BEE
331
52C3
  5
53C5
331
57BA
  5
57BF
331
4BEE
  5
4BF4
331
45F0
  5
45F6
331
3871
  5
3889
331
5343
  5
55EE
331
5244
  5
52B5
331
4BF6
  5
5174
331
3327
  5
3331
331
3386
  5
3391
331
343D
  5
3484
331
36DA
  5
36E0
331
4BBF
  5
4BD1
331
3683
  5
3689
331
36E2
  5
36E8
331
3889
  5
45DD
331
36EA
  5
36F0
331
3337
  5
3367
331
3396
  5
3403
331
368B
  5
3691
331
3693
  5
3699
331
14D5
  5
14D8
331
152C
  5
152F
331
3300
  5
3319
331
2C0A
  5
2C0C
331
1534
  5
1537
331
14DD
  5
14E0
331
55EF
  5
5786
331
56BC
  5
57A7
331
2C12
  5
2C18
331
1156
  5
136E
331
153C
  5
15B2
331
3318
  5
331D
331
57E2
  5
2CF4
331
4EB6
  5
5178
331
5176
  5
517C
331
52B4
  5
52C3
331
3367
  5
336E
331
369B
  5
36A1
331
45D9
  5
45DF
331
4BDF
  5
4BE5
331
336F
  5
3376
331
36A3
  5
36D1
331
48C0
  5
48C6
331
45E1
  5
45E7
331
48C8
  5
48D0
331
45E9
  5
45F0
331
337F
  5
338B
331
36D3
  5
36D9
331
2D29
  5
2D32
331
DE7
  5
DEA
331
2D31
  5
2D37
331
2623
  5
2624
331
DEF
  5
DF2
331
1436
  5
14D0
331
151D
  5
1520
331
2D39
  5
32FA
331
262B
  5
262C
331
DF7
  5
DFF
331
1525
  5
1528
331
2CF2
  5
2D08
331
48D0
  5
48FC
331
57BB
  5
57C0
331
4BEF
  5
4BF6
331
3320
  5
3325
331
45F1
  5
45F7
331
5344
  5
55EF
331
36DB
  5
36E1
331
45F9
  5
477A
331
5255
  5
52B6
331
3330
  5
3337
331
338F
  5
33A3
331
3684
  5
368A
331
36E3
  5
36E9
331
388A
  5
45DE
331
36EB
  5
36F1
331
368C
  5
3692
331
4779
  5
48C2
331
3694
  5
369A
331
14D6
  5
14D9
331
152D
  5
1530
331
3301
  5
331B
331
2C0B
  5
2C12
331
1535
  5
1538
331
14DE
  5
14E1
331
55F0
  5
5791
331
2C13
  5
2C59
331
153D
  5
15B4
331
3319
  5
331E
331
4BC0
  5
4BD2
331
57E3
  5
2D01
331
579C
  5
57BB
331
5177
  5
517D
331
52B5
  5
5342
331
3368
  5
3370
331
369C
  5
36A2
331
45DA
  5
45E0
331
3370
  5
337F
331
36A4
  5
36D2
331
48C1
  5
48C7
331
45E2
  5
45E9
331
48C9
  5
48D1
331
45EA
  5
45F1
331
36D4
  5
36DA
331
2D2A
  5
2D34
331
261C
  5
261C
331
142F
  5
1434
331
DF0
  5
DF3
331
151E
  5
1521
331
4BE0
  5
4BE6
331
262C
  5
262D
331
1526
  5
1529
331
2CF3
  5
2D0D
331
32FA
  5
3302
331
48D1
  5
496B
331
48F9
  5
4BBC
331
4BE8
  5
4BEF
331
57BC
  5
57C4
331
4BF0
  5
4C33
331
3321
  5
3326
331
45F2
  5
45F9
331
3873
  5
388A
331
36DC
  5
36E2
331
45FA
  5
48BE
331
3685
  5
368B
331
36E4
  5
36EA
331
36EC
  5
36F9
331
3398
  5
343E
331
368D
  5
3693
331
477A
  5
48C3
331
3695
  5
369B
331
DF8
  5
E01
331
2C04
  5
2C0A
331
152E
  5
1531
331
14D7
  5
14DA
331
2D03
  5
2D20
331
2C0C
  5
2C13
331
14DF
  5
14E2
331
1536
  5
1539
331
57C4
  5
2C04
331
55F1
  5
579C
331
57CC
  5
57E1
331
14EF
  5
151B
331
2D23
  5
2D2A
331
4BC1
  5
4BDF
331
53C5
  5
56BC
331
4BD1
  5
4BE3
331
5178
  5
5244
331
52B6
  5
5343
331
3369
  5
3371
331
369D
  5
36A3
331
48C2
  5
48C8
331
3371
  5
3380
331
45DB
  5
45E1
331
45E3
  5
45EA
331
36CD
  5
36D3
331
48CA
  5
48D5
331
45EB
  5
45F2
331
36D5
  5
36DB
331
260D
  5
260D
331
2D2B
  5
2D36
331
261D
  5
261D
331
1430
  5
1435
331
2625
  5
2626
331
1438
  5
14D1
331
151F
  5
1522
331
2D3B
  5
32FB
331
262D
  5
262E
331
1527
  5
152A
331
32FB
  5
3303
331
4BE1
  5
4BE8
331
57B5
  5
2620
331
48FA
  5
4BBD
331
4BE9
  5
4BF0
331
57BD
  5
57C5
331
4BF1
  5
4EB4
331
3322
  5
3327
331
3438
  5
3482
331
45F3
  5
45FA
331
5346
  5
55F0
331
36DD
  5
36E3
331
45FB
  5
48BF
331
3686
  5
368C
331
3332
  5
335A
331
36E5
  5
36EB
331
36ED
  5
3796
331
368E
  5
3694
331
335A
  5
336A
331
3696
  5
369C
331
14D0
  5
14D3
331
152F
  5
1532
331
E39
  5
E44
331
14D8
  5
14DB
331
14E0
  5
14E3
331
1537
  5
153A
331
2D0C
  5
2D24
331
57C5
  5
57CC
331
5786
  5
57B5
331
331B
  5
331F
331
57CD
  5
57E2
331
4BC2
  5
4BE0
331
4BD2
  5
4BE4
331
5179
  5
5255
331
3362
  5
336C
331
33A1
  5
346D
331
369E
  5
36A4
331
35EF
  5
3684
331
52B7
  5
5344
331
336A
  5
3372
331
45DC
  5
45E2
331
363F
  5
3685
331
3372
  5
3382
331
48C3
  5
48C9
331
45E4
  5
45EB
331
36CE
  5
36D4
331
48CB
  5
48F9
331
36D6
  5
36DC
331
1500
  5
151C
331
260E
  5
260E
331
2D34
  5
2D39
331
2626
  5
2627
331
1439
  5
14D2
331
1520
  5
1523
331
2D3C
  5
3300
331
262E
  5
2C09
331
4BE2
  5
4BE9
331
48FB
  5
4BBE
331
4BEA
  5
4BF1
331
57BE
  5
57C7
331
496B
  5
4BC0
331
4BF2
  5
4EB5
331
3382
  5
338C
331
45F4
  5
45FB
331
36DE
  5
36E4
331
4BBB
  5
4BC1
331
332B
  5
3333
331
338A
  5
3394
331
3687
  5
368D
331
3392
  5
33F1
331
3471
  5
34AA
331
36E6
  5
36EC
331
36EE
  5
3797
331
335B
  5
336B
331
368F
  5
3695
331
3697
  5
369D
331
1528
  5
152B
331
14D1
  5
14D4
331
E3A
  5
E48
331
14D9
  5
14DC
331
1530
  5
1533
331
1538
  5
153B
331
14E1
  5
14EF
331
331C
  5
3320
331
57CE
  5
57E3
331
2D25
  5
2D2B
331
4BC3
  5
4BE1
331
517A
  5
525B
331
369F
  5
36CD
331
45DD
  5
45E3
331
3796
  5
3876
331
3373
  5
3384
331
34E9
  5
3640
331
3640
  5
3686
331
48C4
  5
48CA
331
45E5
  5
45ED
331
36CF
  5
36D5
331
48CC
  5
48FA
331
45ED
  5
45F3
331
36D7
  5
36DD
331
141A
  5
1430
331
1630
  5
1634
331
1509
  5
151D
331
2D35
  5
2D3B
331
261F
  5
261F
331
DEB
  5
DEF
331
1432
  5
1436
331
57A7
  5
57BC
331
2627
  5
2628
331
1521
  5
1524
331
1680
  5
DDD
331
52B8
  5
5346
331
5770
  5
57B0
331
57AF
  5
57BD
331
4BE3
  5
4BEA
331
48FC
  5
4BBF
331
4BEB
  5
4BF2
331
57BF
  5
57C8
331
4BF3
  5
4EB6
331
3324
  5
332B
331
45F5
  5
45FD
331
3876
  5
45D9
331
5348
  5
55F1
331
4BBC
  5
4BC2
331
4C33
  5
5175
331
338B
  5
33A1
331
36DF
  5
36E5
331
3886
  5
45DA
331
36E7
  5
36ED
331
3688
  5
368E
331
3472
  5
34E9
331
45FD
  5
48C0
331
36EF
  5
3799
331
3690
  5
3696
331
3482
  5
34EB
  0
SORTENTSTABLE
  5
5783
102
{ACAD_REACTORS
330
5782
102
}
330
5782
100
AcDbSortentsTable
330
577C
  0
SORTENTSTABLE
  5
578E
102
{ACAD_REACTORS
330
578D
102
}
330
578D
100
AcDbSortentsTable
330
5787
  0
SORTENTSTABLE
  5
5799
102
{ACAD_REACTORS
330
5798
102
}
330
5798
100
AcDbSortentsTable
330
5792
  0
SORTENTSTABLE
  5
57A4
102
{ACAD_REACTORS
330
57A3
102
}
330
57A3
100
AcDbSortentsTable
330
579D
  0
GROUP
  5
38DD
102
{ACAD_REACTORS
330
D
102
}
330
D
100
AcDbGroup
300

 70
     1
 71
     1
  0
GROUP
  5
38DE
102
{ACAD_REACTORS
330
D
102
}
330
D
100
AcDbGroup
300

 70
     1
 71
     1
  0
GROUP
  5
38DF
102
{ACAD_REACTORS
330
D
102
}
330
D
100
AcDbGroup
300

 70
     1
 71
     1
  0
GROUP
  5
38E0
102
{ACAD_REACTORS
330
D
102
}
330
D
100
AcDbGroup
300

 70
     1
 71
     1
  0
GROUP
  5
38E1
102
{ACAD_REACTORS
330
D
102
}
330
D
100
AcDbGroup
300

 70
     1
 71
     1
  0
GROUP
  5
52B2
102
{ACAD_REACTORS
330
D
102
}
330
D
100
AcDbGroup
300

 70
     1
 71
     1
  0
GROUP
  5
52BB
102
{ACAD_REACTORS
330
D
102
}
330
D
100
AcDbGroup
300

 70
     1
 71
     1
340
52BA
340
52B8
340
52B7
340
52B6
340
52B5
340
52B4
340
52B3
  0
GROUP
  5
5771
102
{ACAD_REACTORS
330
D
102
}
330
D
100
AcDbGroup
300

 70
     1
 71
     1
340
5770
340
5344
340
5343
340
5346
340
5348
  0
LAYOUT
  5
1E
102
{ACAD_XDICTIONARY
360
5494
102
}
102
{ACAD_REACTORS
330
1A
102
}
330
1A
100
AcDbPlotSettings
  1

  2
hp officejet g series
  4
A4
  6

 40
4.265083312988281
 41
12.39309406280517
 42
4.180419921875
 43
3.17498779296875
 44
209.9733276367187
 45
296.9259948730469
 46
1.3
 47
0.0
 48
0.0
 49
0.0
140
0.0
141
0.0
142
1.0
143
1.055750582214698
 70
   756
 72
     1
 73
     0
 74
     1
  7
aclt.ctb
 75
     0
147
0.947193415609823
 76
     0
 77
     2
 78
   300
148
0.0092131485209279
149
0.0202585896031451
100
AcDbLayout
  1
DIN A4 Title Block
 70
     1
 71
     1
 10
-5.884553096281611
 20
-13.10427486185124
 11
215.7949098057419
 21
300.3755171000467
 12
0.0
 22
0.0
 32
0.0
 14
-0.0056630084239373
 24
-0.007538423495248
 34
-0.0015258207003583
 15
210.0005847543558
 25
297.0128424453143
 35
0.0000000349246037
146
0.0
 13
0.0
 23
0.0
 33
0.0
 16
1.0
 26
0.0
 36
0.0
 17
0.0
 27
1.0
 37
0.0
 76
     0
330
1B
331
2E
  0
LAYOUT
  5
22
102
{ACAD_REACTORS
330
1A
102
}
330
1A
100
AcDbPlotSettings
  1

  2
none_device
  4
Letter_(8.50_x_11.00_Inches)
  6

 40
6.349999904632568
 41
6.349999904632568
 42
6.350006103515625
 43
6.350006103515625
 44
215.8999938964844
 45
279.3999938964844
 46
0.0
 47
0.0
 48
0.0
 49
0.0
140
0.0
141
0.0
142
1.0
143
88.35030885501533
 70
 11920
 72
     0
 73
     1
 74
     0
  7

 75
     0
147
0.0113185795608369
 76
     0
 77
     2
 78
   300
148
45.96799130115901
149
624.965926703681
100
AcDbLayout
  1
Model
 70
     1
 71
     0
 10
0.0
 20
0.0
 11
12.0
 21
9.0
 12
0.0
 22
0.0
 32
0.0
 14
0.0
 24
0.0
 34
0.0
 15
0.0
 25
0.0
 35
0.0
146
0.0
 13
0.0
 23
0.0
 33
0.0
 16
1.0
 26
0.0
 36
0.0
 17
0.0
 27
1.0
 37
0.0
 76
     0
330
1F
331
542A
  0
MATERIAL
  5
5435
102
{ACAD_XDICTIONARY
360
5436
102
}
102
{ACAD_REACTORS
330
542C
102
}
330
542C
100
AcDbMaterial
  1
ByBlock
 72
     0
 43
0.0008202099737533
 43
0.0
 43
0.0
 43
0.0
 43
0.0
 43
0.0008202099737533
 43
0.0
 43
0.0
 43
0.0
 43
0.0
 43
1.0
 43
0.0
 43
0.0
 43
0.0
 43
0.0
 43
1.0
 77
     0
 47
0.0008202099737533
 47
0.0
 47
0.0
 47
0.0
 47
0.0
 47
0.0008202099737533
 47
0.0
 47
0.0
 47
0.0
 47
0.0
 47
1.0
 47
0.0
 47
0.0
 47
0.0
 47
0.0
 47
1.0
171
     0
 49
0.0008202099737533
 49
0.0
 49
0.0
 49
0.0
 49
0.0
 49
0.0008202099737533
 49
0.0
 49
0.0
 49
0.0
 49
0.0
 49
1.0
 49
0.0
 49
0.0
 49
0.0
 49
0.0
 49
1.0
175
     0
142
0.0008202099737533
142
0.0
142
0.0
142
0.0
142
0.0
142
0.0008202099737533
142
0.0
142
0.0
142
0.0
142
0.0
142
1.0
142
0.0
142
0.0
142
0.0
142
0.0
142
1.0
179
     0
144
0.0008202099737533
144
0.0
144
0.0
144
0.0
144
0.0
144
0.0008202099737533
144
0.0
144
0.0
144
0.0
144
0.0
144
1.0
144
0.0
144
0.0
144
0.0
144
0.0
144
1.0
147
0.0008202099737533
147
0.0
147
0.0
147
0.0
147
0.0
147
0.0008202099737533
147
0.0
147
0.0
147
0.0
147
0.0
147
1.0
147
0.0
147
0.0
147
0.0
147
0.0
147
1.0
  0
MATERIAL
  5
542D
102
{ACAD_XDICTIONARY
360
542E
102
}
102
{ACAD_REACTORS
330
542C
102
}
330
542C
100
AcDbMaterial
  1
ByLayer
 72
     0
 43
0.0008202099737533
 43
0.0
 43
0.0
 43
0.0
 43
0.0
 43
0.0008202099737533
 43
0.0
 43
0.0
 43
0.0
 43
0.0
 43
1.0
 43
0.0
 43
0.0
 43
0.0
 43
0.0
 43
1.0
 77
     0
 47
0.0008202099737533
 47
0.0
 47
0.0
 47
0.0
 47
0.0
 47
0.0008202099737533
 47
0.0
 47
0.0
 47
0.0
 47
0.0
 47
1.0
 47
0.0
 47
0.0
 47
0.0
 47
0.0
 47
1.0
171
     0
 49
0.0008202099737533
 49
0.0
 49
0.0
 49
0.0
 49
0.0
 49
0.0008202099737533
 49
0.0
 49
0.0
 49
0.0
 49
0.0
 49
1.0
 49
0.0
 49
0.0
 49
0.0
 49
0.0
 49
1.0
175
     0
142
0.0008202099737533
142
0.0
142
0.0
142
0.0
142
0.0
142
0.0008202099737533
142
0.0
142
0.0
142
0.0
142
0.0
142
1.0
142
0.0
142
0.0
142
0.0
142
0.0
142
1.0
179
     0
144
0.0008202099737533
144
0.0
144
0.0
144
0.0
144
0.0
144
0.0008202099737533
144
0.0
144
0.0
144
0.0
144
0.0
144
1.0
144
0.0
144
0.0
144
0.0
144
0.0
144
1.0
147
0.0008202099737533
147
0.0
147
0.0
147
0.0
147
0.0
147
0.0008202099737533
147
0.0
147
0.0
147
0.0
147
0.0
147
1.0
147
0.0
147
0.0
147
0.0
147
0.0
147
1.0
  0
MATERIAL
  5
543D
102
{ACAD_XDICTIONARY
360
543E
102
}
102
{ACAD_REACTORS
330
542C
102
}
330
542C
100
AcDbMaterial
  1
Global
 72
     0
 43
0.0008202099737533
 43
0.0
 43
0.0
 43
0.0
 43
0.0
 43
0.0008202099737533
 43
0.0
 43
0.0
 43
0.0
 43
0.0
 43
1.0
 43
0.0
 43
0.0
 43
0.0
 43
0.0
 43
1.0
 77
     0
 47
0.0008202099737533
 47
0.0
 47
0.0
 47
0.0
 47
0.0
 47
0.0008202099737533
 47
0.0
 47
0.0
 47
0.0
 47
0.0
 47
1.0
 47
0.0
 47
0.0
 47
0.0
 47
0.0
 47
1.0
171
     0
 49
0.0008202099737533
 49
0.0
 49
0.0
 49
0.0
 49
0.0
 49
0.0008202099737533
 49
0.0
 49
0.0
 49
0.0
 49
0.0
 49
1.0
 49
0.0
 49
0.0
 49
0.0
 49
0.0
 49
1.0
175
     0
142
0.0008202099737533
142
0.0
142
0.0
142
0.0
142
0.0
142
0.0008202099737533
142
0.0
142
0.0
142
0.0
142
0.0
142
1.0
142
0.0
142
0.0
142
0.0
142
0.0
142
1.0
179
     0
144
0.0008202099737533
144
0.0
144
0.0
144
0.0
144
0.0
144
0.0008202099737533
144
0.0
144
0.0
144
0.0
144
0.0
144
1.0
144
0.0
144
0.0
144
0.0
144
0.0
144
1.0
147
0.0008202099737533
147
0.0
147
0.0
147
0.0
147
0.0
147
0.0008202099737533
147
0.0
147
0.0
147
0.0
147
0.0
147
1.0
147
0.0
147
0.0
147
0.0
147
0.0
147
1.0
  0
MLEADERSTYLE
  5
547C
102
{ACAD_REACTORS
330
547B
102
}
330
547B
100
AcDbMLeaderStyle
170
     2
171
     1
172
     0
 90
        2
 40
0.0
 41
0.0
173
     1
 91
-1056964608
340
14
 92
       -2
290
     1
 42
2.0
291
     1
 43
0.36
  3
Standard
 44
4.0
300

342
11
174
     1
178
     6
175
     1
176
     0
 93
-1056964608
 45
4.0
292
     0
297
     0
 46
4.0
 94
-1056964608
 47
1.0
 49
1.0
140
1.0
293
     1
141
0.0
294
     1
177
     0
142
1.0
295
     0
296
     0
143
0.125
1001
ACAD_MLEADERVER
1070
     2
  0
MLINESTYLE
  5
18
102
{ACAD_REACTORS
330
17
102
}
330
17
100
AcDbMlineStyle
  2
STANDARD
 70
     0
  3

 62
   256
 51
90.0
 52
90.0
 71
     2
 49
0.5
 62
   256
  6
BYLAYER
 49
-0.5
 62
   256
  6
BYLAYER
  0
PLOTSETTINGS
  5
7E
102
{ACAD_REACTORS
330
19
102
}
330
19
100
AcDbPlotSettings
  1
DIN A4 title block - no output device
  2
None
  4
ISO_A4_(210.00_x_297.00_MM)
  6

 40
7.549999999999999
 41
20.05
 42
7.549999999999999
 43
20.05
 44
210.0
 45
297.0
 46
-7.559999999999999
 47
-20.06
 48
0.0
 49
0.0
140
0.0
141
0.0
142
1.0
143
1.0
 70
   692
 72
     1
 73
     0
 74
     1
  7

 75
    16
147
1.0
 76
     0
 77
     2
 78
   300
148
0.0128164049386896
149
0.0090630292066862
  0
ACDBPLACEHOLDER
  5
F
102
{ACAD_REACTORS
330
E
102
}
330
E
  0
SCALE
  5
545A
102
{ACAD_REACTORS
330
5459
102
}
330
5459
100
AcDbScale
 70
     0
300
1:1
140
1.0
141
1.0
290
     1
  0
SCALE
  5
545B
102
{ACAD_REACTORS
330
5459
102
}
330
5459
100
AcDbScale
 70
     0
300
1:2
140
1.0
141
2.0
290
     0
  0
SCALE
  5
545C
102
{ACAD_REACTORS
330
5459
102
}
330
5459
100
AcDbScale
 70
     0
300
1:4
140
1.0
141
4.0
290
     0
  0
SCALE
  5
545D
102
{ACAD_REACTORS
330
5459
102
}
330
5459
100
AcDbScale
 70
     0
300
1:5
140
1.0
141
5.0
290
     0
  0
SCALE
  5
545E
102
{ACAD_REACTORS
330
5459
102
}
330
5459
100
AcDbScale
 70
     0
300
1:8
140
1.0
141
8.0
290
     0
  0
SCALE
  5
545F
102
{ACAD_REACTORS
330
5459
102
}
330
5459
100
AcDbScale
 70
     0
300
1:10
140
1.0
141
10.0
290
     0
  0
SCALE
  5
5460
102
{ACAD_REACTORS
330
5459
102
}
330
5459
100
AcDbScale
 70
     0
300
1:16
140
1.0
141
16.0
290
     0
  0
SCALE
  5
5461
102
{ACAD_REACTORS
330
5459
102
}
330
5459
100
AcDbScale
 70
     0
300
1:20
140
1.0
141
20.0
290
     0
  0
SCALE
  5
5462
102
{ACAD_REACTORS
330
5459
102
}
330
5459
100
AcDbScale
 70
     0
300
1:30
140
1.0
141
30.0
290
     0
  0
SCALE
  5
5463
102
{ACAD_REACTORS
330
5459
102
}
330
5459
100
AcDbScale
 70
     0
300
1:40
140
1.0
141
40.0
290
     0
  0
SCALE
  5
5464
102
{ACAD_REACTORS
330
5459
102
}
330
5459
100
AcDbScale
 70
     0
300
1:50
140
1.0
141
50.0
290
     0
  0
SCALE
  5
5465
102
{ACAD_REACTORS
330
5459
102
}
330
5459
100
AcDbScale
 70
     0
300
1:100
140
1.0
141
100.0
290
     0
  0
SCALE
  5
5466
102
{ACAD_REACTORS
330
5459
102
}
330
5459
100
AcDbScale
 70
     0
300
2:1
140
2.0
141
1.0
290
     0
  0
SCALE
  5
5467
102
{ACAD_REACTORS
330
5459
102
}
330
5459
100
AcDbScale
 70
     0
300
4:1
140
4.0
141
1.0
290
     0
  0
SCALE
  5
5468
102
{ACAD_REACTORS
330
5459
102
}
330
5459
100
AcDbScale
 70
     0
300
8:1
140
8.0
141
1.0
290
     0
  0
SCALE
  5
5469
102
{ACAD_REACTORS
330
5459
102
}
330
5459
100
AcDbScale
 70
     0
300
10:1
140
10.0
141
1.0
290
     0
  0
SCALE
  5
546A
102
{ACAD_REACTORS
330
5459
102
}
330
5459
100
AcDbScale
 70
     0
300
100:1
140
100.0
141
1.0
290
     0
  0
SCALE
  5
546B
102
{ACAD_REACTORS
330
5459
102
}
330
5459
100
AcDbScale
 70
     0
300
1/128" = 1'-0"
140
0.0078125
141
12.0
290
     0
  0
SCALE
  5
546C
102
{ACAD_REACTORS
330
5459
102
}
330
5459
100
AcDbScale
 70
     0
300
1/64" = 1'-0"
140
0.015625
141
12.0
290
     0
  0
SCALE
  5
546D
102
{ACAD_REACTORS
330
5459
102
}
330
5459
100
AcDbScale
 70
     0
300
1/32" = 1'-0"
140
0.03125
141
12.0
290
     0
  0
SCALE
  5
546E
102
{ACAD_REACTORS
330
5459
102
}
330
5459
100
AcDbScale
 70
     0
300
1/16" = 1'-0"
140
0.0625
141
12.0
290
     0
  0
SCALE
  5
546F
102
{ACAD_REACTORS
330
5459
102
}
330
5459
100
AcDbScale
 70
     0
300
3/32" = 1'-0"
140
0.09375
141
12.0
290
     0
  0
SCALE
  5
5470
102
{ACAD_REACTORS
330
5459
102
}
330
5459
100
AcDbScale
 70
     0
300
1/8" = 1'-0"
140
0.125
141
12.0
290
     0
  0
SCALE
  5
5471
102
{ACAD_REACTORS
330
5459
102
}
330
5459
100
AcDbScale
 70
     0
300
3/16" = 1'-0"
140
0.1875
141
12.0
290
     0
  0
SCALE
  5
5472
102
{ACAD_REACTORS
330
5459
102
}
330
5459
100
AcDbScale
 70
     0
300
1/4" = 1'-0"
140
0.25
141
12.0
290
     0
  0
SCALE
  5
5473
102
{ACAD_REACTORS
330
5459
102
}
330
5459
100
AcDbScale
 70
     0
300
3/8" = 1'-0"
140
0.375
141
12.0
290
     0
  0
SCALE
  5
5474
102
{ACAD_REACTORS
330
5459
102
}
330
5459
100
AcDbScale
 70
     0
300
1/2" = 1'-0"
140
0.5
141
12.0
290
     0
  0
SCALE
  5
5475
102
{ACAD_REACTORS
330
5459
102
}
330
5459
100
AcDbScale
 70
     0
300
3/4" = 1'-0"
140
0.75
141
12.0
290
     0
  0
SCALE
  5
5476
102
{ACAD_REACTORS
330
5459
102
}
330
5459
100
AcDbScale
 70
     0
300
1" = 1'-0"
140
1.0
141
12.0
290
     0
  0
SCALE
  5
5477
102
{ACAD_REACTORS
330
5459
102
}
330
5459
100
AcDbScale
 70
     0
300
1-1/2" = 1'-0"
140
1.5
141
12.0
290
     0
  0
SCALE
  5
5478
102
{ACAD_REACTORS
330
5459
102
}
330
5459
100
AcDbScale
 70
     0
300
3" = 1'-0"
140
3.0
141
12.0
290
     0
  0
SCALE
  5
5479
102
{ACAD_REACTORS
330
5459
102
}
330
5459
100
AcDbScale
 70
     0
300
6" = 1'-0"
140
6.0
141
12.0
290
     0
  0
SCALE
  5
547A
102
{ACAD_REACTORS
330
5459
102
}
330
5459
100
AcDbScale
 70
     0
300
1'-0" = 1'-0"
140
12.0
141
12.0
290
     0
  0
TABLESTYLE
  5
5458
102
{ACAD_XDICTIONARY
360
5685
102
}
102
{ACAD_REACTORS
330
5457
102
}
330
5457
100
AcDbTableStyle
  3
Standard
 70
     0
 71
     0
 40
1.5
 41
1.5
280
     0
281
     0
  7
Standard
140
4.5
170
     2
 62
     0
 63
     7
283
     0
274
    -2
284
     1
 64
     0
275
    -2
285
     1
 65
     0
276
    -2
286
     1
 66
     0
277
    -2
287
     1
 67
     0
278
    -2
288
     1
 68
     0
279
    -2
289
     1
 69
     0
  7
Standard
140
6.0
170
     5
 62
     0
 63
     7
283
     0
274
    -2
284
     1
 64
     0
275
    -2
285
     1
 65
     0
276
    -2
286
     1
 66
     0
277
    -2
287
     1
 67
     0
278
    -2
288
     1
 68
     0
279
    -2
289
     1
 69
     0
  7
Standard
140
4.5
170
     5
 62
     0
 63
     7
283
     0
274
    -2
284
     1
 64
     0
275
    -2
285
     1
 65
     0
276
    -2
286
     1
 66
     0
277
    -2
287
     1
 67
     0
278
    -2
288
     1
 68
     0
279
    -2
289
     1
 69
     0
  0
VISUALSTYLE
  5
544B
102
{ACAD_REACTORS
330
5445
102
}
330
5445
100
AcDbVisualStyle
  2
2dWireframe
 70
     4
 71
     0
 72
     2
 73
     0
 90
        0
 40
-0.6
 41
-30.0
 62
     5
 63
     7
421
 16777215
 74
     1
 91
        4
 64
     7
 65
   257
 75
     1
175
     1
 42
1.0
 92
        0
 66
   257
 43
1.0
 76
     1
 77
     6
 78
     2
 67
     7
 79
     5
170
     0
171
     0
290
     0
174
     0
 93
        1
 44
0.0
173
     0
291
     0
 45
0.0
1001
ACAD
1000
AcDbSavedByObjectVersion
1070
     0
  0
VISUALSTYLE
  5
544D
102
{ACAD_REACTORS
330
5445
102
}
330
5445
100
AcDbVisualStyle
  2
3D Hidden
 70
     6
 71
     1
 72
     2
 73
     2
 90
        0
 40
-0.6
 41
-30.0
 62
     5
 63
     7
421
 16777215
 74
     2
 91
        2
 64
     7
 65
   257
 75
     2
175
     1
 42
40.0
 92
        0
 66
   257
 43
1.0
 76
     1
 77
     6
 78
     2
 67
     7
 79
     3
170
     0
171
     0
290
     0
174
     0
 93
        1
 44
0.0
173
     0
291
     0
 45
0.0
1001
ACAD
1000
AcDbSavedByObjectVersion
1070
     0
  0
VISUALSTYLE
  5
544C
102
{ACAD_REACTORS
330
5445
102
}
330
5445
100
AcDbVisualStyle
  2
3dWireframe
 70
     5
 71
     0
 72
     2
 73
     0
 90
        0
 40
-0.6
 41
-30.0
 62
     5
 63
     7
421
 16777215
 74
     1
 91
        4
 64
     7
 65
   257
 75
     1
175
     1
 42
1.0
 92
        0
 66
   257
 43
1.0
 76
     1
 77
     6
 78
     2
 67
     7
 79
     5
170
     0
171
     0
290
     0
174
     0
 93
        1
 44
0.0
173
     0
291
     0
 45
0.0
1001
ACAD
1000
AcDbSavedByObjectVersion
1070
     0
  0
VISUALSTYLE
  5
544A
102
{ACAD_REACTORS
330
5445
102
}
330
5445
100
AcDbVisualStyle
  2
Basic
 70
     7
 71
     1
 72
     0
 73
     1
 90
        0
 40
-0.6
 41
-30.0
 62
     5
 63
     7
421
 16777215
 74
     0
 91
        4
 64
     7
 65
   257
 75
     1
175
     1
 42
1.0
 92
        8
 66
     7
 43
1.0
 76
     1
 77
     6
 78
     2
 67
     7
 79
     5
170
     0
171
     0
290
     0
174
     0
 93
        1
 44
0.0
173
     0
291
     1
 45
0.0
1001
ACAD
1000
AcDbSavedByObjectVersion
1070
     0
  0
VISUALSTYLE
  5
5451
102
{ACAD_REACTORS
330
5445
102
}
330
5445
100
AcDbVisualStyle
  2
Brighten
 70
    12
 71
     2
 72
     2
 73
     0
 90
        0
 40
-0.6
 41
-30.0
 62
     5
 63
     7
421
 16777215
 74
     1
 91
        4
 64
     7
 65
   257
 75
     1
175
     1
 42
1.0
 92
        8
 66
     7
 43
1.0
 76
     1
 77
     6
 78
     2
 67
     7
 79
     5
170
     0
171
     0
290
     0
174
     0
 93
        1
 44
50.0
173
     0
291
     1
 45
0.0
1001
ACAD
1000
AcDbSavedByObjectVersion
1070
     0
  0
VISUALSTYLE
  5
5455
102
{ACAD_REACTORS
330
5445
102
}
330
5445
100
AcDbVisualStyle
  2
ColorChange
 70
    16
 71
     2
 72
     2
 73
     3
 90
        0
 40
-0.6
 41
-30.0
 62
     5
 63
     8
421
  8421504
 74
     1
 91
        4
 64
     7
 65
   257
 75
     1
175
     1
 42
1.0
 92
        8
 66
     8
424
  8421504
 43
1.0
 76
     1
 77
     6
 78
     2
 67
     7
 79
     5
170
     0
171
     0
290
     0
174
     0
 93
        1
 44
0.0
173
     0
291
     1
 45
0.0
1001
ACAD
1000
AcDbSavedByObjectVersion
1070
     0
  0
VISUALSTYLE
  5
544E
102
{ACAD_REACTORS
330
5445
102
}
330
5445
100
AcDbVisualStyle
  2
Conceptual
 70
     9
 71
     3
 72
     2
 73
     0
 90
        0
 40
-0.6
 41
-30.0
 62
     5
 63
     7
421
 16777215
 74
     2
 91
        2
 64
     7
 65
   257
 75
     1
175
     1
 42
40.0
 92
        8
 66
     7
 43
1.0
 76
     1
 77
     6
 78
     2
 67
     7
 79
     3
170
     0
171
     0
290
     0
174
     0
 93
        1
 44
0.0
173
     0
291
     0
 45
0.0
1001
ACAD
1000
AcDbSavedByObjectVersion
1070
     0
  0
VISUALSTYLE
  5
5450
102
{ACAD_REACTORS
330
5445
102
}
330
5445
100
AcDbVisualStyle
  2
Dim
 70
    11
 71
     2
 72
     2
 73
     0
 90
        0
 40
-0.6
 41
-30.0
 62
     5
 63
     7
421
 16777215
 74
     1
 91
        4
 64
     7
 65
   257
 75
     1
175
     1
 42
1.0
 92
        8
 66
     7
 43
1.0
 76
     1
 77
     6
 78
     2
 67
     7
 79
     5
170
     0
171
     0
290
     0
174
     0
 93
        1
 44
-50.0
173
     0
291
     1
 45
0.0
1001
ACAD
1000
AcDbSavedByObjectVersion
1070
     0
  0
VISUALSTYLE
  5
5454
102
{ACAD_REACTORS
330
5445
102
}
330
5445
100
AcDbVisualStyle
  2
Facepattern
 70
    15
 71
     2
 72
     2
 73
     0
 90
        0
 40
-0.6
 41
-30.0
 62
     5
 63
     7
421
 16777215
 74
     1
 91
        4
 64
     7
 65
   257
 75
     1
175
     1
 42
1.0
 92
        8
 66
     7
 43
1.0
 76
     1
 77
     6
 78
     2
 67
     7
 79
     5
170
     0
171
     0
290
     0
174
     0
 93
        1
 44
0.0
173
     0
291
     1
 45
0.0
1001
ACAD
1000
AcDbSavedByObjectVersion
1070
     0
  0
VISUALSTYLE
  5
5446
102
{ACAD_REACTORS
330
5445
102
}
330
5445
100
AcDbVisualStyle
  2
Flat
 70
     0
 71
     2
 72
     1
 73
     1
 90
        2
 40
-0.6
 41
30.0
 62
     5
 63
     7
421
 16777215
 74
     0
 91
        4
 64
     7
 65
   257
 75
     1
175
     1
 42
1.0
 92
        8
 66
     7
 43
1.0
 76
     1
 77
     6
 78
     2
 67
     7
 79
     5
170
     0
171
     0
290
     0
174
     0
 93
       13
 44
0.0
173
     0
291
     1
 45
0.0
1001
ACAD
1000
AcDbSavedByObjectVersion
1070
     0
  0
VISUALSTYLE
  5
5447
102
{ACAD_REACTORS
330
5445
102
}
330
5445
100
AcDbVisualStyle
  2
FlatWithEdges
 70
     1
 71
     2
 72
     1
 73
     1
 90
        2
 40
-0.6
 41
30.0
 62
     5
 63
     7
421
 16777215
 74
     1
 91
        4
 64
     7
 65
   257
 75
     1
175
     1
 42
1.0
 92
        0
 66
   257
 43
1.0
 76
     1
 77
     6
 78
     2
 67
     7
 79
     5
170
     0
171
     0
290
     0
174
     0
 93
       13
 44
0.0
173
     0
291
     1
 45
0.0
1001
ACAD
1000
AcDbSavedByObjectVersion
1070
     0
  0
VISUALSTYLE
  5
5448
102
{ACAD_REACTORS
330
5445
102
}
330
5445
100
AcDbVisualStyle
  2
Gouraud
 70
     2
 71
     2
 72
     2
 73
     1
 90
        2
 40
-0.6
 41
30.0
 62
     5
 63
     7
421
 16777215
 74
     0
 91
        4
 64
     7
 65
   257
 75
     1
175
     1
 42
1.0
 92
        0
 66
     7
 43
1.0
 76
     1
 77
     6
 78
     2
 67
     7
 79
     5
170
     0
171
     0
290
     0
174
     0
 93
       13
 44
0.0
173
     0
291
     1
 45
0.0
1001
ACAD
1000
AcDbSavedByObjectVersion
1070
     0
  0
VISUALSTYLE
  5
5449
102
{ACAD_REACTORS
330
5445
102
}
330
5445
100
AcDbVisualStyle
  2
GouraudWithEdges
 70
     3
 71
     2
 72
     2
 73
     1
 90
        2
 40
-0.6
 41
30.0
 62
     5
 63
     7
421
 16777215
 74
     1
 91
        4
 64
     7
 65
   257
 75
     1
175
     1
 42
1.0
 92
        0
 66
   257
 43
1.0
 76
     1
 77
     6
 78
     2
 67
     7
 79
     5
170
     0
171
     0
290
     0
174
     0
 93
       13
 44
0.0
173
     0
291
     1
 45
0.0
1001
ACAD
1000
AcDbSavedByObjectVersion
1070
     0
  0
VISUALSTYLE
  5
5453
102
{ACAD_REACTORS
330
5445
102
}
330
5445
100
AcDbVisualStyle
  2
Linepattern
 70
    14
 71
     2
 72
     2
 73
     0
 90
        0
 40
-0.6
 41
-30.0
 62
     5
 63
     7
421
 16777215
 74
     1
 91
        4
 64
     7
 65
   257
 75
     7
175
     7
 42
1.0
 92
        8
 66
     7
 43
1.0
 76
     1
 77
     6
 78
     2
 67
     7
 79
     5
170
     0
171
     0
290
     0
174
     0
 93
        1
 44
0.0
173
     0
291
     1
 45
0.0
1001
ACAD
1000
AcDbSavedByObjectVersion
1070
     0
  0
VISUALSTYLE
  5
544F
102
{ACAD_REACTORS
330
5445
102
}
330
5445
100
AcDbVisualStyle
  2
Realistic
 70
     8
 71
     2
 72
     2
 73
     0
 90
        0
 40
-0.6
 41
-30.0
 62
     5
 63
     7
421
 16777215
 74
     1
 91
        0
 64
     7
 65
   257
 75
     1
175
     1
 42
1.0
 92
        8
 66
     8
424
  7895160
 43
1.0
 76
     1
 77
     6
 78
     2
 67
     7
 79
     5
170
     0
171
     0
290
     0
174
     0
 93
       13
 44
0.0
173
     0
291
     0
 45
0.0
1001
ACAD
1000
AcDbSavedByObjectVersion
1070
     0
  0
VISUALSTYLE
  5
5452
102
{ACAD_REACTORS
330
5445
102
}
330
5445
100
AcDbVisualStyle
  2
Thicken
 70
    13
 71
     2
 72
     2
 73
     0
 90
        0
 40
-0.6
 41
-30.0
 62
     5
 63
     7
421
 16777215
 74
     1
 91
        4
 64
     7
 65
   257
 75
     1
175
     1
 42
1.0
 92
       12
 66
     7
 43
1.0
 76
     1
 77
     6
 78
     2
 67
     7
 79
     5
170
     0
171
     0
290
     0
174
     0
 93
        1
 44
0.0
173
     0
291
     1
 45
0.0
1001
ACAD
1000
AcDbSavedByObjectVersion
1070
     0
  0
DICTIONARYVAR
  5
568B
102
{ACAD_REACTORS
330
1643
102
}
330
1643
100
DictionaryVariables
280
     0
  1
1:1
  0
DICTIONARYVAR
  5
5689
102
{ACAD_REACTORS
330
1643
102
}
330
1643
100
DictionaryVariables
280
     0
  1
STANDARD
  0
DICTIONARYVAR
  5
5688
102
{ACAD_REACTORS
330
1643
102
}
330
1643
100
DictionaryVariables
280
     0
  1
STANDARD
  0
DICTIONARYVAR
  5
5828
102
{ACAD_REACTORS
330
1643
102
}
330
1643
100
DictionaryVariables
280
     0
  1
1
  0
DICTIONARYVAR
  5
5829
102
{ACAD_REACTORS
330
1643
102
}
330
1643
100
DictionaryVariables
280
     0
  1
15
  0
DICTIONARYVAR
  5
568C
102
{ACAD_REACTORS
330
1643
102
}
330
1643
100
DictionaryVariables
280
     0
  1
0
  0
DICTIONARYVAR
  5
568A
102
{ACAD_REACTORS
330
1643
102
}
330
1643
100
DictionaryVariables
280
     0
  1
0
  0
DICTIONARYVAR
  5
1644
102
{ACAD_REACTORS
330
1643
102
}
330
1643
100
DictionaryVariables
280
     0
  1
127
  0
DICTIONARY
  5
5494
330
1E
100
AcDbDictionary
280
     1
281
     1
  3
ADSK_XREC_LAYOUTTHUMBNAIL
360
5495
  0
DICTIONARY
  5
5436
330
5435
100
AcDbDictionary
280
     1
281
     1
  3
ACAD_XREC_ROUNDTRIP
360
58A4
  3
BUMPTILE
360
5438
  3
DIFFUSETILE
360
5437
  3
OPACITYTILE
360
543B
  3
REFLECTIONTILE
360
543A
  3
REFRACTIONTILE
360
543C
  3
SPECULARTILE
360
5439
  0
DICTIONARY
  5
542E
330
542D
100
AcDbDictionary
280
     1
281
     1
  3
ACAD_XREC_ROUNDTRIP
360
58A3
  3
BUMPTILE
360
5430
  3
DIFFUSETILE
360
542F
  3
OPACITYTILE
360
5433
  3
REFLECTIONTILE
360
5432
  3
REFRACTIONTILE
360
5434
  3
SPECULARTILE
360
5431
  0
DICTIONARY
  5
543E
330
543D
100
AcDbDictionary
280
     1
281
     1
  3
ACAD_XREC_ROUNDTRIP
360
58A5
  3
BUMPTILE
360
5440
  3
DIFFUSETILE
360
543F
  3
OPACITYTILE
360
5443
  3
REFLECTIONTILE
360
5442
  3
REFRACTIONTILE
360
5444
  3
SPECULARTILE
360
5441
  0
DICTIONARY
  5
5685
330
5458
100
AcDbDictionary
280
     1
281
     1
  3
ACAD_ROUNDTRIP_2008_TABLESTYLE_CELLSTYLEMAP
360
58A2
  3
ACAD_XREC_ROUNDTRIP
360
58A6
  0
XRECORD
  5
5495
102
{ACAD_REACTORS
330
5494
102
}
330
5494
100
AcDbXrecord
280
     1
310
28000000B400000000010000010008000000000000B4000000000000000000000001000000000000FFFFFF0000000000FFFFFF000000000000000000000000000000000000000000000000000000000000000000330000006600000099000000CC000000FF00000000330000333300006633000099330000CC330000FF3300
310
0000660000336600006666000099660000CC660000FF66000000990000339900006699000099990000CC990000FF99000000CC000033CC000066CC000099CC0000CCCC0000FFCC000000FF000033FF000066FF000099FF0000CCFF0000FFFF000000003300330033006600330099003300CC003300FF003300003333003333
310
33006633330099333300CC333300FF33330000663300336633006666330099663300CC663300FF66330000993300339933006699330099993300CC993300FF99330000CC330033CC330066CC330099CC3300CCCC3300FFCC330000FF330033FF330066FF330099FF3300CCFF3300FFFF330000006600330066006600660099
310
006600CC006600FF00660000336600333366006633660099336600CC336600FF33660000666600336666006666660099666600CC666600FF66660000996600339966006699660099996600CC996600FF99660000CC660033CC660066CC660099CC6600CCCC6600FFCC660000FF660033FF660066FF660099FF6600CCFF6600
310
FFFF660000009900330099006600990099009900CC009900FF00990000339900333399006633990099339900CC339900FF33990000669900336699006666990099669900CC669900FF66990000999900339999006699990099999900CC999900FF99990000CC990033CC990066CC990099CC9900CCCC9900FFCC990000FF99
310
0033FF990066FF990099FF9900CCFF9900FFFF99000000CC003300CC006600CC009900CC00CC00CC00FF00CC000033CC003333CC006633CC009933CC00CC33CC00FF33CC000066CC003366CC006666CC009966CC00CC66CC00FF66CC000099CC003399CC006699CC009999CC00CC99CC00FF99CC0000CCCC0033CCCC0066CC
310
CC0099CCCC00CCCCCC00FFCCCC0000FFCC0033FFCC0066FFCC0099FFCC00CCFFCC00FFFFCC000000FF003300FF006600FF009900FF00CC00FF00FF00FF000033FF003333FF006633FF009933FF00CC33FF00FF33FF000066FF003366FF006666FF009966FF00CC66FF00FF66FF000099FF003399FF006699FF009999FF00CC
310
99FF00FF99FF0000CCFF0033CCFF0066CCFF0099CCFF00CCCCFF00FFCCFF0000FFFF0033FFFF0066FFFF0099FFFF00CCFFFF00FFFFFF00000000000D0D0D001A1A1A00282828003535350043434300505050005D5D5D006B6B6B00787878008686860093939300A1A1A100AEAEAE00BBBBBB00C9C9C900D6D6D600E4E4E400
310
F1F1F100FFFFFF0000000000000000000000000000000000000000000000000000000000000000000000000000000000E2E2E2E2E2E2E2E2E2E2E2E2E2E2E2E2E2E2E2E2E2E2E2E2E2E2E2E2E2E2E2E2E2E2E2E2E2E2E2E2E2E2E2E2E2E2E2E2E2E2E2E2E2E2E2E2E2E2E2E2E2E2E2E2E2E2E2E2E2E2E2E2E2E2E2E2E2E2E2
310
E2E2E2E2E2E2E2E2E2E2E2E2E2E2E2E2E2E2E2E2E2E2E2E2E2E2E2E2E2E2E2E2E2E2E2E2E2E2E2E2E2E2E2E2E2E2E2E2E2E2E2E2E2E2E2E2E2E2E2E2E2E2E2E2E2E2E2E2E2E2E2E2E2E2E2E2E2E2E2E2E2E2E2E2E2E2E2E2E2E2E2E2E2E2E2E2E2E2E2E2E2E2F5F5F5F5F5F5F5F5F5F5F5F5F5F5F5F5F5F5F5F5F5F5F5F5F5
310
F5F5F5F5F5F5F5F5F5F5F5F5F5F5F5F5F5F5F5F5F5F5F5F5F5F5F5F5F5F5F5F5F5F5F5F5F5F5F5F5F5F5F5F5F5F5F5F5F5F5F5F5F5F5F5F5F5F5F5F5F5F5F5F5F5F5F5F5F5F5F5F5F5F5F5F5F5F5F5F5F5F5F5F5F5F5F5F5F5F5F5F5F5F5F5F5F5F5F5F5F5F5F5F5F5F5F5F5F5F5F5F5F5F5F5F5F5F5F5F5F5F5F5F5F5F5F5
310
F5F5F5F5F5F5F5F5F5F5F5F5F5F5F5F5F5F5F5F5F5F5F5F5F5F5F5E2F5F5F5F5F5F5F5F5F5F5F5F5F5F5F5F5F5F5F5F5F5F5F5F5F5F5F5F5F5F5F5F5F5F5F5F5F5F5F5F5F5F5F5F5F5F5F5F5F5F5F5F5F5F5F5F5F5F5F5F5F5F5F5F5F5F5F5F5F5F5F5F5F5F5F5F5F5F5F5F5F5F5F5F5F5F5F5F5F5F5F5F5F5F5F5F5F5F5F5
310
F5F5F5F5F5F5F5F5F5F5F5F5F5F5F5F5F5F5F5F5F5F5F5F5F5F5F5F5F5F5F5F5F5F5F5F5F5F5F5F5F5F5F5F5F5F5F5F5F5F5F5F5F5F5F5F5F5F5F5F5F5F5F5F5F5F5F5F5F5F5F5F5F5F5F5F5F5F5F5F5E2F5F5F5F5F5F5F5F5F5F5F5F5F5F5F5F5F5F5F5F5F5F5F5F5F5F5F5F5F5F5F5F5F5F5F5F5F5F5F5F5F5F5F5F5F5F5
310
F5F5F5F5F5F5F5F5F5F5F5F5F5F5F5F5F5F5F5F5F5F5F5F5F5F5F5F5F5F5F5F5F5F5F5F5F5F5F5F5F5F5F5F5F5F5F5F5F5F5F5F5F5F5F5F5F5F5F5F5F5F5F5F5F5F5F5F5F5F5F5F5F5F5F5F5F5F5F5F5F5F5F5F5F5F5F5F5F5F5F5F5F5F5F5F5F5F5F5F5F5F5F5F5F5F5F5F5F5F5F5F5F5F5F5F5F5F5F5F5F5F5F5F5F5F5F5
310
F5F5F5F5F5F5E2F5F5F5F5F5F5F5F5F5F5F5F5F5F5F5F5F5F5F5F5F5F5F5F5F5F5F5F5F5F5F5F5F5F5F5F5F5F5F5F5F5F5F5F5F5F5F5F5F5F5F5F5F5F5F5F5F5F5F5F5F5F5F5F5F5F5F5F5F5F5F5F5F5F5F5F5F5F5F5F5F5F5F5F5F5F5F5F5F5F5F5F5F5F5F5F5F5F5F5F5F5F5F5F5F5F5F5F5F5F5F5F5F5F5F5F5F5F5F5F5
310
F5F5F5F5F5F5F5F5F5F5F5F5F5F5F5F5F5F5F5F5F5F5F5F5F5F5F5F5F5F5F5F5F5F5F5F5F5F5F5F5F5F5F5F5F5F5F5F5F5F5F5F5F5F5F5F5F5F5F5E2F5F5F5F5F5F5F5F5F5F5F5F5F5F5F5F5F5F5F5F5F5F5F5F5F5F5F5F5F5F5F5F5F5F5F5F5F5F5F5F5F5F5F5F5F5F5F5F5F5F5F5F5F5F5F5F5F5F5F5F5F5F5F5F5F5F5F5
310
F5F5F5F5F5F5F5F5F5F5F5F5F5F5F5F5F5F5F5F5F5F5F5F5F5F5F5F5F5F5F5F5F5F5F5F5F5F5F5F5F5F5F5F5F5F5F5F5F5F5F5F5F5F5F5F5F5F5F5F5F5F5F5F5F5F5F5F5F5F5F5F5F5F5F5F5F5F5F5F5F5F5F5F5F5F5F5F5F5F5F5F5F5F5F5F5F5F5F5F5F5F5F5F5F5F5F5F5F5F5F5F5E2F5F5F5F5F5F5F5F5F5F5F5F5F5F5
310
F5F5F5F5F5F5F5F5F5F5F5F5F5F5F5F5F5F5F5F5F5F5F5F5F5F5F5F5F5F5F5F5F5F5F5F5F5F5F5F5F5F5F5F5F5F5F5F5F5F5F5F5F5F5F5F5F5F5F5F5F5F5F5F5F5F5F5F5F5F5F5F5F5F5F5F5F5F5F5F5F5F5F5F5F5F5F5F5F5F5F5F5F5F5F5F5F5F5F5F5F5F5F5F5F5F5F5F5F5F5F5F5F5F5F5F5F5F5F5F5F5F5F5F5F5F5F5
310
F5F5F5F5F5F5F5F5F5F5F5F5F5F5F5F5F5F5F5F5F5F5F5F5F5F5F5F5F5F5F5F5F5F5F5F5F5F5E2F5F5F5F5F5F5F5F5F5F5F5F5F5F5F5F5F5F5F5F5F5F5F5F5F5F5F5F5F5F5F5F5F5F5F5F5F5F5F5F5F5F5F5F5F5F5F5F5F5F5F5F5F5F5F5F5F5F5F5F5F5F5F5F5F5F5F5F5F5F5F5F5F5F5F5F5F5F5F5F5F5F5F5F5F5F5F5F5
310
F5F5F5F5F5F5F5F5F5F5F5F5F5F5F5F5F5F5F5F5F5F5F5F5F5F5F5F5F5F5F5F5F5F5F5F5F5F5F5F5F5F5F5F5F5F5F5F5F5F5F5F5F5F5F5F5F5F5F5F5F5F5F5F5F5F5F5F5F5F5F5F5F5F5F5F5F5F5F5F5F5F5F5F5F5F5F5F5F5F5F5E2F5F5F5F5F5F5F5F5F5F5F5F5F5F5F5F5F5F5F5F5F5F5F5F5F5F5F5F5F5F5F5F5F5F5F5
310
F5F5F5F5F5F5F5F5F5F5F5F5F5F5F5F5F5F5F5F5F5F5F5F5F5F5F5F5F5F5F5F5F5F5F5F5F5F5F5F5F5F5F5F5F5F5F5F5F5F5F5F5F5F5F5F5F5F5F5F5F5F5F5F5F5F5F5F5F5F5F5F5F5F5F5F5F5F5F5F5F5F5F5F5F5F5F5F5F5F5F5F5F5F5F5F5F5F5F5F5F5F5F5F5F5F5F5F5F5F5F5F5F5F5F5F5F5F5F5F5F5F5F5F5F5F5F5
310
F5F5F5F5F5F5F5F5F5F5F5F5F5F5F5F5F5E2F5F5F5F5F5F5F5F5F5F5F5F5F5F5F5F5F5F5F5F5F5F5F5F5F5F5F5F5F5F5F5F5F5F5F5F5F5F5F5F5F5F5F5F5F5F5F5F5F5F5F5F5F5F5F5F5F5F5F5F5F5F5F5F5F5F5F5F5F5F5F5F5F5F5F5F5F5F5F5F5F5F5F5F5F5F5F5F5F5F5F5F5F5F5F5F5F5F5F5F5F5F5F5F5F5F5F5F5F5
310
F5F5F5F5F5F5F5F5F5F5F5F5F5F5F5F5F5F5F5F5F5F5F5F5F5F5F5F5F5F5F5F5F5F5F5F5F5F5F5F5F5F5F5F5F5F5F5F5F5F5F5F5F5F5F5F5F5F5F5F5F5F5F5F5F5F5F5F5F5F5E2F5F5F5F5F5F5F5F5F5F5F5F5F5F5F5F5F5F5F5F5F5F5F5F5F5F5F5F5F5F5F5F5F5F5F5F5F5F5F5F5F5F5F5F5F5F5F5F5F5F5F5F5F5F5F5F5
310
F5F5F5F5F5F5F5F5F5F5F5F5F5F5F5F5F5F5F5F5F5F5F5F5F5F5F5F5F5F5F5F5F5F5F5F5F5F5F5F5F5F5F5F5F5F5F5F5F5F5F5F5F5F5F5F5F5F5F5F5F5F5F5F5F5F5F5F5F5F5F5F5F5F5F5F5F5F5F5F5F5F5F5F5F5F5F5F5F5F5F5F5F5F5F5F5F5F5F5F5F5F5F5F5F5F5F5F5F5F5F5F5F5F5F5F5F5F5F5F5F5F5F5E2F5F5F5
310
E2E2E2E2E2E2E2E2E2E2E2E2E2E2E2E2E2E2E2E2E2E2E2E2E2E2E2E2E2E2E2E2E2E2E2E2E2E2E2E2E2E2E2E2E2E2E2E2E2E2E2E2E2E2E2E2E2E2E2E2E2E2E2E2E2E2E2E2E2E2E2E2E2E2E2E2E2E2E2E2E2E2E2E2E2E2E2E2E2E2E2E2E2E2E2E2E2E2E2E2E2E2E2E2E2E2E2E2E2E2E2E2E2E2E2E2E2E2E2E2E2E2E2E2E2E2E2
310
E2E2E2E2E2E2E2E2E2E2E2E2E2E2E2E2E2E2E2E2E2E2E2E2E2E2E2E2E2E2E2E2E2E2E2E2E2E2E2E2E2E2E2E2E2E2E2F5F5E2F5F5F5E2E2F5F5F5F5F5F5F5F5F5F5F5F5F5F5F5F5F5F5F5F5F5F5F5F5F5F5F5F5F5F5F5F5F5F5F5F5F5F5F5F5F5F5F5F5F5F5F5F5F5F5F5F5F5F5F5F5F5F5F5F5F5F5F5F5F5F5F5F5F5F5F5F5
310
F5F5F5F5F5F5F5F5F5F5F5F5F5F5F5F5F5F5F5F5F5F5F5F5F5F5F5F5F5F5F5F5F5F5F5F5F5F5F5F5F5F5F5F5F5F5F5F5F5F5F5F5F5F5F5F5F5F5F5F5F5F5F5F5F5F5F5F5F5F5F5F5F5F5F5F5F5F5F5F5F5F5F5F5F5F5F5F5F5F5F5F5F5F5F5F5F5F5E2E2F5F5E2F5F5F5E2E2F5F5F5F5F5F5F5F5F5F5F5F5F5F5F5F5F5F5F5
310
F5F5F5F5F5F5F5F5F5F5F5F5F5F5F5F5F5F5F5F5F5F5F5F5F5F5F5F5F5F5F5F5F5F5F5F5F5F5F5F5F5F5F5F5F5F5F5F5F5F5F5F5F5F5F5F5F5F5F5F5F5F5F5F5F5F5F5F5F5F5F5F5F5F5F5F5F5F5F5F5F5F5F5F5F5F5F5F5F5F5F5F5F5F5F5F5F5F5F5F5F5F5F5F5F5F5F5F5F5F5F5F5F5F5F5F5F5F5F5F5F5F5F5F5F5F5F5
310
F5F5F5F5F5F5F5F5F5F5F5F5F5F5F5F5F5F5F5F5F5F5F5F5E2E2F5F5E2F5F5F5E2E2F5F5F5F5F5F5F5F5F5F5F5F5F5F5F5F5F5F5F5F5F5F5F5F5F5F5F5F5F5F5F5F5F5F5F5F5F5F5F5F5F5F5F5F5F5F5F5F5F5F5F5F5F5F5F5F5F5F5F5F5F5F5F5F5F5F5F5F5F5F5F5F5F5F5F5F5F5F5F5F5F5F5F5F5F5F5F5F5F5F5F5F5F5
310
F5F5F5F5F5F5F5F5F5F5F5F5F5F5F5F5F5F5F5F5F5F5F5F5F5F5F5F5F5F5F5F5F5F5F5F5F5F5F5F5F5F5F5F5F5F5F5F5F5F5F5F5F5F5F5F5F5F5F5F5F5F5F5F5F5F5F5F5F5F5F5F5F5F5F5F5F5E2E2F5F5E2F5F5F5E2E2F5F5F5F5F5F5F5F5F5F5F5F5F5F50F0F0F0F0F0FE20F0F0F0F0F0F0F0F0F0F0F0F0F0FE2E20F0F0F
310
0FE20F0F0F0F0F0F0F0F0F0FE20F0F0F0F0FE20F0F0F0F0F0F0F0F0F0F0F0F0F0F0F0F0F0F0F0F0F0F0F0F0F0F0F0F0F0F0F0F0F0F0FE20F0F0F0F0F0F0F0F0F0F0F0F0F0F0F0F0F0F0F0F0F0F0F0F0F0F0F0F0F0F0F0F0F0F0FE20F0F0F0F0F0F0F0F0F0F0F0F0F0F0F0F0F0F0F0F0F0F0F0F0F0F0F0F0F0F0F0F0F0F0F0F
310
F5F5F5E2E2F5F5E2F5F5F5E2E2F5F5F5F5F5F5F5F5F5F5F5F5F5F5E2E2E2E2E2E2E2F5F5F5F5E2E2E2E2E2E2E2E2E2E2E2E2F5F5F5F5E2F5E2E2E2E2E2E2E2E2F5E2E2E2E2E2E2E2E2E2E2E2E2E2E2E2E2E2E2E2F5F5F5F5F5F5F5F5F5F5F5F5F5F5F5F5F5F5F5F5F5F5F5E2F5E2E2E2E2E2E2E2E2F5E2E2E2E2F5F5F5F5F5
310
F5F5F5F5F5F5F5F5F5F5F5F5F5F5F5F5E2F5E2E2E2E2E2E2E2E2F5E2E2E2F5E2E2E2F5F5F5F5F5F5F5F5F5F5F5F5F5F5F5F5F5F50FF5F5F5E2E2F5F5E2F5F5F5E2E2F5F5F5F5F5F5F5F5F5F5F5F5F5F50FE2E2E2E2E2E2F5F5F5F5E2E2E2E2E2E2E2E2E2E2E2E2F5F5F5F5E2F5E2E2E2E2E2E2E2E2F5E2E2E2E2E2E2E2E2E2
310
E2E2E2E2E2E2E2E2E2E2F5F5F5F5F5F5F5F5F5F5F5F5F5F5F5F5F5F5F5F5F5F5F5E2F5E2E2E2E2E2E2E2E2F5E2E2E2E2F5F5F5F5F5F5F5F5F5F5F5F5F5F5F5F5F5F5F5F5F5E2F5E2E2E2E2E2E2E2E2F5E2E2E2E2E2E2E2F5F5F5F5F5F5F5F5F5F5F5F5F5F5F5F5F5F50FF5F5F5E2E2F5F5E2F5F5F5E2E2F5F5F5F5F5F5F5F5
310
F5F5F5F5F5F5E2E2F5F5F5E2E2F5F5F5F5E2E2F5F5E2F5F5F5F5F5F5F5F5F5F5F5E2F5E2E2F5E2F5F5F5F5F5E2E2F5F5F5F5E2E2E2F5F5F5F5F5F5F5F5F5F5F5F5F5F5F5F5F5F5F5F5F5F5F5F5F5F5F5F5F5F5F5F5F5E2F5E2F5F5F5F5E2F5F5F5E2E2E2F5F5F5F5F5F5F5F5F5F5F5F5F5F5F5F5F5F5F5F5F5F5E2F5E2F5F5
310
F5F5E2F5F5F5E2F5F5F5F5E2F5F5F5F5F5F5F5F5F5F5F5F5F5F5F5F5F5F5F50FF5F5F5E2E2F5F5E2F5F5F5F5E2F5F5F5F5F5F5F5F5F5F5F5F5F5F5E2E2E2E2E2E2E2E2E2E2E2E2E2E2E2E2E2E2E2E2E2E2E2E2E2E2E2E2E2E2E2E2E2E2E2E2E2E2E2E2E2E2E2E2E2E2E2E2E2E2E2E2E2E2E2E2E2E2E2E2E2E2E2E2E2E2E2E2
310
E2E2E2E2E2E2E2E2E2E2E2E2E2E2E2E2E2E2E2E2E2E2E2E2E2E2E2E2E2E2E2E2E2E2E2E2E2E2E2E2E2E2E2E2E2E2E2E2E2E2E2E2E2E2E2E2E2E2E2E2E2E2E2E2E2E2E2E2E2E2E2E2E2E2E2E2E2E2E2E2E2E2E2E2E2F5F5F5E2F5F5F5E2F5F5F5F5E2F5F5F5F5F5F5F5F5F5F5F5F5F5F50FF5F5F5F5F5E2F5F5F5F5F5F5F5F5
310
F5F5F5F5F5F5F5F5F5F5F5F5E2F5F5F5F5F5F5F5F5F5F5E2F5F5F5F5F5E2F5F5F5F5F5F5F5F5F5F5F5F5F5F5F5F5F5F5F5F5F5F5F5F5F5F5F5F5F5F5F5F5F5F5F5E2F5F5F5F5F5F5F5F5F5F5F5F5F5F5F5F5F5F5F5F5F5F5F5F5F5F5F5F5F5F5F5F5F5F5F5F5F5F5F5F5F5F5F5F5F5F5F5F5F5F5F5F5F5F5F5F5F5F5F5F5E2
310
E2E2E2E2E2F5E2E2E2F50FF5F5F5E2F5F5F5E2F5F5F5F5E2F5F5F5F5F5F5F5F5F5F5F5F5F5F50FF5F5F5F5F5E2F5F5F5F5F5F5F5F5F5F5F5F5F5F5F5F5F5F5F5F5E2F5F5F5F5F5F5F5F5F5F5E2F5F5F5F5F5E2F5F5F5F5F5F5F5F5F5F5F5F5F5F5F5F5F5F5F5F5F5F5F5F5F5F5F5F5F5F5F5F5F5F5F5E2F5F5F5F5F5F5F5F5
310
F5F5F5F5F5F5F5F5F5F5F5F5F5F5F5F5F5F5F5F5F5F5F5F5F5F5F5F5F5F5F5F5F5F5F5F5F5F5F5F5F5F5F5F5F5F5F5F5F5F5F5F5E2E2E2E2E2E2E2E2E2E2E20FF5F5F5E2F5F5F5E2F5F5F5F5E2F5F5F5F5F5F5F5F5F5F5F5F5F5F5E2E2E2E2E2E2E2E2E2E2E2E2E2E2E2E2E2E2E2E2E2E2E2E2E2E2E2E2E2E2E2E2E2E2E2E2
310
E2E2E2E2E2E2E2E2E2F5F5F5F5F5F5F5F5F5F5F5F5F5F5F5F5F5F5F5F5F5F5F5F5F5F5F5F5F5F5F5F5F5F5F5E2F5F5F5F5F5F5F5F5F5F5F5F5F5F5F5F5F5F5C3F5F5C3C3C3F5C3C3F5C3C3F5C3C3F5F5F5F5F5F5C3C3C3F5F5F5F5F5F5F5F5F5F5F5F5F5F5F5F5F5F5E2E2E2E2E2E2E2E2E2E2E2E2F5F5F5E2F5F5F5E2F5F5
310
F5F5E2F5F5F5F5F5F5F5F5F5F5F5F5F5F50FF5F5F5F5F5E2F5F5F5F5F5F5F5F5F5F5F5F5F5F5F5F5F5F5F5F5E2F5F5F5F5F5F5F5F5F5F5E2F5F5F5F5F5E2F5F5F5F5F5F5F5F5F5F5F5F5F5F5F5F5F5F5F5F5F5F5F5F5F5F5F5F5F5F5F5F5F5F5F5E2F5F5F5F5F5F5F5F5F5F5F5F5F5F5F5F5F5F5C3C3C3F5F5C3F5C3C3F5C3
310
C3F5C3C3C3C3C3C3C3C3C3F5C3F5F5F5F5F5F5F5F5F5F5F5F5F5F5F5F5F5F5E2F5F5F5F5F5F5F5F5F5F50FF5F5F5E2F5F5F5E2F5F5F5F5E2F5F5F5F5F5F5F5F5F5F5F5F5F5F50FF5F5F5F5F5E2F5F5F5F5F5F5F5F5F5F5F5F5F5F5F5F5F5F5F5F5E2F5F5F5F5F5F5F5F5F5F5E2F5F5F5F5F5E2F5F5F5F5F5F5F5F5F5F5F5F5
310
F5F5F5F5F5F5F5F5F5F5F5F5F5F5F5F5F5F5F5F5F5F5F5E2F5F5F5F5F5F5F5F5F5F5F5F5F5F5F5F5F5F5F5C3C3F5C3C3F5C3C3F5C3C3F5C3C3F5F5F5F5F5F5C3C3C3F5F5F5F5F5F5F5F5F5F5F5F5F5F5F5F5F5F5E2F5F5F5F5F5F5F5F5F5F50FF5F5F5E2F5F5F5E2F5F5F5F5E2F5F5F5F5F5F5F5F5F5F5F5F5F5F50FF5F5F5
310
F5F5E2F5F5F5F5F5F5F5F5F5F5F5F5F5F5F5F5F5F5F5F5E2F5F5F5F5F5F5F5F5F5F5E2F5F5F5F5F5E2F5F5F5F5F5F5F5F5F5F5F5F5F5F5F5F5F5F5F5F5F5F5F5F5F5F5F5F5F5F5F5F5F5F5F5E2F5F5F5F5F5F5F5F5F5F5F5F5F5F5F5F5F5F5F5C3F5F5C3C3F5C3C3F5C3C3F5C3C3F5F5F5F5F5F5C3C3C3F5F5F5F5F5F5F5F5
310
F5F5F5F5F5F5F5F5F5F5E2F5F5F5F5F5F5F5F5F5F50FF5F5F5E2F5F5F5E2F5F5F5F5E2F5F5F5F5F5F5F5F5F5F5F5F5F5F5E2E2E2E2E2E2E2E2E2E2E2E2E2E2E2E2E2E2E2E2E2E2E2E2E2E2E2E2E2E2E2E2E2E2E2E2E2E2E2E2E2E2E2E2E2F5F5F5F5F5F5F5F5F5F5F5F5F5F5F5F5F5F5F5F5F5F5F5F5F5F5F5F5F5F5F5F5F5
310
F5F5E2F5F5F5F5F5F5F5F5F5F5F5F5F5F5F5F5F5F5F5F5F5F5F5F5F5F5F5F5F5F5F5F5F5F5F5F5F5F5F5F5F5F5F5F5F5F5F5F5F5F5F5F5F5F5F5F5F5F5F5F5E2E2E2E2E2E2F5E2F5F5F50FF5F5F5E2F5F5F5E2F5F5F5F5E2F5F5F5F5F5F5F5F5F5F5F5F5F5F50FF5F5F5F5F5E2F5F5F5F5F5F5F5F5F5F5F5F5F5F5F5F5F5F5
310
F5F5E2F5F5F5F5F5F5F5F5F5F5E2F5F5F5F5F5E2F5F5F5F5F5F5F5F5F5F5F5F5F5F5F5F5F5F5F5F5F5F5F5F5F5F5F5F5F5F5F5F5F5F5F5E2F5F5F5F5F5F5F5F5F5F5F5F5F5F5F5F5F5F5F5F5F5F5F5F5F5F5F5F5F5F5F5F5F5F5F5F5F5F5F5F5F5F5F5F5F5F5F5F5F5F5F5F5F5F5F5F5F5F5F5F5E2E2E2E2E2E2F5E2F5F5F5
310
0FF5F5F5E2F5F5F5E2F5F5F5E2E2F5F5F5F5F5F5F5F5F5F5F5F5F5F50FF5F5F5F5F5E2F5F5F5F5F5F5F5F5F5F5F5F5F5F5F5F5F5F5F5F5E2F5F5F5F5F5F5F5F5F5F5E2F5F5F5F5F5E2F5F5F5F5F5F5F5F5F5F5F5F5F5F5F5F5F5F5F5F5F5F5F5F5F5F5F5F5F5F5F5F5F5F5F5E2F5F5F5F5F5F5F5F5F5F5F5F5F5F5F5F5F5F5
310
F5F5F5F5F5F5F5F5F5F5F5F5F5F5F5F5F5F5F5F5F5F5F5F5F5F5F5F5F5F5F5F5F5F5F5F5F5F5F5F5F5F5E2E2E2E2E2E2E2E2F5F5F50FF5F5F5E2E2F5F5E2F5F5F5E2E2F5F5F5F5F5F5F5F5F5F5F5F5F5F50F0F0F0F0F0FE20F0F0F0F0F0F0F0F0F0F0F0F0F0F0F0F0F0F0F0FE20F0F0F0F0F0F0F0F0F0FE20F0F0F0F0FE20F
310
0F0F0F0F0F0FE20F0F0F0F0F0F0F0F0F0F0F0FE20F0F0F0F0F0F0F0F0F0F0F0F0F0FE20F0F0F0F0F0F0F0F0F0F0F0F0F0F0F0F0F0F0F0F0F0F0F0F0F0F0F0F0F0F0F0F0F0F0F0F0F0F0F0F0F0F0F0F0F0F0F0F0F0F0F0F0F0F0F0F0F0F0F0FE20F0F0F0F0F0F0F0F0F0F0FF5F5F5E2E2F5F5E2F5F5F5E2E2F5F5F5F5F5F5F5
310
F5F5F5F5F5F5F50FF5F5F5F5F5E2F5F5F5F5F5F5F5F5F5F5F5F5F5F5F5F5F5F5F5F5E2F5F5F5F5F5F5F5F5F5F5E2F5F5F5F5F5E2F5F5F5F5F5F5F5E2F5F5F5F5F5F5F5F5F5F5F5F5E2F5F5F5F5F5F5F5F5F5F5F5F5F5F5E2F5F5F5F5F5F5F5F5F5F5F5F5F5F5F5F5F5F5F5F5F5F5F5F5F5F5F5F5F5F5F5F5F5F5F5F5F5F5F5
310
F5F5F5F5F5F5F5F5F5F5F5F5F5F5F5F5F5F5F5F5F5F5F5F5F5F5F5F5F5F5F5F50FF5F5F5E2E2F5F5E2F5F5F5E2E2F5F5F5F5F5F5F5F5F5F5F5F5F5F50FF5F5F5F5F5E2F5F5F5F5F5F5F5F5F5F5F5F5F5F5F5F5F5F5F5F5E2F5F5F5F5F5F5F5F5F5F5E2F5F5F5F5F5E2F5F5F5F5F5F5F5E2F5F5F5F5F5F5F5F5F5F5F5F5E2F5
310
F5F5F5F5F5F5F5F5F5F5F5F5F5E2F5F5F5F5F5F5F5F5F5F5F5F5F5F5F5F5F5F5F5F5F5F5F5F5F5F5F5F5F5F5F5F5F5F5F5F5F5F5F5F5F5F5F5F5F5F5F5F5F5F5F5F5F5F5F5F5F5F5F5F5F5F5F5F5F5F5F5F5F5F5F50FF5F5F5E2E2F5F5E2F5F5F5E2E2F5F5F5F5F5F5F5F5F5F5F5F5F5F5E2E2E2E2E2E2E2E2E2E2E2E2E2E2
310
E2E2E2E2E2E2E2E2E2E2E2E2E2E2E2E2E2E2E2E2E2E2E2E2E2E2E2E2E2E2E2E2E2E2E2E2E2E2E2E2E2E2E2E2E2E2E2E2E2E2E2E2E2E2E2E2E2E2E2E2E2E2E2E2E2E2E2F5F5F5F5F5F5F5F5F5F5F5F5F5F5F5F5F5F5F5F5F5F5F5F5F5F5F5F5F5F5F5F5F5F5F5F5F5F5F5F5F5F5F5F5F5F5F5F5F5F5F5F5F5F5F5F5F5F5F5F5
310
F5F5F5F5F5F5F5F5F5F5F50FF5F5F5E2E2F5F5E2F5F5F5E2E2F5F5F5F5F5F5F5F5F5F5F5F5F5F50FF5F5F5F5F5E2F5F5F5F5F5F5F5F5F5F5F5F5F5F5F5F5F5F5F5F5E2F5F5F5F5F5F5F5F5F5F5E2F5F5F5F5F5E2E2E2E2E2E2E2F5E2F5F5F5F5F5F5F5F5F5F5F5F5E2F5F5F5F5F5F5F5F5F5F5F5F5F5F5E2F5F5F5F5F5F5F5
310
F5F5F5F5F5F5F5F5F5F5F5E2F5E2E2F5F5E2E2F5E2E2E2F5F5E2E2E2E2E2E2F5F5E2F5E2F5F5E2E2E2F5E2F5F5F5F5F5F5F5F5F5F5F5F5F5F5F5F5F5F5F5F5F50FF5F5F5E2E2F5F5E2F5F5F5E2E2F5F5F5F5F5F5F5F5F5F5F5F5F5F50FF5F5F5F5F5E2F5F5F5F5F5F5F5F5F5F5F5F5F5F5F5F5F5F5F5F5E2F5F5F5F5F5F5F5
310
F5F5F5E2F5F5F5F5F5E2E2E2E2E2E2E2F5E2F5F5F5F5F5F5F5F5F5F5F5F5E2F5F5F5F5F5F5F5F5F5F5F5F5F5F5E2F5F5F5F5F5F5F5F5F5F5F5F5F5F5F5F5F5F5E2E2E2E2F5F5E2F5E2E2E2E2F5E2E2F5E2E2F5E2E2F5E2E2E2F5F5E2E2E2E2E2F5F5F5F5F5F5F5F5F5F5F5F5F5F5F5F5F5F5F5F5F50FF5F5F5E2E2F5F5E2F5
310
F5F5E2E2F5F5F5F5F5F5F5F5F5F5F5F5F5F50FF5F5F5F5F5E2F5F5F5F5F5F5F5F5F5F5F5F5F5F5F5F5F5F5F5F5E2F5F5F5F5F5F5F5F5F5F5E2F5F5F5F5F5E2E2E2F5F5F5F5F5E2F5F5F5F5F5F5F5F5F5F5F5F5E2F5F5F5F5F5F5F5F5F5F5F5F5F5F5E2F5F5F5F5F5F5F5F5F5F5F5F5F5F5F5F5F5F5F5E2E2E2E2E2E2E2E2E2
310
E2E2E2E2E2E2E2E2E2E2E2E2E2E2E2E2E2E2E2E2E2E2F5F5F5F5F5F5F5F5F5F5F5F5F5F5F5F5F5F5F5F5F50FF5F5F5E2E2F5F5E2F5F5F5E2E2F5F5F5F5F5F5F5F5F5F5F5F5F5F5E2E2E2E2E2E2E2E2E2E2E2E2E2E2E2E2E2E2E2E2E2E2E2E2E2E2E2E2E2E2E2E2E2E2E2E2E2E2E2E2E2E2E2E2E2E2E2E2E2E2E2E2E2E2E2E2
310
E2E2E2E2E2E2E2E2E2E2E2E2E2E2E2E2E2E2E2E2E2E2E2E2E2F5F5F5F5F5F5F5F5F5F5F5F5F5F5F5F5F5F5F5E2F5F5F5F5E2F5F5F5F5E2F5E2F5F5F5F5F5F5F5F5E2F5F5F5F5F5F5F5F5F5F5F5F5F5F5F5F5F5F5F5F5F5F5F5F5F5F5F5F5F5F50FF5F5F5E2E2F5F5E2F5F5F5E2E2F5F5F5F5F5F5F5F5F5F5F5F5F5F50FF5F5
310
F5F5F5E2F5F5F5F5F5F5F5F5F5F5F5F5F5F5F5F5F5F5F5F5E2F5F5F5F5F5F5F5F5F5F5E2F5F5F5F5F5E2E2E2E2E2E2E2F5E2E2E2E2E2E2E2E2E2E2E2F5F5E2F5E2E2E2E2E2F5F5F5F5F5F5F5F5E2F5F5F5F5F5F5F5F5F5F5F5F5F5F5F5F5F5F5F5F5F5E2F5F5F5F5F5F5F5F5F5F5F5F5F5F5F5F5F5F5F5F5F5F5F5F5F5F5F5
310
F5F5F5F5F5F5F5F5F5F5F5F5F5F5F5F5F5F5F5F5F5F50FF5F5F5E2E2F5F5E2F5F5F5E2E2F5F5F5F5F5F5F5F5F5F5F5F5F5F50FF5F5F5F5F5E2F5F5F5F5F5F5F5F5F5F5F5F5F5F5F5F5F5F5F5F5E2F5F5F5F5F5F5F5F5F5F5E2F5F5F5F5F5E2E2E2E2E2E2E2F5E2F5E2E2F5E2E2E2E2E2E2F5F5E2F5E2E2E2E2F5F5F5F5F5F5
310
F5F5F5E2F5F5F5F5F5F5F5F5F5F5F5F5E2F5E2F5E2E2E2F5E2E2E2F5E2E2E2E2E2F5F5E2F5F5E2F5E2E2E2F5F5E2E2F5E2F5F5E2F5E2F5E2F5E2E2E2F5F5F5F5F5F5F5F5F5F5F5F5F5F5F50FF5F5F5E2E2F5F5E2F5F5F5E2E2F5F5F5F5F5F5F5F5F5F5F5F5F5F5E2E2E2E2E2E2E2E2E2E2E2E2E2E2E2E2E2E2E2E2E2E2E2E2
310
E2E2E2E2E2E2E2E2E2E2E2E2E2E2E2E2E2E2E2E2E2E2E2E2E2E2E2E2E2E2E2E2E2E2E2E2E2E2E2E2E2E2E2E2E2E2E2E2E2E2E2E2E2E2E2E2E2F5F5F5F5F5F5F5F5F5F5F5F5E2F5E2E2F5E2E2E2E2E2F5E2E2E2F5E2E2F5E2E2F5E2E2E2F5E2E2F5F5E2F5E2E2F5F5E2F5E2F5E2E2E2E2E2F5F5F5F5F5F5F5F5F5F5F5F5F5F5
310
F50FF5F5F5E2E2F5F5E2F5F5F5E2E2F5F5F5F5F5F5F5F5F5F5F5F5F5F50FF5F5F5F5F5E2F5F5F5F5F5F5F5F5F5F5F5F5F5F5F5F5F5F5F5F5E2F5F5F5F5F5F5F5F5F5F5E2F5F5F5F5F5E2E2E2E2E2E2E2E2E2E2E2E2E2E2E2E2E2E2E2F5F5E2F5E2E2E2E2E2F5F5F5F5F5F5F5F5E2F5F5F5F5F5F5F5F5F5F5F5F5E2E2F5E2E2
310
E2E2E2E2E2E2E2E2E2F5E2E2E2E2E2E2E2E2E2F5E2E2E2E2E2E2E2E2E2E2E2E2E2E2E2E2E2E2E2E2E2F5F5F5F5F5F5F5F5F5F5F5F5F50FF5F5F5E2E2F5F5E2F5F5F5E2E2F5F5F5F5F5F5F5F5F5F5F5F5F5F50FF5F5F5F5F5E2F5F5F5F5F5F5F5F5F5F5F5F5F5F5F5F5F5F5F5F5E2F5F5F5F5F5F5F5F5F5F5E2F5F5F5F5F5E2
310
E2E2E2E2E2E2E2E2F5E2E2E2E2E2E2E2E2E2F5F5E2F5E2E2E2E2F5F5F5F5F5F5F5F5F5E2F5F5F5F5F5F5F5F5F5F5F5F5E2F5E2F5F5F5F5F5F5F5F5F5F5F5F5E2F5F5E2F5F5E2F5F5E2E2F5F5F5E2F5E2E2E2E2E2E2F5F5F5F5F5F5F5F5F5F5F5F5F5F5F5F5F5F5F5F5F5F50FF5F5F5E2E2F5F5E2F5F5F5E2E2F5F5F5F5F5F5
310
F5F5F5F5F5F5F5F50FF5F5F5F5F5E2F5F5F5F5F5F5F5F5F5F5F5F5F5F5F5F5F5F5F5F5E2F5F5F5F5F5F5F5F5F5F5E2F5F5F5F5F5E2E2E2F5F5F5E2F5E2E2E2E2E2E2F5E2E2E2E2F5F5E2F5E2E2E2E2F5F5F5F5F5F5F5F5F5E2F5F5F5F5F5F5F5F5F5F5F5F5F5F5F5F5F5F5F5F5F5F5F5F5F5F5F5F5F5F5F5F5F5F5F5F5F5F5
310
F5F5F5F5F5F5F5F5F5F5F5F5F5F5F5F5F5F5F5F5F5F5F5F5F5F5F5F5F5F5F5F5F50FF5F5F5E2E2F5F5E2F5F5F5F5E2F5F5F5F5F5F5F5F5F5F5F5F5F5F5E2E2E2E2E2E2E2E2E2E2E2E2E2E2E2E2E2E2E2E2E2E2E2E2E2E2E2E2E2E2E2E2E2E2E2E2E2E2E2E2E2E2E2E2E2E2E2E2E2E2E2E2E2E2E2E2E2E2E2E2E2E2E2E2E2E2
310
E2E2E2E2E2E2E2E2E2E2E2E2E2E2E2F5F5F5F5F5F5F5F5F5F5F5F5F5F5F5F5F5F5F5F5F5F5F5F5F5F5F5F5F5F5F5F5F5F5F5F5F5F5F5F5F5F5F5F5F5F5F5F5F5F5F5F5F5F5F5F5F5F5F5F5F5F5F5F5F5F5F5F5F5F5F50FF5F5F5E2F5F5F5E2F5F5F5F5E2F5F5F5F5F5F5F5F5F5F5F5F5F5F50FF5F5F5F5F5E2F5F5F5F5F5F5
310
F5F5F5F5F5F5F5F5F5F5F5F5F5F5E2F5F5F5F5F5F5F5F5F5F5E2F5F5F5F5F5E2F5F5F5F5F5F5F5E2F5F5F5E2E2E2E2E2E2E2E2F5E2F5F5F5E2E2E2E2E2E2E2F5F5F5F5E2F5F5F5F5F5F5F5F5F5F5F5F5F5F5F5F5F5F5F5F5F5F5F5F5F5F5F5F5F5F5F5F5F5F5F5F5F5F5F5F5F5F5F5F5F5F5F5F5F5F5F5F5F5F5F5F5F5F5F5
310
F5F5F5F5F5F5F5F5F5F5F5F50FF5F5F5E2F5F5F5E2F5F5F5F5E2F5F5F5F5F5F5F5F5F5F5F5F5F5F50FF5F5F5F5F5E2F5F5F5F5F5F5F5F5F5F5F5F5F5F5F5F5F5F5F5F5E2F5F5F5F5F5F5F5F5F5F5E2F5F5F5F5F5E2F5F5F5F5F5F5F5E2F5F5F5E2E2E2E2E2E2E2E2F5E2F5F5F5E2E2E2E2E2E2E2F5F5F5F5E2F5F5F5F5F5F5
310
F5F5F5F5F5F5F5F5F5F5F5F5F5F5F5F5F5F5F5F5F5F5F5F5F5F5F5F5F5F5F5F5F5F5F5F5F5F5F5F5F5F5F5F5F5F5F5F5F5F5F5F5F5F5F5F5F5F5F5F5F5F5F5F5F50FF5F5F5E2F5F5F5E2F5F5F5F5E2F5F5F5F5F5F5F5F5F5F5F5F5F5F50F0F0F0F0F0FE20F0F0F0F0F0F0F0F0F0F0F0F0F0F0F0F0F0F0F0FE20F0F0F0F0F0F
310
0F0F0F0FE20F0F0F0F0FE20F0F0F0F0F0F0FE20F0F0F0F0F0F0F0F0F0F0F0FE20F0F0F0F0F0F0F0F0F0F0F0F0F0FE20F0F0F0F0F0F0F0F0F0F0F0F0F0F0F0F0F0F0F0F0F0F0F0F0F0F0F0F0F0F0F0F0F0F0F0F0F0F0F0F0F0F0F0F0F0F0F0F0F0F0F0F0F0F0F0F0F0F0F0F0F0F0F0F0F0F0F0F0F0F0F0FF5F5F5E2F5F5F5E2
310
F5F5F5F5E2F5F5F5F5F5F5F5F5F5F5F5F5F5F50FF5F5F5F5F5F5F5F5F5F5F5F5F5F5F5F5F5F5F5F5F5F5F5F5F5F5F5F5F5F5F5F5F5F5F5F5F5F5F5F5F5F5F5E2F5F5F5F5F5F5F5F5F5F5F5F5F5F5F5F5F5F5F5F5E2F5F5F5F5F5F5F5F5F5F5F5F5F5F5E2E2E2E2E2E2E2E2E2E2F5F5E2E2E2E2E2F5E2E2E2E2E2E2E2E2E2F5
310
E2E2E2E2F5F5F5F5F5F5F5F5F5F5F5F5F5F5F5F5F5F5F5F5F5F5F5F5F5F5F5F5F5F5F5F5F5F5F5F5F5F5F5F50FF5F5F5E2F5F5F5E2F5F5F5F5E2F5F5F5F5F5F5F5F5F5F5F5F5F5F50FF5F5F5F5F5F5F5F5F5F5F5F5F5F5F5F5F5F5F5F5F5F5F5F5F5F5F5F5F5F5F5F5F5F5F5F5F5F5F5F5F5F5F5E2F5F5F5F5F5F5F5F5F5F5
310
F5F5F5F5F5F5F5F5F5F5E2F5F5F5F5F5F5F5F5F5F5F5F5F5F5E2E2E2E2E2E2E2E2E2E2E2E2E2E2E2E2E2E2E2E2E2E2E2E2E2E2E2E2E2E2E2E2F5F5F5F5F5F5F5F5F5F5F5F5F5F5F5F5F5F5F5F5F5F5F5F5F5F5F5F5F5F5F5F5F5F5F5F5F5F5F5F50FF5F5F5E2F5F5F5E2F5F5F5F5E2F5F5F5F5F5F5F5F5F5F5F5F5F5F50FF5
310
F5F5F5F5F5F5F5F5F5F5F5F5F5F5F5F5F5F5F5F5F5F5F5F5F5F5F5F5F5F5F5F5F5F5F5F5F5F5F5F5F5F5E2F5F5F5F5F5F5F5F5F5F5F5F5F5F5F5F5F5F5F5F5E2F5F5F5F5F5F5F5F5F5F5F5F5F5F5E2E2E2E2F5F5E2F5E2E2F5F5F5F5E2E2F5F5E2E2F5F5F5F5F5F5E2F5E2E2F5E2F5F5F5F5F5F5F5F5F5F5F5F5F5F5F5F5F5
310
F5F5F5F5F5F5F5F5F5F5F5F5F5F5F5F5F5F5F5F5F5F5F50FF5F5F5E2F5F5F5E2F5F5F5F5E2F5F5F5F5F5F5F5F5F5F5F5F5F5F50FF5F5F5F5F5F5F5F5F5F5F5F5F5F5F5F5F5F5F5F5F5F5F5F5F5F5F5F5F5F5F5F5F5F5F5F5F5F5F5F5F5F5F5E2F5F5F5F5F5F5F5F5F5F5F5F5F5F5F5F5F5F5F5F5E2F5F5F5F5F5F5F5F5F5F5
310
F5F5F5F5E2E2E2E2E2E2E2E2E2E2E2E2E2E2E2E2F5F5F5F5F5F5F5F5F5F5F5F5F5F5F5F5F5F5F5F5F5F5F5F5F5F5F5F5F5F5F5F5F5F5F5F5F5F5F5F5F5F5F5F5F5F5F5F5F5F5F5F5F5F5F5F50FF5F5F5E2F5F5F5E2F5F5F5F5E2F5F5F5F5F5F5F5F5F5F5F5F5F5F50FF5F5F5F5F5F5F5F5F5F5F5F5F5F5F5F5F5F5F5F5F5F5
310
F5F5F5F5F5F5F5F5F5F5F5F5F5F5F5F5F5F5F5F5F5E2F5F5F5F5F5F5F5F5F5F5F5F5F5F5F5F5F5F5F5F5E2F5F5F5F5F5F5F5F5F5F5F5F5F5F5E2E2E2E2E2E2E2E2E2E2E2F5E2E2E2E2F5F5F5F5F5F5F5F5F5F5F5F5F5F5F5F5F5F5F5F5F5F5F5F5F5F5F5F5F5F5F5F5F5F5F5F5F5F5F5F5F5F5F5F5F5F5F5F5F5F5F5F5F5F5
310
F5F50FF5F5F5E2F5F5F5E2F5F5F5E2E2F5F5F5F5F5F5F5F5F5F5F5F5F5F50FF5F5F5F5F5F5F5F5F5F5F5F5F5F5F5F5F5F5F5F5F5F5F5F5F5F5F5F5F5F5F5F5F5F5F5F5F5F5F5F5F5F5F5E2F5F5F5F5F5F5F5F5F5F5F5F5F5F5F5F5F5F5F5F5E2F5F5F5F5F5F5F5F5F5F5F5F5F5F5E2E2E2E2E2E2E2E2E2E2E2E2E2E2E2E2E2
310
E2E2E2E2E2E2E2E2E2E2E2F5F5F5F5F5F5F5F5F5F5F5F5F5F5F5F5F5F5F5F5F5F5F5F5F5F5F5F5F5F5F5F5F5F5F5F5F5F5F5F5F5F5F5F50FF5F5F5E2E2F5F5E2F5F5F5E2E2F5F5F5F5F5F5F5F5F5F5F5F5F5F50FF5F5F5F5F5F5F5F5F5F5F5F5F5F5F5F5F5F5F5F5F5F5F5F5F5F5F5F5F5F5F5F5F5F5F5F5F5F5F5F5F5F5F5
310
E2F5F5F5F5F5F5F5F5F5F5F5F5F5F5F5F5F5F5F5F5E2F5F5F5F5F5F5F5F5F5F5F5F5F5F5E2E2E2E2E2E2E2E2E2E2E2E2E2E2E2F5E2E2E2E2E2E2E2E2E2E2E2E2F5F5F5F5F5F5F5F5F5F5F5F5F5F5F5F5F5F5F5F5F5F5F5F5F5F5F5F5F5F5F5F5F5F5F5F5F5F5F5F5F5F5F5F50FF5F5F5E2E2F5F5E2F5F5F5E2E2F5F5F5F5F5
310
F5F5F5F5F5F5F5F5F50FF5F5F5F5F5F5F5F5F5F5F5F5F5F5F5F5F5F5F5F5F5F5F5F5F5F5F5F5F5F5F5F5F5F5F5F5F5F5F5F5F5F5F5E2F5F5F5F5F5F5F5F5F5F5F5F5F5F5F5F5F5F5F5F5E2F5F5F5F5F5F5F5F5F5F5F5F5F5F5E2E2E2F5E2F5F5E2F5F5E2F5F5E2E2F5E2E2F5E2E2F5F5F5F5F5F5E2F5F5F5F5F5F5F5F5F5F5
310
F5F5F5F5F5F5F5F5F5F5F5F5F5F5F5F5F5F5F5F5F5F5F5F5F5F5F5F5F5F5F5F5F5F50FF5F5F5E2E2F5F5E2F5F5F5E2E2F5F5F5F5F5F5F5F5F5F5F5F5F5F50FF5F5F5F5F5F5F5F5F5F5F5F5F5F5F5F5F5F5F5F5F5F5F5F5F5F5F5F5F5F5F5F5F5F5F5F5F5F5F5F5F5F5F5E2F5F5F5F5F5F5F5F5F5F5F5F5F5F5F5F5F5F5F5F5
310
E2F5F5F5F5F5F5F5F5F5F5F5F5F5F5E2E2E2E2E2E2E2E2E2E2E2E2E2E2E2E2E2E2E2E2E2E2E2E2E2E2E2E2E2E2E2E2E2E2E2E2E2E2E2E2E2E2E2E2E2E2E2E2E2E2E2E2E2E2E2E2E2E2E2E2E2E2E2E2E2E2E2E2E2E2E2E2E2F5F5F5E2E2F5F5E2F5F5F5E2E2F5F5F5F5F5F5F5F5F5F5F5F5F5F50FE2F5F5F5F5F5F5F5F5F5F5
310
F5F5F5F5E2F5F5F5F5F5F5F5F5F5F5E2F5F5F5F5F5F5F5F5F5F5F5F5F5F5F5F5E2F5E2F5F5F5F5F5F5F5F5F5F5E2F5F5F5F5F5F5F5E2F5E2F5F5F5F5F5F5F5F5E2F5F5F5E2F5F5F5F5F5F5F5F5F5F5F5F5F5F5F5F5F5F5F5F5F5F5F5F5F5F5F5F5F5F5F5F5F5F5F5F5F5F5F5F5F5E2F5E2F5F5F5F5F5F5F5F5F5E2F5F5F5F5
310
F5F5F5F5F5F5F5F5F5F5F5F5F50FF5F5F5E2E2F5F5E2F5F5F5E2E2F5F5F5F5F5F5F5F5F5F5F5F5F5F50FE2F5E2E2E2F5E2E2E2E2E2E2E2E2E2E2E2E2E2E2E2E2E2E2E2E2E2F5F5F5F5F5F5F5F5F5F5F5F5F5F5F5F5E2F5E2E2E2E2E2F5E2E2E2E2E2E2F5F5F5F5F5F5F5E2F5E2E2E2E2E2E2E2E2E2E2F5F5F5E2E2E2E2E2E2
310
E2E2E2E2E2E2F5F5E2E2E2F5F5F5F5F5F5F5F5F5F5F5F5F5F5F5F5F5F5F5F5F5F5F5F5F5E2F5E2E2E2E2E2E2E2E2E2E2E2F5F5F5F5F5F5F5F5F5F5F5F5F5F5F5F5F50FF5F5F5E2E2F5F5E2F5F5F5E2E2F5F5F5F5F5F5F5F5F5F5F5F5F5F50FE2E2E2E2E2E2E2E2E2E2E2E2E2E2E2E2E2E2E2E2E2E2E2E2E2E2E2F5F5F5F5F5
310
F5F5F5F5F5F5F5F5F5F5F5E2F5E2E2E2E2F5F5E2F5E2E2E2E2F5F5F5F5F5F5F5E2F5E2E2E2E2E2E2E2E2F5E2F5F5F5E2E2E2E2E2E2E2E2E2E2E2E2F5F5E2E2E2F5F5F5F5F5F5F5F5F5F5F5F5F5F5F5F5F5F5F5F5F5F5F5F5F5E2F5E2E2E2E2F5E2E2E2E2E2E2F5F5F5F5F5F5F5F5F5F5F5F5F5F5F5F5F50FF5F5F5E2E2F5F5
310
E2F5F5F5E2E2F5F5F5F5F5F5F5F5F5F5F5F5F5F50FE2F5F5F5F5F5F5F5F5F5F5F5F5F5F5F5F5F5F5F5F5F5F5F5F5F5E2F5F5F5F5F5F5F5F5F5F5F5F5F5F5F5F5E2F5E2F5F5F5F5F5F5F5F5F5F5E2F5F5F5F5F5F5F5E2F5E2F5F5F5F5F5F5F5F5E2F5F5F5E2F5F5F5F5F5F5F5F5F5F5F5F5F5F5F5F5F5F5F5F5F5F5F5F5F5F5
310
F5F5F5F5F5F5F5F5F5F5F5F5F5F5F5E2F5E2F5F5F5F5F5F5F5F5F5E2F5F5F5F5F5F5F5F5F5F5F5F5F5F5F5F5F50FF5F5F5E2E2F5F5E2F5F5F5E2E2F5F5F5F5F5F5F5F5F5F5F5F5F5F5E2E2E2E2E2E2E2E2E2E2E2E2E2E2E2E2E2E2E2E2E2E2E2E2E2E2E2E2E2E2E2E2E2E2E2E2E2E2E2E2E2E2E2E2E2E2E2E2E2E2E2E2E2E2
310
E2E2E2E2E2E2E2E2E2E2E2E2E2E2E2E2E2E2E2E2E2E2E2E2E2E2E2E2E2E2E2E2E2E2E2E2E2E2E2E2E2E2E2E2E2E2E2E2E2E2E2E2E2E2E2E2E2E2E2E2E2E2E2E2E2E2E2E2E2E2E2E2E2E2E2E2E2E2E2E2E2E2E2E2E2E2E2E2E2E2E2E2E2E2E2E2E2E2E2F5F5F5E2E2F5F5E2F5F5F5E2E2F5F5F5F5F5F5F5F5F5F5F5F5F5F5E2
310
F5F5F5F5F5F5F5F5F5F5F5F5F5F5F5F5F5F5F5F5F5F5F5F5F5F5F5F5F5F5F5F5F5F5F5F5F5F5F5F5F5F5F5F5F5F5F5F5F5F5F5F5F5F5F5F5F5F5F5F5F5F5F5F5F5F5F5F5F5F5F5F5F5F5F5F5F5F5F5F5F5F5F5F5F5F5F5F5F5F5F5F5F5F5F5F5F5F5F5F5F5F5F5F5F5F5F5F5F5F5F5F5F5F5F5F5F5F5F5F5F5F5F5F5F5F5F5
310
F5F5F5F5F5F5F5F5F5F5F5F5F5F5F5F5F5F5F5F5F5F5F5F5E2F5F5F5E2E2F5F5E2F5F5F5E2E2F5F5F5F5F5F5F5F5F5F5F5F5F5F5E2F5F5F5F5F5F5F5F5F5F5F5F5F5F5F5F5F5F5F5F5F5F5F5F5F5F5F5F5F5F5F5F5F5F5F5F5F5F5F5F5F5F5F5F5F5F5F5F5F5F5F5F5F5F5F5F5F5F5F5F5F5F5F5F5F5F5F5F5F5F5F5F5F5F5
310
F5F5F5F5F5F5F5F5F5F5F5F5F5F5F5F5F5F5F5F5F5F5F5F5F5F5F5F5F5F5F5F5F5F5F5F5F5F5F5F5F5F5F5F5F5F5F5F5F5F5F5F5F5F5F5F5F5F5F5F5F5F5F5F5F5F5F5F5F5F5F5F5F5F5F5F5F5E2F5F5F5E2E2F5F5E2F5F5F5E2E2F5F5F5F5F5F5F5F5F5F5F5F5F5F5E2F5F5F5F5F5F5F5F5F5F5F5F5F5F5F5F5F5F5F5F5F5
310
F5F5F5F5F5F5F5F5F5F5F5F5F5F5F5F5F5F5F5F5F5F5F5F5F5F5F5F5F5F5F5F5F5F5F5F5F5F5F5F5F5F5F5F5F5F5F5F5F5F5F5F5F5F5F5F5F5F5F5F5F5F5F5F5F5F5F5F5F5F5F5F5F5F5F5F5F5F5F5F5F5F5F5F5F5F5F5F5F5F5F5F5F5F5F5F5F5F5F5F5F5F5F5F5F5F5F5F5F5F5F5F5F5F5F5F5F5F5F5F5F5F5F5F5F5F5F5
310
F5F5F5E2F5F5F5E2E2F5F5E2F5F5F5E2E2F5F5F5F5F5F5F5F5F5F5F5F5F5F5E2F5F5F5F5F5F5F5F5F5F5F5F5F5F5F5F5F5F5F5F5F5F5F5F5F5F5F5F5F5F5F5F5F5F5F5F5F5F5F5F5F5F5F5F5F5F5F5F5F5F5F5F5F5F5F5F5F5F5F5F5F5F5F5F5F5F5F5F5F5F5F5F5F5F5F5F5F5F5F5F5F5F5F5F5F5F5F5F5F5F5F5F5F5F5F5
310
F5F5F5F5F5F5F5F5F5F5F5F5F5F5F5F5F5F5F5F5F5F5F5F5F5F5F5F5F5F5F5F5F5F5F5F5F5F5F5F5F5F5F5F5F5F5F5F5F5F5F5F5F5F5F5F5E2F5F5F5E2E2F5F5E2F5F5F5E2E2F5F5F5F5F5F5F5F5F5F5F5F5F5F5E2F5F5F5F5F5F5F5F5F5F5F5F5F5F5F5F5F5F5F5F5F5F5F5F5F5F5F5F5F5F5F5F5F5F5F5F5F5F5F5F5F5F5
310
F5F5F5F5F5F5F5F5F5F5F5F5F5F5F5F5F5F5F5F5F5F5F5F5F5F5F5F5F5F5F5F5F5F5F5F5F5F5F5F5F5F5F5F5F5F5F5F5F5F5F5F5F5F5F5F5F5F5F5F5F5F5F5F5F5F5F5F5F5F5F5F5F5F5F5F5F5F5F5F5F5F5F5F5F5F5F5F5F5F5F5F5F5F5F5F5F5F5F5F5F5F5F5F5F5F5F5F5F5E2F5F5F5E2E2F5F5E2F5F5F5E2E2F5F5F5F5
310
F5F5F5F5F5F5F5F5F5F5E2F5F5F5F5F5F5F5F5F5F5F5F5F5F5F5F5F5F5F5F5F5F5F5F5F5F5F5F5F5F5F5F5F5F5F5F5F5F5F5F5F5F5F5F5F5F5F5F5F5F5F5F5F5F5F5F5F5F5F5F5F5F5F5F5F5F5F5F5F5F5F5F5F5F5F5F5F5F5F5F5F5F5F5F5F5F5F5F5F5F5F5F5F5F5F5F5F5F5F5F5F5F5F5F5F5F5F5F5F5F5F5F5F5F5F5F5
310
F5F5F5F5F5F5F5F5F5F5F5F5F5F5F5F5F5F5F5F5F5F5F5F5F5F5F5F5F5F5F5F5F5F5F5E2F5F5F5E2E2F5F5E2F5F5F5E2E2F5F5F5F5F5F5F5F5F5F5F5F5F5F5E2F5F5F5F5F5F5F5F5F5F5F5F5F5F5F5F5F5F5F5F5F5F5F5F5F5F5F5F5F5F5F5F5F5F5F5F5F5F5F5F5F5F5F5F5F5F5F5F5F5F5F5F5F5F5F5F5F5F5F5F5F5F5F5
310
F5F5F5BEBEBEBEBEBEBEBEBEBEBEBEBEBEBEBEBEBEBEBEBEBEBEBEBEBEBEBEBEBEBEBEBEBEBEBEBEBEBEBEBEBEBEBEBEBEBEBEBEBEBEBEBEBEBEBEBEBEBEBEBEF5F5F5F5F5F5F5F5F5F5F5F5F5F5F5F5F5F5F5F5F5F5F5F5E2F5F5F5E2E2F5F5E2F5F5F5F5E2F5F5F5F5F5F5F5F5F5F5F5F5F5F5E2F5F5F5F5F5F5F5F5F5F5
310
F5F5F5F5F5F5F5F5F5F5F5F5F5F5F5F5F5F5F5F5F5F5F5F5F5F5F5F5F5F5F5F5F5F5F5F5F5F5F5F5F5F5F5F5F5F5F5F5F5F5F5F5F5F5F5F5BEF5F5F5F5F5BEBEBEF5BEF5F5F5F5F5BEF5BEBEF5F5F5F5F5BEF5BEF5BEBEBEF5F5F5F5BEF5BEBEBEBEF5BEF5F5BEBEBEBEF5BEBEBEF5BEBEF5F5F5BEF5F5F5F5F5F5F5F5F5F5
310
F5F5F5F5F5F5F5F5F5F5F5F5F5F5E2F5F5F5E2F5F5F5E2F5F5F5F5E2F5F5F5F5F5F5F5F5F5F5F5F5F5F5E2F5F5F5F5F5F5F5F5F5F5F5F5F5F5F5F5F5F5F5F5F5F5F5F5F5F5F5F5F5F5F5F5F5F5F5F5F5F5F5F5F5F5F5F5F5F5F5F5F5F5F5F5F5F5F5F5F5F5F5F5F5F5F5F5F5F5BEF5F5F5F5F5BEF5F5BEBEBEF5F5F5BEBEBE
310
F5BEF5F5F5F5F5BEBEF5BEBEF5BEF5F5F5BEF5BEBEBEF5F5F5BEF5F5BEF5BEBEBEBEBEBEF5BEBEF5F5F5BEF5F5F5F5F5F5F5F5F5F5F5F5F5F5F5F5F5F5F5F5F5F5F5F5E2F5F5F5E2F5F5F5E2F5F5F5F5E2F5F5F5F5F5F5F5F5F5F5F5F5F5F5E2F5F5F5F5F5F5F5F5F5F5F5F5F5F5F5F5F5F5F5F5F5F5F5F5F5F5F5F5F5F5F5
310
F5F5F5F5F5F5F5F5F5F5F5F5F5F5F5F5F5F5F5F5F5F5F5F5F5F5F5F5F5F5F5F5F5F5F5BEF5F5F5F5F5BEBEBEF5BEF5BEBEBEF5BEBEBEBEF5F5F5F5F5BEBEF5BEF5F5BEBEBEBEBEF5BEF5BEBEBEF5BEF5BEF5F5BEBEBEBEBEBEBEBEF5F5F5F5BEF5F5F5F5F5F5F5F5F5F5F5F5F5F5F5F5F5F5F5F5F5F5F5F5E2F5F5F5E2F5F5
310
F5E2F5F5F5F5E2F5F5F5F5F5F5F5F5F5F5F5F5F5F5E2F5F5F5F5F5F5F5F5F5F5F5F5F5F5F5F5F5F5F5F5F5F5F5E2E2E2E2E2E2E2E2E2E2E2E2E2E2E2E2E2E2E2E2E2E2E2E2E2F5F5F5F5F5F5F5F5F5F5F5F5F5F5F5F5F5F5BEF5F5F5F5F5BEBEBEF5BEF5F5F5F5F5BEBEBEBEF5F5F5F5F5BEBEBEBEF5BEBEF5F5F5BEBEBEF5
310
BEBEBEF5BEF5F5BEBEBEBEF5BEBEF5F5F5F5F5F5F5BEF5F5F5F5F5F5F5F5F5F5F5F5F5F5F5F5F5F5F5F5F5F5F5F5E2F5F5F5E2F5F5F5E2F5F5F5F5E2F5F5F5F5F5F5F5F5F5F5F5F5F5F5E2F5F5F5F5F5F5F5F5F5F5F5F5F5F5F5F5F5F5F5F5F5F5F5E2F5F5F5F5F5F5F5F5E2BEBEBEBEE2BEBEBEBEBEE2E2E2E2E2E2E2E2E2
310
E2E2E2F5F5F5F5F5F5F5F5F5F5F5BEF5F5F5F5F5F5F5F5F5F5F5F5F5F5F5F5F5F5F5F5F5F5F5F5BEF5F5F5F5F5F5F5F5F5F5F5F5F5F5F5F5F5BEF5F5F5F5F5F5F5F5F5F5F5F5F5F5F5F5BEF5F5F5F5F5F5F5F5F5F5F5F5F5F5F5F5F5F5F5F5F5F5F5F5E2F5F5F5E2F5F5F5E2F5F5F5F5E2F5F5F5F5F5F5F5F5F5F5F5F5F5F5
310
E2F5F5F5F5F5F5F5F5F5F5F5F5F5F5F5F5F5F5F5F5F5F5F5E2F5F5F5F5F5F5F5F5E2BEBEE2E2F5E2BEBEE2E2F5E2BEBEE2F5F5F5F5F5F5F5F5F5F5F5F5F5F5F5F5F5F5BEF5F5F5F5F5F5BEF5F5F5F5F5F5F5F5F5F5F5F5BEF5F5F5F5BEF5F5F5F5F5F5F5BEF5F5F5F5F5F5F5F5F5BEF5F5F5F5F5F5F5F5F5F5F5F5F5F5F5F5
310
BEF5F5F5F5F5F5F5F5F5F5F5F5F5F5F5F5F5F5F5F5F5F5F5F5E2F5F5F5E2F5F5F5E2F5F5F5F5E2F5F5F5F5F5F5F5F5F5F5F5F5F5F5E2F5F5F5F5F5F5F5F5F5F5F5F5F5F5F5F5F5F5F5F5F5F5F5E2F5F5F5F5F5F5F5F5E2BEBEE2F5E2F5E2E2F5F5E2F5E2BEE2F5F5F5F5F5F5F5F5F5F5F5F5F5F5F5F5F5F5BEF5BEBEBEBEBE
310
F5BEF5BEF5F5F5BEBEBEF5BEF5F5BEBEBEBEBEF5F5F5F5F5BEBEF5BEBEBEF5F5F5F5F5F5BEF5F5F5BEBEBEF5BEBEBEF5F5F5F5F5F5BEF5F5F5F5F5F5F5F5F5F5F5F5F5F5F5F5F5F5F5F5F5F5F5F5E2F5F5F5E2F5F5F5E2F5F5F5F5E2F5F5F5F5F5F5F5F5F5F5F5F5F5F5E2F5F5F5F5F5F5F5F5F5F5F5F5F5F5F5F5F5F5F5F5
310
F5F5F5E2E2E2E2E2E2E2E2F5E2BEBEE2E2F5F5E2BEE2E2F5F5E2BEE2F5F5F5F5F5F5F5F5F5F5F5F5F5F5F5F5F5F5BEF5BEBEF5BEBEF5F5BEBEBEBEBEBEBEBEF5BEF5F5F5BEBEBEBEF5F5F5F5F5BEBEF5F5BEF5F5F5F5F5F5F5BEF5F5BEF5F5F5BEF5F5F5BEF5F5F5F5F5BEF5F5F5F5F5F5F5F5F5F5F5F5F5F5F5F5F5F5F5F5
310
F5F5F5F5E2F5F5F5E2F5F5F5E2F5F5F5E2E2F5F5F5F5F5F5F5F5F5F5F5F5F5F5E2F5F5F5F5F5F5F5F5F5F5F5F5F5F5F5F5F5F5F5F5F5F5F5E2E2E2E2E2E2E2E2E2E2BEBEE2E2E2E2BEBEE2E2E2E2BEBEE2F5F5F5F5F5F5F5F5F5F5F5F5F5F5F5F5F5F5BEF5BEF5BEBEBEF5F5F5BEF5F5F5BEF5BEF5F5BEF5F5BEF5F5BEF5F5
310
F5F5F5BEBEF5F5BEF5F5F5F5F5F5F5BEF5F5F5BEF5BEF5BEF5F5BEF5F5F5F5F5BEF5F5F5F5F5F5F5F5F5F5F5F5F5F5F5F5F5F5F5F5F5F5F5F5E2F5F5F5E2E2F5F5E2F5F5F5E2E2F5F5F5F5F5F5F5F5F5F5F5F5F5F5E2F5F5F5F5F5F5F5F5F5F5F5F5F5F5F5F5F5F5F5F5F5F5F5E2F5F5F5F5F5F5E2F5E2BEBEE2BEBEBEBEBE
310
BEBEBEBEBEBEE2F5F5F5F5F5F5F5F5F5F5F5F5F5F5F5F5F5F5BEF5BEBEF5BEBEF5F5F5BEF5F5F5F5BEBEBEBEBEF5F5F5BEF5BEF5F5F5F5F5BEBEF5F5BEF5F5F5F5F5F5F5BEF5F5F5BEBEF5F5F5BEBEF5F5F5F5F5F5BEF5F5F5F5F5F5F5F5F5F5F5F5F5F5F5F5F5F5F5F5F5F5F5F5E2F5F5F5E2E2F5F5E2F5F5F5E2E2F5F5F5
310
F5F5F5F5F5F5F5F5F5F5F5E2F5F5F5F5F5F5F5F5F5F5F5F5F5F5F5F5F5F5F5F5F5F5F5E2F5F5F5F5F5F5E2F5E2BEBEE2BEBEBEBEBEBEBEBEBEBEBEE2F5F5F5F5F5F5F5F5F5F5F5F5F5F5F5F5F5F5BEBEBEBEBEBEBEBEBEBEBEBEBEBEBEBEBEBEBEBEBEBEBEBEBEBEBEBEBEBEBEBEBEBEBEBEBEBEBEBEBEBEBEBEBEBEBEBEBE
310
BEBEBEBEBEBEBEBEBEBEBEBEF5F5F5F5F5F5F5F5F5F5F5F5F5F5F5F5F5F5F5F5F5F5F5F5E2F5F5F5E2E2F5F5E2F5F5F5E2E2F5F5F5F5F5F5F5F5F5F5F5F5F5F5E2F5F5F5F5F5F5F5F5F5F5F5F5F5F5F5F5F5F5F5F5F5F5F5E2E2E2E2E2E2E2E2E2E2BEBEE2BEE2BEBEBEBEBEE2E2E2E2E2E2E2E2E2E2E2E2F5F5F5F5F5F5F5
310
F5F5F5F5BEF5F5F5F5F5F5F5F5F5F5F5F5F5F5F5F5F5F5F5F5F5F5F5F5BEF5F5F5F5F5F5F5F5F5F5F5F5F5F5F5F5F5BEF5F5F5F5F5F5F5F5F5F5F5F5F5F5F5F5BEF5F5F5F5F5F5F5F5F5F5F5F5F5F5F5F5F5F5F5F5F5F5F5F5E2F5F5F5E2E2F5F5E2F5F5F5E2E2F5F5F5F5F5F5F5F5F5F5F5F5F5F5E2F5F5F5F5F5F5F5F5F5
310
F5F5F5F5F5F5F5F5F5F5F5F5F5F5E2F5F5F5F5F5F5F5F5E2BEBEE2E2F5E2BEBEE2E2F5E2BEBEE2F5F5F5F5F5F5F5F5F5F5F5F5F5F5F5F5F5F5BEF5F5F5F5F5F5F5F5F5F5F5F5F5F5F5F5F5F5F5F5F5F5F5F5BEF5F5F5F5F5F5F5F5F5F5F5F5F5F5F5F5F5BEF5F5F5F5F5F5F5F5F5F5F5F5F5F5F5F5BEF5F5F5F5F5F5F5F5F5
310
F5F5F5F5F5F5F5F5F5F5F5F5F5F5F5E2F5F5F5E2E2F5F5E2F5F5F5E2E2F5F5F5F5F5F5F5F5F5F5F5F5F5F5E2F5F5F5F5F5F5F5F5F5F5F5F5F5F5F5F5F5F5F5F5F5F5F5E2F5F5F5E2F5E2F5F5E2BEBEE2F5E2F5E2BEE2F5E2F5E2BEE2F5F5F5F5F5F5F5F5F5F5F5F5F5F5F5F5F5F5BEF5BEF5BEBEBEBEBEF5F5BEBEBEBEBEBE
310
F5F5F5F5F5F5F5F5BEF5F5F5F5F5F5F5F5F5F5F5F5F5F5F5F5F5BEF5F5F5F5F5F5BEF5F5F5F5F5F5F5F5F5BEF5F5F5F5F5F5F5F5F5F5F5F5F5F5F5F5F5F5F5F5F5F5F5F5E2F5F5F5E2E2F5F5E2F5F5F5E2E2F5F5F5F5F5F5F5F5F5F5F5F5F5F5E2F5F5F5F5F5F5F5F5F5F5F5F5F5F5F5F5F5F5F5F5F5F5F5E2F5F5F5E2F5E2
310
F5F5E2BEBEE2E2F5F5E2E2F5E2F5F5E2BEE2F5F5F5F5F5F5F5F5F5F5F5F5F5F5F5F5F5F5BEF5BEBEBEBEF5F5F5BEF5F5BEBEBEF5F5F5F5F5F5F5F5F5F5BEF5F5F5F5F5F5F5F5F5F5F5F5F5F5F5F5F5BEF5F5F5F5BEBEF5BEBEF5F5F5F5F5F5F5BEF5F5F5F5F5F5F5F5F5F5F5F5F5F5F5F5F5F5F5F5F5F5F5F5E2F5F5F5E2E2
310
F5F5E2F5F5F5E2E2F5F5F5F5F5F5F5F5F5F5F5F5F5F5E2F5F5F5F5F5F5F5F5F5F5F5F5F5F5F5F5F5F5F5F5F5F5F5E2F5F5F5E2F5E2F5F5E2BEBEE2F5F5E2BEBEE2F5F5E2BEBEE2F5F5F5F5F5F5F5F5F5F5F5F5F5F5F5F5F5F5BEF5F5BEBEBEF5BEF5BEF5F5BEBEBEF5BEF5F5F5F5F5F5F5F5BEF5F5F5F5F5F5F5F5F5F5F5F5
310
F5F5F5F5F5BEF5F5F5F5BEF5F5F5BEF5F5F5F5F5F5F5BEF5F5F5F5F5F5F5F5F5F5F5F5F5F5F5F5F5F5F5F5F5F5F5F5E2F5F5F5E2E2F5F5E2F5F5F5E2E2F5F5F5F5F5F5F5F5F5F5F5F5F5F5E2F5F5F5F5F5F5F5F5F5F5F5F5F5F5F5F5F5F5F5F5F5E2E2E2E2E2E2E2F5E2F5F5E2BEBEBEE2E2BEBEBEBEE2E2BEBEBEE2F5F5F5
310
F5F5F5F5F5F5F5F5F5F5F5F5F5F5F5BEF5F5BEF5F5BEBEF5F5BEBEBEBEBEBEF5F5F5F5F5F5F5F5F5BEF5F5F5F5F5F5F5F5F5F5F5F5F5F5F5F5F5BEF5F5F5BEF5F5BEBEBEF5F5F5F5F5F5F5BEF5F5F5F5F5F5F5F5F5F5F5F5F5F5F5F5F5F5F5F5F5F5F5F5E2F5F5F5E2E2F5F5E2F5F5F5E2E2F5F5F5F5F5F5F5F5F5F5F5F5F5
310
F5E2F5F5F5F5F5F5F5F5F5F5F5F5F5F5F5F5F5F5F5F5F5E2E2E2E2E2E2E2E2E2E2E2E2E2E2E2E2E2E2E2E2E2E2E2E2E2E2E2F5F5F5F5F5F5F5F5F5F5F5F5F5F5F5F5F5F5BEF5F5F5F5F5F5F5F5F5F5F5F5F5F5F5F5F5F5F5F5F5F5F5F5BEF5F5F5F5F5F5F5BEF5F5F5F5F5F5F5F5F5BEF5F5F5F5BEF5BEF5BEF5F5F5F5F5F5
310
F5BEF5F5F5F5F5F5F5F5F5F5F5F5F5F5F5F5F5F5F5F5F5F5F5F5E2F5F5F5E2E2F5F5E2F5F5F5E2E2F5F5F5F5F5F5F5F5F5F5F5F5F5F5E2F5F5F5F5F5F5F5F5F5F5F5F5F5F5F5F5F5F5F5F5F5F5F5F5F5F5F5F5F5F5F5F5F5F5F5F5F5F5F5F5F5F5F5F5F5F5F5F5F5F5F5F5F5F5F5F5F5F5F5F5F5F5F5F5F5F5BEF5F5F5F5F5
310
BEF5BEBEF5BEF5F5BEF5F5F5F5F5F5F5F5F5F5BEF5BEF5BEBEF5BEBEBEF5BEF5F5F5F5F5F5BEF5F5F5F5BEF5BEF5BEF5F5F5F5F5F5F5BEF5F5F5F5F5F5F5F5F5F5F5F5F5F5F5F5F5F5F5F5F5F5F5F5E2F5F5F5E2E2F5F5E2F5F5F5E2E2F5F5F5F5F5F5F5F5F5F5F5F5F5F5E2F5F5F5F5F5F5F5F5F5F5F5F5F5F5F5F5F5F5F5
310
F5F5F5F5F5F5F5F5F5F5F5F5F5F5F5F5F5F5F5F5F5F5F5F5F5F5F5F5F5F5F5F5F5F5F5F5F5F5F5F5F5F5F5F5F5F5F5BEF5F5F5F5BEBEF5BEF5BEBEF5BEBEF5F5F5F5F5F5F5F5F5F5BEF5BEBEBEBEBEBEBEF5BEBEF5F5F5F5F5F5BEF5F5F5F5F5BEBEBEF5F5F5F5F5F5F5F5BEF5F5F5F5F5F5F5F5F5F5F5F5F5F5F5F5F5F5F5
310
F5F5F5F5F5E2F5F5F5E2E2F5F5E2F5F5F5E2E2F5F5F5F5F5F5F5F5F5F5F5F5F5F5E2F5F5F5F5F5F5F5F5F5F5F5F5F5F5F5F5F5F5F5F5F5F5F5F5F5F5F5F5F5F5F5F5F5F5F5F5F5F5F5F5F5F5F5F5F5F5F5F5F5F5F5F5F5F5F5F5F5F5F5F5F5F5F5F5F5F5BEF5F5F5F5BEF5BEBEBEBEBEBEBEBEF5F5F5F5F5F5F5F5F5F5BEF5
310
F5BEBEBEBEBEBEBEBEF5F5F5F5F5F5F5BEF5F5F5F5F5F5F5F5F5F5F5F5F5F5F5F5BEF5F5F5F5F5F5F5F5F5F5F5F5F5F5F5F5F5F5F5F5F5F5F5F5E2F5F5F5E2E2F5F5E2F5F5F5E2E2F5F5F5F5F5F5F5F5F5F5F5F5F5F5E2F5F5F5F5F5F5F5F5F5F5F5F5F5F5F5F5F5F5F5F5F5F5F5F5F5F5F5F5F5F5F5F5F5F5F5F5F5F5F5F5
310
F5F5F5F5F5F5F5F5F5F5F5F5F5F5F5F5F5F5F5F5F5F5F5F5F5F5BEF5F5F5BEF5F5BEF5F5F5BEF5BEF5F5F5F5F5F5F5F5F5F5F5BEF5F5BEF5F5F5F5F5F5F5F5F5F5F5F5F5F5BEF5F5F5F5F5F5F5F5F5F5F5F5F5F5F5F5BEF5F5F5F5F5F5F5F5F5F5F5F5F5F5F5F5F5F5F5F5F5F5F5F5E2F5F5F5E2E2F5F5E2F5F5F5E2E2F5F5
310
F5F5F5F5F5F5F5F5F5F5F5F5E2F5F5F5F5F5F5F5F5F5F5F5F5F5F5F5F5F5F5F5F5F5F5F5F5F5F5F5F5F5F5F5F5F5F5F5F5F5F5F5F5F5F5F5F5F5F5F5F5F5F5F5F5F5F5F5F5F5F5F5F5F5F5F5F5F5F5BEF5F5F5F5F5F5F5F5F5F5F5F5F5F5F5F5F5F5F5F5F5F5F5F5BEF5F5F5F5F5F5F5F5F5F5F5F5F5F5F5F5F5BEF5F5F5F5
310
F5F5F5F5F5F5F5F5F5F5F5F5BEF5F5F5F5F5F5F5F5F5F5F5F5F5F5F5F5F5F5F5F5F5F5F5F5E2F5F5F5E2E2F5F5E2F5F5F5E2E2F5F5F5F5F5F5F5F5F5F5F5F5F5F5E2F5F5F5F5F5F5F5F5F5F5F5F5F5F5F5F5F5F5F5F5F5F5F5F5F5F5F5F5F5F5F5F5F5F5F5F5F5F5F5F5F5F5F5F5F5F5F5F5F5F5F5F5F5F5F5F5F5F5F5F5F5
310
F5F5F5F5F5BEBEBEBEBEBEBEBEBEBEBEBEBEBEBEBEBEBEBEBEBEBEBEBEBEBEBEBEBEBEBEBEBEBEBEBEBEBEBEBEBEBEBEBEBEBEBEBEBEBEBEBEBEBEBEBEBEBEBEBEBEF5F5F5F5F5F5F5F5F5F5F5F5F5F5F5F5F5F5F5F5F5F5F5F5E2F5F5F5E2E2F5F5E2F5F5F5F5E2F5F5F5F5F5F5F5F5F5F5F5F5F5F5E2F5F5F5F5F5F5F5F5
310
F5F5F5F5F5F5F5F5F5F5F5F5F5F5F5F5F5F5F5F5F5F5F5F5F5F5F5F5F5F5F5F5F5F5F5F5F5F5F5F5F5F5F5F5F5F5F5F5F5F5F5F5F5F5F5F5F5F5F5F5F5F5F5F5F5F5F5F5F5F5F5F5F5F5F5F5F5F5F5F5F5F5F5F5F5F5F5F5F5F5F5F5F5F5F5F5F5F5F5F5F5F5F5F5F5F5F5F5F5F5F5F5F5F5F5F5F5F5F5F5F5F5F5F5F5F5F5
310
F5F5F5F5F5F5F5F5F5F5F5F5F5F5F5F5E2F5F5F5E2F5F5F5E2F5F5F5F5E2F5F5F5F5F5F5F5F5F5F5F5F5F5F5E2F5F5F5F5F5F5F5F5F5F5F5F5F5F5F5F5F5F5F5F5F5F5F5F5F5F5F5F5F5F5F5F5F5F5F5F5F5F5F5F5F5F5F5F5F5F5F5F5F5F5F5F5F5F5F5F5F5F5F5F5F5F5F5F5F5F5F5F5F5F5F5F5F5F5F5F5F5F5F5F5F5F5
310
F5F5F5F5F5F5F5F5F5F5F5F5F5F5F5F5F5F5F5F5F5F5F5F5F5F5F5F5F5F5F5F5F5F5F5F5F5F5F5F5F5F5F5F5F5F5F5F5F5F5F5F5F5F5F5F5F5F5F5F5F5F5F5F5F5F5F5F5F5E2F5F5F5E2F5F5F5E2F5F5F5F5E2F5F5F5F5F5F5F5F5F5F5F5F5F5F5E2F5F5F5F5F5F5F5F5F5F5F5F5F5F5F5F5F5F5F5F5F5F5F5F5F5F5F5F5F5
310
F5F5F5F5F5F5F5F5F5F5F5F5F5F5F5F5F5F5F5F5F5F5F5F5F5F5F5F5F5F5F5F5F5F5F5F5F5F5F5F5F5F5F5F5F5F5F5F5F5F5F5F5F5F5F5F5F5F5F5F5F5F5F5F5F5F5F5F5F5F5F5F5F5F5F5F5F5F5F5F5F5F5F5F5F5F5F5F5F5F5F5F5F5F5F5F5F5F5F5F5F5F5F5F5F5F5F5F5F5F5F5F5F5F5F5F5F5F5F5F5F5F5E2F5F5F5E2
310
F5F5F5E2F5F5F5F5E2F5F5F5F5F5F5F5F5F5F5F5F5F5F5E2F5F5F5F5F5F5F5F5F5F5F5F5F5F5F5F5F5F5F5F5F5F5F5F5F5F5F5F5F5F5F5F5F5F5F5F5F5F5F5F5F5F5F5F5F5F5F5F5F5F5F5F5F5F5F5F5F5F5F5F5F5F5F5F5F5F5F5F5F5F5F5F5F5F5F5F5F5F5F5F5F5F5F5F5F5F5F5F5F5F5F5F5F5F5F5F5F5F5F5F5F5F5F5
310
F5F5F5F5F5F5F5F5F5F5F5F5F5F5F5F5F5F5F5F5F5F5F5F5F5F5F5F5F5F5F5F5F5F5F5F5F5F5F5F5F5F5F5F5F5F5F5F5E2F5F5F5E2F5F5F5E2F5F5F5F5E2F5F5F5F5F5F5F5F5F5F5F5F5F5F5E2F5F5F5F5F5F5F5F5F5F5F5F5F5F5F5F5F5F5F5F5F5F5F5F5F5F5F5F5F5F5F5F5F5F5F5F5F5F5F5F5F5F5F5F5F5F5F5F5F5F5
310
F5F5F5F5F5F5F5F5F5F5F5F5F5F5F5F5F5F5F5F5F5F5F5F5F5F5F5F5F5F5F5F5F5F5F5F5F5F5F5F5F5F5F5F5F5F5F5F5F5F5F5F5F5F5F5F5F5F5F5F5F5F5F5F5F5F5F5F5F5F5F5F5F5F5F5F5F5F5F5F5F5F5F5F5F5F5F5F5F5F5F5F5F5F5F5F5F5F5F5F5F5E2F5F5F5E2F5F5F5E2F5F5F5F5E2F5F5F5F5F5F5F5F5F5F5F5F5
310
F5F5E2F5F5F5F5F5F5F5F5F5F5F5F5F5F5F5F5F5F5F5F5F5F5F5F5F5F5F5F5F5F5F5F5F5F5F5F5F5F5F5F5F5F5F5F5F5F5F5F5F5F5F5F5F5F5F5F5F5F5F5F5F5F5F5F5F5F5F5F5F5F5F5F5F5F5F5F5F5F5F5F5F5F5F5F5F5F5F5F5F5F5F5F5F5F5F5F5F5F5F5F5F5F5F5F5F5F5F5F5F5F5F5F5F5F5F5F5F5F5F5F5F5F5F5F5
310
F5F5F5F5F5F5F5F5F5F5F5F5F5F5F5F5F5F5F5F5F5F5F5F5F5F5F5E2F5F5F5E2F5F5F5E2F5F5F5F5E2F5F5F5F5F5F5F5F5F5F5F5F5F5F5E2F5F5F5F5F5F5F5F5F5F5F5F5F5F5F5F5F5F5F5F5F5F5F5F5F5F5F5F5F5F5F5F5F5F5F5F5F5F5F5F5F5F5F5F5F5F5F5F5F5F5F5F5F5F5F5F5F5F5F5F5F5F5F5F5F5F5F5F5F5F5F5
310
F5F5F5F5F5F5F5F5F5F5F5F5F5F5F5F5F5F5F5F5F5F5F5F5F5F5F5F5F5F5F5F5F5F5F5F5F5F5F5F5F5F5F5F5F5F5F5F5F5F5F5F5F5F5F5F5F5F5F5F5F5F5F5F5F5F5F5F5F5F5F5F5F5F5F5F5F5F5F5F5E2F5F5F5E2F5F5F5E2F5F5F5F5E2F5F5F5F5F5F5F5F5F5F5F5F5F5F5E2F5F5F5F5F5F5F5F5F5F5F5F5F5F5F5F5F5F5
310
F5F5F5F5F5F5F5F5F5F5F5F5F5F5F5F5F5F5F5F5F5F5F5F5F5F5F5F5F5F5F5F5F5F5F5F5F5F5F5F5F5F5F5F5F5F5F5F5F5F5F5F5F5F5F5F5F5F5F5F5F5F5F5F5F5F5F5F5F5F5F5F5F5F5F5F5F5F5F5F5F5F5F5F5F5F5F5F5F5F5F5F5F5F5F5F5F5F5F5F5F5F5F5F5F5F5F5F5F5F5F5F5F5F5F5F5F5F5F5F5F5F5F5F5F5F5F5
310
F5F5F5F5F5F5E2F5F5F5E2F5F5F5E2F5F5F5F5E2F5F5F5F5F5F5F5F5F5F5F5F5F5F5E2F5F5F5F5F5F5F5F5F5F5F5F5F5F5F5F5F5F5F5F5F5F5F5F5F5F5F5F5F5F5F5F5F5F5F5F5F5F5F5F5F5F5F5F5F5F5F5F5F5F5F5F5F5F5F5F5F5F5F5F5F5F5F5F5F5F5F5F5F5F5F5F5F5F5F5F5F5F5F5F5F5F5F5F5F5F5F5F5F5F5F5F5
310
F5F5F5F5F5F5F5F5F5F5F5F5F5F5F5F5F5F5F5F5F5F5F5F5F5F5F5F5F5F5F5F5F5F5F5F5F5F5F5F5F5F5F5F5F5F5F5F5F5F5F5F5F5F5F5F5F5F5F5E2F5F5F5E2F5F5F5E2F5F5F5E2E2F5F5F5F5F5F5F5F5F5F5F5F5F5F5E2F5F5F5F5F5F5F5F5F5F5F5F5F5F5F5F5F5F5F5F5F5F5F5F5F5F5F5F5F5F5F5F5F5F5F5F5F5F5F5
310
F5F5F5F5F5F5F5F5F5F5F5F5F5F5F5F5F5F5F5F5F5F5F5F5F5F5F5F5F5F5F5F5F5F5F5F5F5F5F5F5F5F5F5F5F5F5F5F5F5F5F5F5F5F5F5F5F5F5F5F5F5F5F5F5F5F5F5F5F5F5F5F5F5F5F5F5F5F5F5F5F5F5F5F5F5F5F5F5F5F5F5F5F5F5F5F5F5F5F5F5F5F5F5F5F5F5F5F5F5F5F5F5E2F5F5F5E2E2F5F5E2F5F5F5E2E2F5
310
F5F5F5F5F5F5F5F5F5F5F5F5F5E2F5F5F5F5F5F5F5F5F5F5F5F5F5F5F5F5F5F5F5F5F5F5F5F5F5F5F5F5F5F5F5F5F5F5F5F5F5F5F5F5F5F5F5F5F5F5F5F5F5F5F5F5F5F5F5F5F5F5F5F5F5F5F5F5F5F5F5F5F5F5F5F5F5F5F5F5F5F5F5F5F5F5F5F5F5F5F5F5F5F5F5F5F5F5F5F5F5F5F5F5F5F5F5F5F5F5F5F5F5F5F5F5F5
310
F5F5F5F5F5F5F5F5F5F5F5F5F5F5F5F5F5F5F5F5F5F5F5F5F5F5F5F5F5F5F5F5F5F5F5F5F5F5E2F5F5F5E2E2F5F5E2F5F5F5E2E2F5F5F5F5F5F5F5F5F5F5F5F5F5F5E2F5F5F5F5F5F5F5F5F5F5F5F5F5F5F5F5F5F5F5F5F5F5F5F5F5F5F5F5F5F5F5F5F5F5F5F5F5F5F5F5F5F5F5F5F5F5F5F5F5F5F5F5F5F5F5F5F5F5F5F5
310
F5F5F5F5F5F5F5F5F5F5F5F5F5F5F5F5F5F5F5F5F5F5F5F5F5F5F5F5F5F5F5F5F5F5F5F5F5F5F5F5F5F5F5F5F5F5F5F5F5F5F5F5F5F5F5F5F5F5F5F5F5F5F5F5F5F5F5F5F5F5F5F5F5F5F5F5F5F5F5F5F5F5F5F5F5F5F5F5F5F5F5E2F5F5F5E2E2F5F5E2F5F5F5E2E2F5F5F5F5F5F5F5F5F5F5F5F5F5F5E2F5F5F5F5F5F5F5
310
F5F5F5F5F5F5F5F5F5F5F5F5F5F5F5F5F5F5F5F5F5F5F5F5F5F5F5F5F5F5F5F5F5F5F5F5F5F5F5F5F5F5F5F5F5F5F5F5F5F5F5F5F5F5F5F5F5F5F5F5F5F5F5F5F5F5F5F5F5F5F5F5F5F5F5F5F5F5F5F5F5F5F5F5F5F5F5F5F5F5F5F5F5F5F5F5F5F5F5F5F5F5F5F5F5F5F5F5F5F5F5F5F5F5F5F5F5F5F5F5F5F5F5F5F5F5F5
310
F5F5F5F5F5F5F5F5F5F5F5F5F5F5F5F5F5E2F5F5F5E2E2F5F5E2F5F5F5E2E2F5F5F5F5F5F5F5F5F5F5F5F5F5F5E2F5F5F5F5F5F5F5F5F5F5F5F5F5F5F5F5F5F5F5F5F5F5F5F5F5F5F5F5F5F5F5F5F5F5F5F5F5F5F5F5F5F5F5F5F5F5F5F5F5F5F5F5F5F5F5F5F5F5F5F5F5F5F5F5F5F5F5F5F5F5F5F5F5F5F5F5F5F5F5F5F5
310
F5F5F5F5F5F5F5F5F5F5F5F5F5F5F5F5F5F5F5F5F5F5F5F5F5F5F5F5F5F5F5F5F5F5F5F5F5F5F5F5F5F5F5F5F5F5F5F5F5F5F5F5F5F5F5F5F5F5F5F5F5F5F5F5F5F5F5F5F5F5E2F5F5F5E2E2F5F5E2F5F5F5E2E2F5F5F5F5F5F5F5F5F5F5F5F5F5F5E2F5F5F5F5F5F5F5F5F5F5F5F5F5F5F5F5F5F5F5F5F5F5F5F5F5F5F5F5
310
F5F5F5F5F5F5F5F5F5F5F5F5F5F5F5F5F5F5F5F5F5F5F5F5F5F5F5F5F5F5F5F5F5F5F5F5F5F5F5F5F5F5F5F5F5F5F5F5F5F5F5F5F5F5F5F5F5F5F5F5F5F5F5F5F5F5F5F5F5F5F5F5F5F5F5F5F5F5F5F5F5F5F5F5F5F5F5F5F5F5F5F5F5F5F5F5F5F5F5F5F5F5F5F5F5F5F5F5F5F5F5F5F5F5F5F5F5F5F5F5F5F5F5E2F5F5F5
310
E2E2F5F5E2F5F5F5E2E2F5F5F5F5F5F5F5F5F5F5F5F5F5F5E2F5F5F5F5F5F5F5F5F5F5F5F5F5F5F5F5F5F5F5F5F5F5F5F5F5F5F5F5F5F5F5F5F5F5F5F5F5F5F5F5F5F5F5F5F5F5F5F5F5F5F5F5F5F5F5F5F5F5F5F5F5F5F5F5F5F5F5F5F5F5F5F5F5F5F5F5F5F5F5F5F5F5F5F5F5F5F5F5F5F5F5F5F5F5F5F5F5F5F5F5F5F5
310
F5F5F5F5F5F5F5F5F5F5F5F5F5F5F5F5F5F5F5F5F5F5F5F5F5F5F5F5F5F5F5F5F5F5F5F5F5F5F5F5F5F5F5F5F5F5F5F5F5E2F5F5F5E2E2F5F5E2F5F5F5E2E2F5F5F5F5F5F5F5F5F5F5F5F5F5F5E2F5F5F5F5F5F5F5F5F5F5F5F5F5F5F5F5F5F5F5F5F5F5F5F5F5F5F5F5F5F5F5F5F5F5F5F5F5F5F5F5F5F5F5F5F5F5F5F5F5
310
F5F5F5F5F5F5F5F5F5F5F5F5F5F5F5F5F5F5F5F5F5F5F5F5F5F5F5F5F5F5F5F5F5F5F5F5F5F5F5F5F5F5F5F5F5F5F5F5F5F5F5F5F5F5F5F5F5F5F5F5F5F5F5F5F5F5F5F5F5F5F5F5F5F5F5F5F5F5F5F5F5F5F5F5F5F5F5F5F5F5F5F5F5F5F5F5F5F5F5F5F5F5E2F5F5F5E2E2F5F5E2F5F5F5E2E2F5F5F5F5F5F5F5F5F5F5F5
310
F5F5F5E2F5F5F5F5F5F5F5F5F5F5F5F5F5F5F5F5F5F5F5F5F5F5F5F5F5F5F5F5F5F5F5F5F5F5F5F5F5F5F5F5F5F5F5F5F5F5F5F5F5F5F5F5F5F5F5F5F5F5F5F5F5F5F5F5F5F5F5F5F5F5F5F5F5F5F5F5F5F5F5F5F5F5F5F5F5F5F5F5F5F5F5F5F5F5F5F5F5F5F5F5F5F5F5F5F5F5F5F5F5F5F5F5F5F5F5F5F5F5F5F5F5F5F5
310
F5F5F5F5F5F5F5F5F5F5F5F5F5F5F5F5F5F5F5F5F5F5F5F5F5F5F5F5E2F5F5F5E2E2F5F5E2F5F5F5E2E2F5F5F5F5F5F5F5F5F5F5F5F5F5F5E2F5F5F5F5F5F5F5F5F5F5F5F5F5F5F5F5F5F5F5F5F5F5F5F5F5F5F5F5F5F5F5F5F5F5F5F5F5F5F5F5F5F5F5F5F5F5F5F5F5F5F5F5F5F5F5F5F5F5F5F5F5F5F5F5F5F5F5F5F5F5
310
F5F5F5F5F5F5F5F5F5F5F5F5F5F5F5F5F5F5F5F5F5F5F5F5F5F5F5F5F5F5F5F5F5F5F5F5F5F5F5F5F5F5F5F5F5F5F5F5F5F5F5F5F5F5F5F5F5F5F5F5F5F5F5F5F5F5F5F5F5F5F5F5F5F5F5F5F5F5F5F5F5E2F5F5F5E2E2F5F5E2F5F5F5E2E2F5F5F5F5F5F5F5F5F5F5F5F5F5F5E2F5F5F5F5F5F5F5F5F5F5F5F5F5F5F5F5F5
310
F5F5F5F5F5F5F5F5F5F5F5F5F5F5F5F5F5F5F5F5F5F5F5F5F5F5F5F5F5F5F5F5F5F5F5F5F5F5F5F5F5F5F5F5F5F5F5F5F5BEBEBEBEBEBEBEBEBEBEBEBEBEBEBEBEBEBEBEBEBEBEBEBEBEBEBEBEBEBEBEBEBEBEBEBEBEBEBEBEBEBEBEBEBEBEBEBEBEBEBEBEBEBEBEBEBEBEBEBEBEF5F5F5F5F5F5F5F5F5F5F5F5F5F5F5F5F5
310
F5F5F5F5F5F5F5E2F5F5F5E2E2F5F5E2F5F5F5E2E2F5F5F5F5F5F5F5F5F5F5F5F5F5F5E2F5F5F5F5F5F5F5F5F5F5F5F5F5F5F5F5F5F5F5F5F5F5F5F5F5F5F5F5F5F5F5F5F5F5F5F5F5F5F5F5F5F5F5F5F5F5F5F5F5F5F5F5F5F5F5F5F5F5F5F5F5F5F5F5F5F5BEF5F5F5BEBEBEBEF5F5F5BEBEBEF5F5BEF5F5F5F5F5F5F5F5
310
BEF5BEF5BEBEBEBEF5F5F5BEBEBEBEF5BEF5BEF5F5BEBEBEBEF5BEBEBEF5BEBEF5F5F5BEF5F5F5F5F5F5F5F5F5F5F5F5F5F5F5F5F5F5F5F5F5F5F5F5E2F5F5F5E2E2F5F5E2F5F5F5E2E2F5F5F5F5F5F5F5F5F5F5F5F5F5F5E2F5F5F5F5F5F5F5F5F5F5F5F5F5F5F5F5F5F5F5F5F5F5F5F5F5F5F5F5F5F5F5F5F5F5F5F5F5F5
310
F5F5F5F5F5F5F5F5F5F5F5F5F5F5F5F5F5F5F5F5F5F5F5F5F5F5F5F5BEF5F5F5BEF5BEF5F5F5F5BEF5F5BEBEBEF5F5F5F5F5F5F5F5BEBEF5BEBEBEF5F5F5F5F5BEBEF5BEBEBEBEBEF5F5BEF5BEBEBEBEBEBEF5BEBEF5F5F5BEF5F5F5F5F5F5F5F5F5F5F5F5F5F5F5F5F5F5F5F5F5F5F5F5E2F5F5F5E2E2F5F5E2F5F5F5E2E2
310
F5F5F5F5F5F5F5F5F5F5F5F5F5F5E2F5F5F5F5F5F5F5F5F5F5F5F5F5F5F5F5F5F5F5F5F5F5F5F5F5F5F5F5F5F5F5F5F5F5F5F5F5F5F5F5F5F5F5F5F5F5F5F5F5F5F5F5F5F5F5F5F5F5F5F5F5F5F5F5F5F5BEF5F5F5BEF5BEBEBEBEBEF5BEBEF5BEBEF5F5F5F5F5F5F5F5BEBEF5BEF5BEBEBEBEBEBEBEBEF5F5F5BEF5BEF5BE
310
F5F5BEBEBEBEBEBEBEBEF5F5F5F5BEF5F5F5F5F5F5F5F5F5F5F5F5F5F5F5F5F5F5F5F5F5F5F5F5E2F5F5F5E2E2F5F5E2F5F5F5E2E2F5F5F5F5F5F5F5F5F5F5F5F5F5F5E2F5F5F5F5F5F5F5F5F5F5F5F5F5F5F5F5F5F5F5F5F5F5F5E2E2E2E2E2E2E2E2E2E2E2E2E2E2E2E2E2E2E2E2E2E2E2E2E2F5F5F5F5F5F5F5F5F5F5F5
310
F5F5F5F5F5F5F5BEF5F5F5BEF5BEBEF5F5F5BEBEBEF5F5BEF5F5F5F5F5F5F5F5BEBEBEBEF5BEBEBEF5F5F5BEBEF5F5F5BEF5BEF5F5BEBEBEBEF5BEBEF5F5F5F5F5F5F5BEF5F5F5F5F5F5F5F5F5F5F5F5F5F5F5F5F5F5F5F5F5F5F5F5E2F5F5F5E2E2F5F5E2F5F5F5F5E2F5F5F5F5F5F5F5F5F5F5F5F5F5F5E2F5F5F5F5F5F5
310
F5F5F5F5F5F5F5F5F5F5F5F5F5F5F5F5F5E2F5F5F5F5F5F5F5F5E2BEBEE2E2E2E2E2E2E2E2E2E2E2E2E2E2E2E2E2E2E2E2F5F5F5F5F5F5F5F5F5F5F5BEF5F5F5F5F5F5F5F5F5F5F5F5F5F5F5F5F5F5F5F5F5F5F5F5BEF5F5F5F5F5F5F5F5F5F5F5F5F5F5F5F5F5BEF5F5F5F5F5F5F5F5F5F5F5F5F5F5F5F5BEF5F5F5F5F5F5
310
F5F5F5F5F5F5F5F5F5F5F5F5F5F5F5F5F5F5E2F5F5F5E2F5F5F5E2F5F5F5F5E2F5F5F5F5F5F5F5F5F5F5F5F5F5F5E2F5F5F5F5F5F5F5F5F5F5F5F5F5F5F5F5F5F5F5F5F5F5F5E2F5F5F5F5F5F5F5F5E2BEBEE2F5E2F5E2BEE2F5E2F5E2BEE2F5F5F5F5F5F5F5F5F5F5F5F5F5F5F5F5F5F5BEF5BEBEBEBEBEBEBEBEBEF5F5F5
310
BEF5BEBEBEBEBEBEF5F5F5BEF5F5F5BEBEBEBEBEBEBEF5F5F5F5F5F5F5BEF5F5F5F5F5F5F5F5F5F5F5F5F5F5F5F5BEF5F5F5F5F5F5F5F5F5F5F5F5F5F5F5F5F5F5F5F5F5F5F5F5E2F5F5F5E2F5F5F5E2F5F5F5F5E2F5F5F5F5F5F5F5F5F5F5F5F5F5F5E2F5F5F5F5F5F5F5F5F5F5F5F5F5F5F5F5F5F5F5F5F5F5F5E2F5F5F5
310
F5F5F5F5F5E2BEBEE2E2F5F5E2E2F5E2F5F5E2BEE2F5F5F5F5F5F5F5F5F5F5F5F5F5F5F5F5F5F5BEF5BEF5BEBEF5BEBEF5F5F5F5F5BEBEF5BEF5BEBEF5BEF5F5BEF5F5F5BEBEF5BEBEF5F5F5F5F5F5F5F5F5BEF5F5F5BEBEBEF5BEBEBEF5F5F5F5F5F5BEF5F5F5F5F5F5F5F5F5F5F5F5F5F5F5F5F5F5F5F5F5F5F5F5E2F5F5
310
F5E2F5F5F5E2F5F5F5F5E2F5F5F5F5F5F5F5F5F5F5F5F5F5F5E2F5F5F5F5F5F5F5F5F5F5F5F5F5F5F5F5F5F5F5F5F5F5F5E2E2E2E2E2E2E2E2E2E2BEBEE2F5F5F5E2BEE2F5F5F5E2BEE2F5F5F5F5F5F5F5F5F5F5F5F5F5F5F5F5F5F5BEF5BEF5BEBEF5F5BEBEBEBEBEBEBEF5BEBEF5F5BEBEBEF5F5BEF5F5F5BEBEF5F5BEBE
310
BEF5F5F5F5F5F5F5BEF5F5BEF5F5F5BEF5F5F5BEF5F5F5F5F5BEF5F5F5F5F5F5F5F5F5F5F5F5F5F5F5F5F5F5F5F5F5F5F5F5E2F5F5F5E2F5F5F5E2F5F5F5F5E2F5F5F5F5F5F5F5F5F5F5F5F5F5F5E2F5F5F5F5F5F5F5F5F5F5F5F5F5F5F5F5F5F5F5F5F5F5F5E2F5F5F5F5F5F5E2F5E2BEBEE2E2E2E2BEBEE2E2E2E2BEBEE2
310
F5F5F5F5F5F5F5F5F5F5F5F5F5F5F5F5F5F5BEF5BEF5BEBEF5F5BEBEBEF5F5F5BEBEBEBEF5F5BEBEBEF5F5BEF5F5F5BEBEF5F5BEBEBEF5F5F5F5F5F5F5BEF5F5F5BEF5BEF5BEF5BEF5F5F5F5F5F5BEF5F5F5F5F5F5F5F5F5F5F5F5F5F5F5F5F5F5F5F5F5F5F5F5E2F5F5F5E2F5F5F5E2F5F5F5F5E2F5F5F5F5F5F5F5F5F5F5
310
F5F5F5F5E2F5F5F5F5F5F5F5F5F5F5F5F5F5F5F5F5F5F5F5F5F5F5F5E2F5F5F5F5F5F5E2F5E2BEBEBEBEBEBEBEBEBEBEBEBEBEBEE2F5F5F5F5F5F5F5F5F5F5F5F5F5F5F5F5F5F5BEF5F5F5F5F5F5F5F5F5F5F5F5F5F5F5F5F5F5F5F5F5F5F5F5BEF5F5F5F5F5F5F5F5F5F5F5F5F5F5F5F5F5BEF5F5F5F5BEF5F5F5BEF5F5F5
310
F5F5F5F5BEF5F5F5F5F5F5F5F5F5F5F5F5F5F5F5F5F5F5F5F5F5F5F5F5E2F5F5F5E2F5F5F5E2F5F5F5F5E2F5F5F5F5F5F5F5F5F5F5F5F5F5F5E2F5F5F5F5F5F5F5F5F5F5F5F5F5F5F5F5F5F5F5F5F5F5F5E2F5F5F5F5F5F5E2F5E2BEBEBEBEBEBEBEBEBEBEBEBEBEBEE2F5F5F5F5F5F5F5F5F5F5F5F5F5F5F5F5F5F5BEBEBE
310
BEBEBEBEBEBEBEBEBEBEBEBEBEBEBEBEBEBEBEBEBEBEBEBEBEBEBEBEBEBEBEBEBEBEBEBEBEBEBEBEBEBEBEBEBEBEBEBEBEBEBEBEBEBEBEBEBEBEF5F5F5F5F5F5F5F5F5F5F5F5F5F5F5F5F5F5F5F5F5F5F5F5E2F5F5F5E2F5F5F5E2F5F5F5F5E2F5F5F5F5F5F5F5F5F5F5F5F5F5F5E2F5F5F5F5F5F5F5F5F5F5F5F5F5F5F5F5
310
F5F5F5F5F5F5F5E2E2E2E2E2E2E2E2E2E2BEBEBEBEE2E2E2E2E2E2E2E2E2E2E2E2E2E2E2E2E2E2F5F5F5F5F5F5F5F5F5F5F5BEF5F5F5F5F5F5F5F5F5F5F5F5F5F5F5F5F5F5F5F5F5F5F5F5BEF5F5F5F5F5F5F5F5F5F5F5F5F5F5F5F5F5BEF5F5F5F5F5F5F5F5F5F5F5F5F5F5F5F5BEF5F5F5F5F5F5F5F5F5F5F5F5F5F5F5F5
310
F5F5F5F5F5F5F5F5E2F5F5F5E2F5F5F5E2F5F5F5F5E2F5F5F5F5F5F5F5F5F5F5F5F5F5F5E2F5F5F5F5F5F5F5F5F5F5F5F5F5F5F5F5F5F5F5F5F5F5F5E2F5F5F5E2F5E2F5F5E2BEBEE2E2F5E2BEBEE2E2F5E2BEBEE2F5F5F5F5F5F5F5F5F5F5F5F5F5F5F5F5F5F5BEF5F5F5BEF5BEF5BEBEBEF5F5BEBEBEF5BEBEF5F5F5F5F5
310
F5BEF5F5F5F5F5F5F5F5F5F5F5F5F5F5F5F5F5BEF5F5F5F5F5F5F5F5F5F5F5F5F5F5F5F5BEF5F5F5F5F5F5F5F5F5F5F5F5F5F5F5F5F5F5F5F5F5F5F5F5E2F5F5F5E2F5F5F5E2F5F5F5E2E2F5F5F5F5F5F5F5F5F5F5F5F5F5F5E2F5F5F5F5F5F5F5F5F5F5F5F5F5F5F5F5F5F5F5F5F5F5F5E2F5F5F5E2F5E2F5F5E2BEBEE2F5
310
E2F5E2E2F5F5E2F5E2BEE2F5F5F5F5F5F5F5F5F5F5F5F5F5F5F5F5F5F5BEF5F5F5BEBEBEBEF5BEF5BEF5F5BEBEBEF5BEF5F5F5F5F5F5BEF5F5F5F5F5F5F5F5F5F5F5F5F5F5F5F5F5BEF5F5F5F5F5BEBEF5F5F5F5F5F5F5F5F5BEF5F5F5F5F5F5F5F5F5F5F5F5F5F5F5F5F5F5F5F5F5F5F5F5E2F5F5F5E2E2F5F5E2F5F5F5E2
310
E2F5F5F5F5F5F5F5F5F5F5F5F5F5F5E2F5F5F5F5F5F5F5F5F5F5F5F5F5F5F5F5F5F5F5F5F5F5F5E2F5F5F5E2F5E2F5F5E2BEBEE2E2F5F5E2BEE2E2F5F5E2BEE2F5F5F5F5F5F5F5F5F5F5F5F5F5F5F5F5F5F5BEF5F5F5F5BEBEBEF5F5F5BEF5F5BEBEBEF5F5F5F5F5F5F5F5BEF5F5F5F5F5F5F5F5F5F5F5F5F5F5F5F5F5BEF5
310
F5F5BEBEF5F5BEBEF5F5F5F5F5F5F5BEF5F5F5F5F5F5F5F5F5F5F5F5F5F5F5F5F5F5F5F5F5F5F5F5E2F5F5F5E2E2F5F5E2F5F5F5E2E2F5F5F5F5F5F5F5F5F5F5F5F5F5F5E2F5F5F5F5F5F5F5F5F5F5F5F5F5F5F5F5F5F5F5F5F5E2E2E2E2E2E2E2F5E2F5F5E2BEBEE2F5F5E2BEBEE2F5F5E2BEBEE2F5F5F5F5F5F5F5F5F5F5
310
F5F5F5F5F5F5F5F5BEF5F5F5F5BEF5BEBEBEF5F5BEBEBEBEBEBEBEF5F5F5F5F5F5BEF5F5F5F5F5F5F5F5F5F5F5F5F5F5F5F5F5BEF5F5F5BEF5F5F5F5BEF5F5F5F5F5F5F5BEF5F5F5F5F5F5F5F5F5F5F5F5F5F5F5F5F5F5F5F5F5F5F5F5E2F5F5F5E2E2F5F5E2F5F5F5E2E2F5F5F5F5F5F5F5F5F5F5F5F5F5F5E2F5F5F5F5F5
310
F5F5F5F5F5F5F5F5F5F5F5F5F5F5F5F5E2E2E2F5F5F5F5F5E2F5F5E2BEBEBEE2E2BEBEBEBEE2E2BEBEBEE2F5F5F5F5F5F5F5F5F5F5F5F5F5F5F5F5F5F5BEF5F5F5F5F5F5F5F5F5F5F5F5F5F5F5F5F5F5F5F5F5F5F5F5BEF5F5F5F5F5F5F5F5F5F5F5F5F5F5F5F5F5BEF5F5F5BEF5F5BEBEBEBEF5F5F5F5F5F5BEF5F5F5F5F5
310
F5F5F5F5F5F5F5F5F5F5F5F5F5F5F5F5F5F5F5E2F5F5F5E2E2F5F5E2F5F5F5E2E2F5F5F5F5F5F5F5F5F5F5F5F5F5F5E2F5F5F5F5F5F5F5F5F5F5F5F5F5F5F5F5F5F5F5F5F5F5F5E2E2E2E2E2E2E2E2E2E2E2E2E2E2E2E2E2E2E2E2E2E2E2E2E2F5F5F5F5F5F5F5F5F5F5F5F5F5F5F5F5F5F5BEF5F5F5F5F5F5F5F5F5F5F5F5
310
F5F5F5F5F5F5F5F5F5F5F5F5BEF5F5F5F5F5F5F5F5F5BEF5F5F5F5F5F5F5BEF5F5F5BEF5F5BEBEBEBEF5F5F5F5F5F5BEF5F5F5F5F5F5F5F5F5F5F5F5F5F5F5F5F5F5F5F5F5F5F5F5E2F5F5F5E2E2F5F5E2F5F5F5E2E2F5F5F5F5F5F5F5F5F5F5F5F5F5F5E2F5F5F5F5F5F5F5F5F5F5F5F5F5F5F5F5F5F5F5F5F5F5F5F5F5F5
310
F5F5F5F5F5F5F5F5F5F5F5F5F5F5F5F5F5F5F5F5F5F5F5F5F5F5F5F5F5F5F5F5F5F5F5F5F5F5F5F5BEF5F5F5F5F5F5BEF5F5BEBEF5BEF5F5BEF5F5F5F5F5F5F5F5BEF5F5F5BEF5BEBEF5BEBEBEF5BEF5F5F5F5BEF5F5F5BEF5F5BEF5F5BEF5F5F5F5F5F5BEF5F5F5F5F5F5F5F5F5F5F5F5F5F5F5F5F5F5F5F5F5F5F5F5E2F5
310
F5F5E2E2F5F5E2F5F5F5E2E2F5F5F5F5F5F5F5F5F5F5F5F5F5F5E2F5F5F5F5F5F5F5F5F5F5F5F5F5F5F5F5F5F5F5F5F5F5F5F5F5F5F5F5F5F5F5F5F5F5F5F5F5F5F5F5F5F5F5F5F5F5F5F5F5F5F5F5F5F5F5F5F5F5F5F5F5F5F5F5F5F5BEF5F5F5F5F5F5BEBEF5BEF5BEBEF5BEBEF5F5F5F5F5F5F5F5BEF5F5F5BEBEBEBEBE
310
BEBEF5BEBEF5F5F5F5BEF5F5F5BEBEF5BEF5BEF5F5F5F5F5F5F5BEF5F5F5F5F5F5F5F5F5F5F5F5F5F5F5F5F5F5F5F5F5F5F5F5E2F5F5F5E2E2F5F5E2F5F5F5E2E2F5F5F5F5F5F5F5F5F5F5F5F5F5F5E2F5F5F5F5F5F5F5F5F5F5F5F5F5F5F5F5F5F5F5F5F5F5F5F5F5F5F5F5F5F5F5F5F5F5F5F5F5F5F5F5F5F5F5F5F5F5F5
310
F5F5F5F5F5F5F5F5F5F5F5F5F5F5F5F5F5F5F5BEF5F5F5F5F5BEF5BEF5BEBEBEBEBEBEBEF5F5F5F5F5F5F5F5BEF5F5F5F5BEBEBEBEBEBEBEBEF5F5F5F5F5BEF5F5F5F5F5BEBEBEF5F5F5F5F5F5F5F5BEF5F5F5F5F5F5F5F5F5F5F5F5F5F5F5F5F5F5F5F5F5F5F5F5E2F5F5F5E2E2F5F5E2F5F5F5E2E2F5F5F5F5F5F5F5F5F5
310
F5F5F5F5F5E2F5F5F5F5F5F5F5F5F5F5F5F5F5F5F5F5F5F5F5F5F5F5F5F5F5F5F5F5F5F5F5F5F5F5F5F5F5F5F5F5F5F5F5F5F5F5F5F5F5F5F5F5F5F5F5F5F5F5F5F5F5F5F5F5F5F5BEF5F5F5F5F5BEF5F5BEF5F5F5BEF5BEF5F5F5F5F5F5F5F5F5BEF5F5F5F5BEF5F5F5F5F5F5F5F5F5F5F5F5BEF5F5F5F5F5F5F5F5F5F5F5
310
F5F5F5F5F5BEF5F5F5F5F5F5F5F5F5F5F5F5F5F5F5F5F5F5F5F5F5F5F5F5E2F5F5F5E2E2F5F5E2F5F5F5E2E2F5F5F5F5F5F5F5F5F5F5F5F5F5F5E2F5F5F5F5F5F5F5F5F5F5F5F5F5F5F5F5F5F5F5F5F5F5F5F5F5F5F5F5F5F5F5F5F5F5F5F5F5F5F5F5F5F5F5F5F5F5F5F5F5F5F5F5F5F5F5F5F5F5F5F5F5F5F5F5F5F5BEF5
310
F5F5F5F5F5F5F5F5F5F5F5F5F5F5F5F5F5F5F5F5F5F5F5BEF5F5F5F5F5F5F5F5F5F5F5F5F5F5F5F5F5BEF5F5F5F5F5F5F5F5F5F5F5F5F5F5F5F5BEF5F5F5F5F5F5F5F5F5F5F5F5F5F5F5F5F5F5F5F5F5F5F5F5E2F5F5F5E2E2F5F5E2F5F5F5E2E2F5F5F5F5F5F5F5F5F5F5F5F5F5F5E2F5F5F5F5F5F5F5F5F5F5F5F5F5F5F5
310
F5F5F5F5F5F5F5F5F5F5F5F5F5F5F5F5F5F5F5F5F5F5F5F5F5F5F5F5F5F5F5F5F5F5F5F5F5F5F5F5F5F5F5F5F5F5F5F5F5F5F5BEBEBEBEBEBEBEBEBEBEBEBEBEBEBEBEBEBEBEBEBEBEBEBEBEBEBEBEBEBEBEBEBEBEBEBEBEBEBEBEBEBEBEBEBEBEBEBEBEBEBEBEBEBEBEBEBEBEBEBEBEF5F5F5F5F5F5F5F5F5F5F5F5F5F5F5
310
F5F5F5F5F5F5F5F5F5E2F5F5F5E2E2F5F5E2F5F5F5E2E2F5F5F5F5F5F5F5F5F5F5F5F5F5F5E2F5F5F5F5F5F5F5F5F5F5F5F5F5F5F5F5F5F5F5F5F5F5F5F5F5F5F5F5F5F5F5F5F5F5F5F5F5F5F5F5F5F5F5F5F5F5F5F5F5F5F5F5F5F5F5F5F5F5F5F5F5F5F5F5F5F5F5F5F5F5F5F5F5F5F5F5F5F5F5F5F5F5F5F5F5F5F5F5F5
310
F5F5F5F5F5F5F5F5F5F5F5F5F5F5F5F5F5F5F5F5F5F5F5F5F5F5F5F5F5F5F5F5F5F5F5F5F5F5F5F5F5F5F5F5F5F5F5F5F5F5F5F5F5F5F5F5F5F5F5F5F5F5E2F5F5F5E2E2F5F5E2F5F5F5E2E2F5F5F5F5F5F5F5F5F5F5F5F5F5F5E2F5F5F5F5F5F5F5F5F5F5F5F5F5F5F5F5F5F5F5F5F5F5F5F5F5F5F5F5F5F5F5F5F5F5F5F5
310
F5F5F5F5F5F5F5F5F5F5F5F5F5F5F5F5F5F5F5F5F5F5F5F5F5F5F5F5F5F5F5F5F5F5F5F5F5F5F5F5F5F5F5F5F5F5F5F5F5F5F5F5F5F5F5F5F5F5F5F5F5F5F5F5F5F5F5F5F5F5F5F5F5F5F5F5F5F5F5F5F5F5F5F5F5F5F5F5F5F5F5F5F5F5F5F5F5F5F5F5F5F5F5F5F5F5F5F5F5F5F5F5F5F5F5E2F5F5F5E2E2F5F5E2F5F5F5
310
E2E2F5F5F5F5F5F5F5F5F5F5F5F5F5F5E2F5F5F5F5F5F5F5F5F5F5F5F5F5F5F5F5F5F5F5F5F5F5F5F5F5F5F5F5F5F5F5F5F5F5F5F5F5F5F5F5F5F5F5F5F5F5F5F5F5F5F5F5F5F5F5F5F5F5F5F5F5F5F5F5F5F5F5F5F5F5F5F5F5F5F5F5F5F5F5F5F5F5F5F5F5F5F5F5F5F5F5F5F5F5F5F5F5F5F5F5F5F5F5F5F5F5F5F5F5F5
310
F5F5F5F5F5F5F5F5F5F5F5F5F5F5F5F5F5F5F5F5F5F5F5F5F5F5F5F5F5F5F5F5F5F5F5F5F5F5F5F5F5E2F5F5F5E2E2F5F5E2F5F5F5E2E2F5F5F5F5F5F5F5F5F5F5F5F5F5F5E2F5F5F5F5F5F5F5F5F5F5F5F5F5F5F5F5F5F5F5F5F5F5F5F5F5F5F5F5F5F5F5F5F5F5F5F5F5F5F5F5F5F5F5F5F5F5F5F5F5F5F5F5F5F5F5F5F5
310
F5F5F5F5F5F5F5F5F5F5F5F5F5F5F5F5F5F5F5F5F5F5F5F5F5F5F5F5F5F5F5F5F5F5F5F5F5F5F5F5F5F5F5F5F5F5F5F5F5F5F5F5F5F5F5F5F5F5F5F5F5F5F5F5F5F5F5F5F5F5F5F5F5F5F5F5F5F5F5F5F5F5F5F5F5F5F5F5F5F5F5F5F5F5E2F5F5F5E2E2F5F5E2F5F5F5F5E2F5F5F5F5F5F5F5F5F5F5F5F5F5F5E2F5F5F5F5
310
F5F5F5F5F5F5F5F5F5F5F5F5F5F5F5F5F5F5F5F5F5F5F5F5F5F5F5F5F5F5F5F5F5F5F5F5F5F5F5F5F5F5F5F5F5F5F5F5F5F5F5F5F5F5F5F5F5F5F5F5F5F5F5F5F5F5F5F5F5F5F5F5F5F5F5F5F5F5F5F5F5F5F5F5F5F5F5F5F5F5F5F5F5F5F5F5F5F5F5F5F5F5F5F5F5F5F5F5F5F5F5F5F5F5F5F5F5F5F5F5F5F5F5F5F5F5F5
310
F5F5F5F5F5F5F5F5F5F5F5F5F5F5F5F5F5F5F5F5E2F5F5F5E2F5F5F5E2F5F5F5F5E2F5F5F5F5F5F5F5F5F5F5F5F5F5F5E2F5F5F5F5F5F5F5F5F5F5F5F5F5F5F5F5F5F5F5F5F5F5F5F5F5F5F5F5F5F5F5F5F5F5F5F5F5F5F5F5F5F5F5F5F5F5F5F5F5F5F5F5F5F5F5F5F5F5F5F5F5F5F5F5F5F5F5F5F5F5F5F5F5F5F5F5F5F5
310
F5F5F5F5F5F5F5F5F5F5F5F5F5F5F5F5F5F5F5F5F5F5F5F5F5F5F5F5F5F5F5F5F5F5F5F5F5F5F5F5F5F5F5F5F5F5F5F5F5F5F5F5F5F5F5F5F5F5F5F5F5F5F5F5F5F5F5F5F5F5F5F5F5E2F5F5F5E2F5F5F5E2F5F5F5F5E2F5F5F5F5F5F5F5F5F5F5F5F5F5F5E2F5F5F5F5F5F5F5F5F5F5F5F5F5F5F5F5F5F5F5F5F5F5F5F5F5
310
F5F5F5F5F5F5F5F5F5F5F5F5F5F5F5F5F5F5F5F5F5F5F5F5F5F5F5F5F5F5F5F5F5F5F5F5F5F5F5F5F5F5F5F5F5F5F5F5F5F5F5F5F5F5F5F5F5F5F5F5F5F5F5F5F5F5F5F5F5F5F5F5F5F5F5F5F5F5F5F5F5F5F5F5F5F5F5F5F5F5F5F5F5F5F5F5F5F5F5F5F5F5F5F5F5F5F5F5F5F5F5F5F5F5F5F5F5F5F5F5F5F5F5F5F5F5E2
310
F5F5F5E2F5F5F5E2F5F5F5F5E2F5F5F5F5F5F5F5F5F5F5F5F5F5F5E2F5F5F5F5F5F5F5F5F5F5F5F5F5F5F5F5F5F5F5F5F5F5F5F5F5F5F5F5F5F5F5F5F5F5F5F5F5F5F5F5F5F5F5F5F5F5F5F5F5F5F5F5F5F5F5F5F5F5F5F5F5F5F5F5F5F5F5F5F5F5F5F5F5F5F5F5F5F5F5F5F5F5F5F5F5F5F5F5F5F5F5F5F5F5F5F5F5F5F5
310
F5F5F5F5F5F5F5F5F5F5F5F5F5F5F5F5F5F5F5F5F5F5F5F5F5F5F5F5F5F5F5F5F5F5F5F5F5F5F5F5F5F5F5F5F5F5F5F5F5F5F5F5E2F5F5F5E2F5F5F5E2F5F5F5F5E2F5F5F5F5F5F5F5F5F5F5F5F5F5F5E2F5F5F5F5F5F5F5F5F5F5F5F5F5F5F5F5F5F5F5F5F5F5F5F5F5F5F5F5F5F5F5F5F5F5F5F5F5F5F5F5F5F5F5F5F5F5
310
F5F5F5F5F5F5F5F5F5F5F5F5F5F5F5F5F5F5F5F5F5F5F5F5F5F5F5F5F5F5F5F5F5F5F5F5F5F5F5F5F5F5F5F5F5F5F5F5F5F5F5F5F5F5F5F5F5F5F5F5F5F5F5F5F5F5F5F5F5F5F5F5F5F5F5F5F5F5F5F5F5F5F5F5F5F5F5F5F5F5F5F5F5F5F5F5F5F5F5F5F5F5F5F5F5E2F5F5F5E2F5F5F5E2F5F5F5F5E2F5F5F5F5F5F5F5F5
310
F5F5F5F5F5F5E2F5F5F5F5F5F5F5F5F5F5F5F5F5F5F5F5F5F5F5F5F5F5F5F5F5F5F5F5F5F5F5F5F5F5F5F5F5F5F5F5F5F5F5F5F5F5F5F5F5F5F5F5F5F5F5F5F5F5F5F5F5F5F5F5F5F5F5F5F5F5F5F5F5F5F5F5F5F5F5F5F5F5F5F5F5F5F5F5F5F5F5F5F5F5F5F5F5F5F5F5F5F5F5F5F5F5F5F5F5F5F5F5F5F5F5F5F5F5F5F5
310
F5F5F5F5F5F5F5F5F5F5F5F5F5F5F5F5F5F5F5F5F5F5F5F5F5F5F5F5F5F5F5E2F5F5F5E2F5F5F5E2F5F5F5F5E2F5F5F5F5F5F5F5F5F5F5F5F5F5F5E2F5F5F5F5F5F5F5F5F5F5F5F5F5F5F5F5F5F5F5F5F5F5F5F5F5F5F5F5F5F5F5F5F5F5F5F5F5F5F5F5F5F5F5F5F5F5F5F5F5F5F5F5F5F5F5F5F5F5F5F5F5F5F5F5F5F5F5
310
F5F5F5F5F5F5F5F5F5F5F5F5F5F5F5F5F5F5F5F5F5F5F5F5F5F5F5F5F5F5F5F5F5F5F5F5F5F5F5F5F5F5F5F5F5F5F5F5F5F5F5F5F5F5F5F5F5F5F5F5F5F5F5F5F5F5F5F5F5F5F5F5F5F5F5F5F5F5F5F5F5F5F5F5E2F5F5F5E2F5F5F5E2F5F5F5F5E2F5F5F5F5F5F5F5F5F5F5F5F5F5F5E2F5F5F5F5F5F5F5F5F5F5F5F5F5F5
310
F5F5F5F5F5F5F5F5F5F5F5F5F5F5F5F5F5F5F5F5F5F5F5F5F5F5F5F5F5F5F5F5F5F5F5F5F5F5F5F5F5F5F5F5F5F5F5F5F5F5F5F5F5F5F5F5F5F5F5F5F5F5F5F5F5F5F5F5F5F5F5F5F5F5F5F5F5F5F5F5F5F5F5F5F5F5F5F5F5F5F5F5F5F5F5F5F5F5F5F5F5F5F5F5F5F5F5F5F5F5F5F5F5F5F5F5F5F5F5F5F5F5F5F5F5F5F5
310
F5F5F5F5F5F5F5F5F5F5E2F5F5F5E2F5F5F5E2F5F5F5F5E2F5F5F5F5F5F5F5F5F5F5F5F5F5F5E2F5F5F5F5F5F5F5F5F5F5F5F5F5F5F5F5F5F5F5F5F5F5F5F5F5F5F5F5F5F5F5F5F5F5F5F5F5F5F5F5F5F5F5F5F5F5F5F5F5F5F5F5F5F5F5F5F5F5F5F5F5F5F5F5F5F5F5F5F5F5F5F5F5F5F5F5F5F5F5F5F5F5F5F5F5F5F5F5
310
F5F5F5F5F5F5F5F5F5F5F5F5F5F5F5F5F5F5F5F5F5F5F5F5F5F5F5F5F5F5F5F5F5F5F5F5F5F5F5F5F5F5F5F5F5F5F5F5F5F5F5F5F5F5F5F5F5F5F5F5F5F5F5E2F5F5F5E2F5F5F5E2F5F5F5E2E2F5F5F5F5F5F5F5F5F5F5F5F5F5F5E2F5F5F5F5F5F5F5F5F5F5F5F5F5F5F5F5F5F5F5F5F5F5F5F5F5F5F5F5F5F5F5F5F5F5F5
310
F5F5F5F5F5F5F5F5F5F5F5F5F5F5F5F5F5F5F5F5F5F5F5F5F5F5F5F5F5F5F5F5F5F5F5F5F5F5F5F5F5F5F5F5F5F5F5F5F5F5F5F5F5F5F5F5F5F5F5F5F5F5F5F5F5F5F5F5F5F5F5F5F5F5F5F5F5F5F5F5F5F5F5F5F5F5F5F5F5F5F5F5F5F5F5F5F5F5F5F5F5F5F5F5F5F5F5F5F5F5F5F5F5F5F5F5E2F5F5F5E2E2F5F5E2F5F5
310
F5E2E2F5F5F5F5F5F5F5F5F5F5F5F5F5F5E2F5F5F5F5F5F5F5F5F5F5F5F5F5F5F5F5F5F5F5F5F5F5F5F5F5F5F5F5F5F5F5F5F5F5F5F5F5F5F5F5F5F5F5F5F5F5F5F5F5F5F5F5F5F5F5F5F5F5F5F5F5F5F5F5F5F5F5F5F5F5F5F5F5F5F5F5F5F5F5F5F5F5F5F5F5F5F5F5F5F5F5F5F5F5F5F5F5F5F5F5F5F5F5F5F5F5F5F5F5
310
F5F5F5F5F5F5F5F5F5F5F5F5F5F5F5F5F5F5F5F5F5F5F5F5F5F5F5F5F5F5F5F5F5F5F5F5F5F5F5F5F5F5E2F5F5F5E2E2F5F5E2F5F5F5E2E2F5F5F5F5F5F5F5F5F5F5F5F5F5F5E2F5F5F5F5F5F5F5F5F5F5F5F5F5F5F5F5F5F5F5F5F5F5F5F5F5F5F5F5F5F5F5F5F5F5F5F5F5F5F5F5F5F5F5F5F5F5F5F5F5F5F5F5F5F5F5F5
310
F5F5F5F5F5F5F5F5F5F5F5F5F5F5F5F5F5F5F5F5F5F5F5F5F5F5F5F5F5F5F5F5F5F5F5F5F5F5F5F5F5F5F5F5F5F5F5F5F5F5F5F5F5F5F5F5F5F5F5F5F5F5F5F5F5F5F5F5F5F5F5F5F5F5F5F5F5F5F5F5F5F5F5F5F5F5F5F5F5F5F5F5F5F5F5E2F5F5F5E2E2F5F5E2F5F5F5E2E2F5F5F5F5F5F5F5F5F5F5F5F5F5F5E2F5F5F5
310
F5F5F5F5F5F5F5F5F5F5F5F5F5F5F5F5F5F5F5F5F5F5F5F5F5F5F5F5F5F5F5F5F5F5F5F5F5F5F5F5F5F5F5F5F5F5F5F5F5F5F5F5F5F5F5F5F5F5F5F5F5F5F5F5F5F5F5F5F5F5F5F5F5F5F5F5F5F5F5F5F5F5F5F5F5F5F5F5F5F5F5F5F5F5F5F5F5F5F5F5F5F5F5F5F5F5F5F5F5F5F5F5F5F5F5F5F5F5F5F5F5F5F5F5F5F5F5
310
F5F5F5F5F5F5F5F5F5F5F5F5F5F5F5F5F5F5F5F5F5E2F5F5F5E2E2F5F5E2F5F5F5E2E2F5F5F5F5F5F5F5F5F5F5F5F5F5F5E2F5F5F5F5F5F5F5F5F5F5F5F5F5F5F5F5F5F5F5F5F5F5F5F5F5F5F5F5F5F5F5F5F5F5F5F5F5F5F5F5F5F5F5F5F5F5F5F5F5F5F5F5F5F5F5F5F5F5F5F5F5F5F5F5F5F5F5F5F5F5F5F5F5F5F5F5F5
310
F5F5F5F5F5F5F5F5F5F5F5F5F5F5F5F5F5F5F5F5F5F5F5F5F5F5F5F5F5F5F5F5F5F5F5F5F5F5F5F5F5F5F5F5F5F5F5F5F5F5F5F5F5F5F5F5F5F5F5F5F5F5F5F5F5F5F5F5F5F5F5F5F5F5E2F5F5F5E2E2F5F5E2F5F5F5E2E2F5F5F5F5F5F5F5F5F5F5F5F5F5F5E2F5F5F5F5F5F5F5F5F5F5F5F5F5F5F5F5F5F5F5F5F5F5F5F5
310
F5F5F5F5F5F5F5F5F5F5F5F5F5F5F5F5F5F5F5F5F5F5F5F5F5F5F5F5F5F5F5F5F5F5F5F5F5F5F5F5F5F5F5F5F5F5F5F5F5F5F5F5F5F5F5F5F5F5F5F5F5F5F5F5F5F5F5F5F5F5F5F5F5F5F5F5F5F5F5F5F5F5F5F5F5F5F5F5F5F5F5F5F5F5F5F5F5F5F5F5F5F5F5F5F5F5F5F5F5F5F5F5F5F5F5F5F5F5F5F5F5F5F5F5F5F5F5
310
E2F5F5F5E2E2F5F5E2F5F5F5E2E2F5F5F5F5F5F5F5F5F5F5F5F5F5F5E2F5F5F5F5F5F5F5F5F5F5F5F5F5F5F5F5F5F5F5F5F5F5F5F5F5F5F5F5F5F5F5F5F5F5F5F5F5F5F5F5F5F5F5F5F5F5F5F5F5F5F5F5F5F5F5F5F5F5F5F5F5F5F5F5F5F5F5F5F5F5F5F5F5F5F5F5F5F5F5F5F5F5F5F5F5F5F5F5F5F5F5F5F5F5F5F5F5F5
310
F5F5F5F5F5F5F5F5F5F5F5F5F5F5F5F5F5F5F5F5F5F5F5F5F5F5F5F5F5F5F5F5F5F5F5F5F5F5F5F5F5F5F5F5F5F5F5F5F5F5F5F5F5E2F5F5F5E2E2F5F5E2F5F5F5E2E2F5F5F5F5F5F5F5F5F5F5F5F5F5F5E2F5F5F5F5F5F5F5F5F5F5F5F5F5F5F5F5F5F5F5F5F5F5F5F5F5F5F5F5F5F5F5F5F5F5F5F5F5F5F5F5F5F5F5F5F5
310
F5F5F5F5F5F5F5F5F5F5F5F5F5F5F5F5F5F5F5F5F5F5F5F5F5F5F5F5F5F5F5F5F5F5F5F5F5F5F5F5F5F5F5F5F5F5F5F5F5F5F5F5F5F5F5F5F5F5F5F5F5F5F5F5F5F5F5F5F5F5F5F5F5F5F5F5F5F5F5F5F5F5F5F5F5F5F5F5F5F5F5F5F5F5F5F5F5F5F5F5F5F5F5F5F5F5E2F5F5F5E2E2F5F5E2F5F5F5E2E2F5F5F5F5F5F5F5
310
F5F5F5F5F5F5F5E2F5F5F5F5F5F5F5F5F5F5F5F5F5F5F5F5F5F5F5F5F5F5F5F5F5F5F5F5F5F5F5F5F5F5F5F5F5F5F5F5F5F5F5F5F5F5F5F5F5F5F5F5F5F5F5F5F5F5F5F5F5F5F5F5F5F5F5F5F5F5F5F5F5F5F5F5F5F5F5F5F5F5F5F5F5F5F5F5F5F5F5F5F5F5F5F5F5F5F5F5F5F5F5F5F5F5F5F5F5F5F5F5F5F5F5F5F5F5F5
310
F5F5F5F5F5F5F5F5F5F5F5F5F5F5F5F5F5F5F5F5F5F5F5F5F5F5F5F5F5F5F5F5E2F5F5F5E2E2F5F5E2F5F5F5E2E2F5F5F5F5F5F5F5F5F5F5F5F5F5F5E2F5F5F5F5F5F5F5F5F5F5F5F5F5F5F5F5F5F5F5F5F5F5F5F5F5F5F5F5F5F5F5F5F5F5F5F5F5F5F5F5F5F5F5F5F5F5F5F5F5F5F5F5F5F5F5F5F5F5F5F5F5F5F5F5F5F5
310
F5F5F5F5F5F5F5F5F5F5F5F5F5F5F5F5F5F5F5F5F5F5F5F5F5F5F5F5F5F5F5F5F5F5F5F5F5F5F5F5F5F5F5F5F5F5F5F5F5F5F5F5F5F5F5F5F5F5F5F5F5F5F5F5F5F5F5F5F5F5F5F5F5F5F5F5F5F5F5F5F5F5F5F5F5E2F5F5F5E2E2F5F5E2F5F5F5E2E2F5F5F5F5F5F5F5F5F5F5F5F5F5F5E2F5F5F5F5F5F5F5F5F5F5F5F5F5
310
F5F5F5F5F5F5F5F5F5F5F5F5F5F5F5F5F5F5F5F5F5F5F5F5F5F5F5F5F5F5F5F5F5F5F5F5F5F5F5F5F5F5F5F5F5F5F5F5F5F5F5F5F5F5F5F5F5F5F5F5F5F5F5F5F5F5F5F5F5F5F5F5F5F5F5F5F5F5F5F5F5F5F5F5F5F5F5F5F5F5F5F5F5F5F5F5F5F5F5F5F5F5F5F5F5F5F5F5F5F5F5F5F5F5F5F5F5F5F5F5F5F5F5F5F5F5F5
310
F5F5F5F5F5F5F5F5F5F5F5E2F5F5F5E2E2F5F5E2F5F5F5E2E2F5F5F5F5F5F5F5F5F5F5F5F5F5F5E2F5F5F5F5F5F5F5F5F5F5F5F5F5F5F5F5F5F5F5F5F5F5F5F5F5F5F5F5F5F5F5F5F5F5F5F5F5F5F5F5F5F5F5F5F5F5F5F5F5F5F5F5F5F5F5F5F5F5F5BEBEF5F5F5F5F5F5F5F5F5F5F5F5F5F5F5F5F5F5F5F5F5F5F5E2E2E2
310
E2F5F5F5F5F5F5F5F5F5F5F5F5F5F5F5F5F5F5F5F5F5F5F5F5BEF5BEF5F5F5F5F5F5F5F5F5F5F5F5F5F5F5F5F5F5F5F5F5F5F5F5F5F5F5F5F5F5F5F5F5F5F5F5E2F5F5F5E2E2F5F5E2F5F5F5E2E2F5F5F5F5F5F5F5F5F5F5F5F5F5F5E2F5F5F5F5F5F5F5F5F5F5F5F5F5F5F5F5F5F5F5F5F5F5F5F5F5F5F5F5F5F5F5F5F5F5
310
F5F5F5F5F5F5F5F5F5F5F5F5F5F5F5F5F5F5F5F5F5F5F5F5F5BEBEBEBEBEBEBEBEBEBEBEBEBEBEBEBEBEBEBEBEBEBEBEBEBEE2E2E2E2BEBEBEBEBEBEBEBEBEBEBEBEBEBEBEBEBEBEBEBEBEBEBEBEBEBEBEF5F5F5F5F5F5F5F5F5F5F5F5F5F5F5F5F5F5F5F5F5F5F5F5F5F5F5F5F5F5F5F5F5F5F5F5E2F5F5F5E2E2F5F5E2F5
310
F5F5E2E2F5F5F5F5F5F5F5F5F5F5F5F5F5F5E2F5F5F5F5F5F5F5F5F5F5F5F5F5F5F5F5F5F5F5F5F5F5F5F5F5F5F5F5F5F5F5F5F5F5F5F5F5F5F5F5F5F5F5F5F5F5F5F5F5F5F5F5F5F5F5F5F5F5F5BEF5F5F5F5F5F5F5F5F5F5F5F5F5F5F5F5F5F5F5F5F5F5F5F5E2E2E2E2F5F5F5F5F5F5F5F5F5F5F5F5F5F5F5F5F5F5F5F5
310
F5F5F5F5F5F5BEF5F5F5F5F5F5F5F5F5F5F5F5F5F5F5F5F5F5F5F5F5F5F5F5F5F5F5F5F5F5F5F5F5F5F5F5E2F5F5F5E2E2F5F5E2F5F5F5E2E2F5F5F5F5F5F5F5F5F5F5F5F5F5F5E2F5F5F5F5F5F5F5F5F5F5F5F5F5F5F5F5F5F5F5F5F5F5F5F5F5F5F5F5F5F5F5F5F5F5F5F5F5F5F5F5F5F5F5F5F5F5F5F5F5F5F5F5F5F5F5
310
F5F5F5F5BEF5F5F5F5F5F5F5F5F5F5F5F5F5F5F5F5F5F5F5F5F5F5F5F5E2E2E2E2F5F5F5F5F5F5F5F5F5F5F5F5F5F5F5F5F5F5F5F5F5F5F5F5F5F5BEF5F5F5F5F5F5F5F5F5F5F5F5F5F5F5F5F5F5F5F5F5F5F5F5F5F5F5F5F5F5F5F5F5F5F5F5E2F5F5F5E2E2F5F5E2F5F5F5F5E2F5F5F5F5F5F5F5F5F5F5F5F5F5F5E2F5F5
310
F5F5F5F5F5F5F5F5F5F5F5F5F5F5F5F5F5F5F5F5F5F5F5F5F5F5F5F5F5F5F5F5F5F5F5F5F5F5F5F5F5F5F5F5F5F5F5F5F5F5F5F5F5F5F5F5F5BEF5F5F5F5F5F5F5BEF5F5F5F5F5F5F5F5F5F5F5F5F5F5F5F5E2E2E2E2F5F5F5F5F5F5F5F5F5F5F5F5F5F5F5F5F5F5BEF5F5F5F5F5F5F5BEF5F5F5F5F5F5F5F5F5F5F5F5F5F5
310
F5F5F5F5F5F5F5F5F5F5F5F5F5F5F5F5F5F5F5F5F5F5E2F5F5F5E2F5F5F5E2F5F5F5F5E2F5F5F5F5F5F5F5F5F5F5F5F5F5F5E2F5F5F5F5F5F5F5F5F5F5F5F5F5F5F5F5F5F5F5F5F5F5F5F5F5F5F5F5F5F5F5F5F5F5F5F5F5F5F5F5F5F5F5F5F5F5F5F5F5F5F5F5F5F5F5F5F5F5F5BEF5F5F5F5F5F5F5BEBEBEBEBEBEBEBEBE
310
BEBEBEBEBEBEBEBEBEE2E2E2BEBEBEBEBEBEBEBEBEBEBEBEBEBEBEBEBEBEBEF5F5F5F5F5F5F5BEF5F5F5F5F5F5F5F5F5F5F5F5F5F5F5F5F5F5F5F5F5F5F5F5F5F5F5F5F5F5F5F5F5F5F5F5E2F5F5F5E2F5F5F5E2F5F5F5F5E2F5F5F5F5F5F5F5F5F5F5F5F5F5F5E2F5F5F5F5F5F5F5F5F5F5F5F5F5F5F5F5F5F5F5F5F5F5F5
310
F5F5F5F5F5F5F5F5F5F5F5F5F5F5F5F5F5F5F5F5F5F5F5F5F5F5F5F5F5F5F5F5F5F5F5F5BEF5F5F5F5F5F5F5BEF5F5F5F5F5F5F5F5F5F5F5F5F5F5F5F5F5E2E2E2F5F5F5F5F5F5F5F5F5F5F5F5F5F5F5F5F5F5BEF5F5F5F5F5F5F5BEF5F5F5F5F5F5F5F5F5F5F5F5F5F5F5F5F5F5F5F5F5F5F5F5F5F5F5F5F5F5F5F5F5F5F5
310
F5E2F5F5F5E2F5F5F5E2F5F5F5F5E2F5F5F5F5F5F5F5F5F5F5F5F5F5F5E2F5F5F5F5F5F5F5F5F5F5F5F5F5F5F5F5F5F5F5F5F5F5F5F5F5F5F5F5F5F5F5F5F5F5F5F5F5F5F5F5F5F5F5F5F5F5F5F5F5F5F5F5F5F5F5F5F5F5F5BEF5F5F5F5F5F5F5BEF5F5F5F5F5F5F5F5F5F5F5F5F5F5F5F5F5E2E2E2F5F5F5F5F5F5F5F5F5
310
F5F5F5F5F5F5F5F5F5BEF5F5F5F5F5F5F5BEF5BEF5F5F5F5F5F5F5F5F5F5F5F5F5F5F5F5F5F5F5F5F5F5F5F5F5F5F5F5F5F5F5F5F5F5E2F5F5F5E2F5F5F5E2F5F5F5F5E2F5F5F5F5F5F5F5F5F5F5F5F5F5F5E2F5F5F5F5F5F5F5F5F5F5F5F5F5F5F5F5F5F5F5F5F5F5F5F5F5F5F5F5F5F5F5F5F5F5F5F5F5F5F5F5F5F5F5F5
310
F5F5F5F5F5F5F5F5F5F5F5F5F5F5F5BEF5F5F5F5F5F5F5BEF5F5F5F5F5F5F5F5F5F5F5F5F5F5F5F5F5F5F5F5F5F5F5F5F5F5F5F5F5F5F5F5F5F5F5F5F5F5BEF5F5F5F5BEBEBEBEF5BEBEBEE2E2E2BEBEF5F5F5F5F5F5F5F5F5F5F5F5F5F5F5F5F5F5F5F5F5F5F5F5F5F5F5E2F5F5F5E2F5F5F5E2F5F5F5F5E2F5F5F5F5F5F5
310
F5F5F5F5F5F5F5F5E2F5F5F5F5F5F5F5F5F5F5F5F5F5F5F5F5F5F5F5F5F5F5F5F5F5F5F5F5F5F5F5F5F5F5F5F5F5F5F5F5F5F5F5F5F5F5F5F5F5F5F5F5F5F5F5F5F5F5F5BEF5F5F5F5F5F5F5BEF5F5F5F5F5F5F5F5F5F5F5F5F5F5F5F5F5F5F5F5F5F5F5F5F5F5F5F5F5F5F5F5F5F5F5F5F5F5BEF5F5F5F5F5F5F5BEF5BEF5
310
F5E2E2E2F5F5F5F5F5F5F5F5F5F5F5F5F5F5F5F5F5F5F5F5F5F5F5F5F5F5F5F5F5E2F5F5F5E2F5F5F5E2F5F5F5F5E2F5F5F5F5F5F5F5F5F5F5F5F5F5F5E2F5F5F5F5F5F5F5F5F5F5F5F5F5F5F5F5F5F5F5F5F5F5F5F5F5F5F5F5F5F5F5F5F5F5F5F5F5F5F5F5F5F5F5F5F5F5F5F5F5F5F5F5F5F5F5F5F5F5F5BEF5F5F5F5F5
310
F5F5BEF5F5F5F5F5F5F5F5F5F5F5F5F5F5F5F5F5F5F5F5F5F5F5F5F5F5F5F5F5F5F5F5F5F5F5F5F5F5BEF5F5F5F5F5F5F5BEF5BEF5F5E2E2E2F5F5F5F5F5F5F5F5F5F5F5F5F5F5F5F5F5F5F5F5F5F5F5F5F5F5F5F5F5E2F5F5F5E2F5F5F5E2F5F5F5F5E2F5F5F5F5F5F5F5F5F5F5F5F5F5F5E2F5F5F5F5F5F5F5F5F5F5F5F5
310
F5F5F5F5F5F5F5F5F5F5F5F5F5F5F5F5F5F5F5F5F5F5F5F5F5F5F5F5F5F5F5F5F5F5F5F5F5F5F5F5F5F5F5F5F5F5F5BEF5F5F5F5F5F5F5E2E2E2E2E2E2E2E2E2E2E2E2E2E2E2E2E2E2E2E2E2E2E2E2E2E2E2E2E2E2E2E2E2E2E2E2E2E2E2E2F5F5F5F5F5F5F5BEF5BEF5F5E2E2E2F5F5F5F5F5F5F5F5F5F5F5F5F5F5F5F5F5
310
F5F5F5F5F5F5F5F5F5F5F5F5E2F5F5F5E2F5F5F5E2F5F5F5F5E2F5F5F5F5F5F5F5F5F5F5F5F5F5F5E2F5F5F5F5F5F5F5F5F5F5F5F5F5F5F5F5F5F5F5F5F5F5F5F5F5F5F5F5F5F5F5F5F5F5F5F5F5F5F5F5F5F5F5F5F5F5F5F5F5F5F5F5F5F5F5F5F5F5F5BEF5F5F5F5F5F5F5E2F5F5F5F5F5F5F5F5F5F5F5F5F5F5F5F5F5F5
310
F5F5F5F5F5F5F5F5F5F5F5F5F5F5F5F5F5F5F5F5E2F5F5F5F5F5F5F5BEF5BEF5F5F5F5F5F5F5F5F5F5F5F5F5F5F5F5F5F5F5F5F5F5F5F5F5F5F5F5F5F5F5F5F5F5E2F5F5F5E2F5F5F5E2F5F5F5E2E2F5F5F5F5F5F5F5F5F5F5F5F5F5F5E2F5F5F5F5F5F5F5F5F5F5F5F5F5F5F5F5F5F5F5F5F5F5F5F5F5F5F5F5F5F5F5F5F5
310
F5F5F5F5F5F5F5F5F5F5F5F5F5F5BEBEBEBEBEBEBEBEBEBEBEBEE2E2E2E2E2E2E2E2E2F5F5F5F5F5F5F5F5F5F5F5F5F5F5F5F5F5F5F5F5F5F5F5F5F5F5F5F5F5F5F5F5F5F5F5F5F5F5E2E2E2E2E2E2E2E2E2BEBEBEBEBEBEBEBEBEBEF5F5F5F5F5F5F5F5F5F5F5F5F5F5F5F5F5F5F5F5F5F5F5F5F5F5E2F5F5F5E2E2F5F5E2
310
F5F5F5E2E2F5F5F5F5F5F5F5F5F5F5F5F5F5F5E2F5F5F5F5F5F5F5F5F5F5F5F5F5F5F5F5F5F5F5F5F5F5F5F5F5F5F5F5F5F5F5F5F5F5F5F5F5F5F5F5F5F5F5F5F5F5F5BEBEF5F5BEF5F5F5F5F5F5F5E2E2E2E2E2E2E2E2E2F5F5F5F5F5F5F5F5F5F5F5F5F5F5F5F5F5F5F5F5F5F5F5F5F5F5F5F5F5F5F5F5F5F5F5F5F5F5E2
310
E2E2E2E2E2E2E2E2F5BEF5F5E2E2E2E2BEBEF5F5F5F5F5F5F5F5F5F5F5F5F5F5F5F5F5F5F5F5F5F5F5F5F5F5E2F5F5F5E2E2F5F5E2F5F5F5E2E2F5F5F5F5F5F5F5F5F5F5F5F5F5F5E2F5F5F5F5F5F5F5F5F5F5F5F5F5F5F5F5F5F5F5F5F5F5F5F5F5F5F5F5F5F5F5F5F5F5F5F5F5F5F5F5F5F5F5F5F5F5F5E2E2E2E2BEF5F5
310
F5F5F5F5F5E2E2E2E2E2E2E2F5E2F5F5F5F5F5F5F5F5F5F5F5F5F5F5F5F5F5F5F5F5F5F5F5F5F5F5F5F5F5F5F5F5F5F5F5F5F5F5E2F5E2E2E2E2E2E2E2F5BEF5F5E2E2E2E2E2BEF5F5F5F5F5F5F5F5F5F5F5F5F5F5F5F5F5F5F5F5F5F5F5F5F5F5E2F5F5F5E2E2F5F5E2F5F5F5E2E2F5F5F5F5F5F5F5F5F5F5F5F5F5F5E2F5
310
F5F5F5F5F5F5F5F5F5F5F5F5F5F5F5F5F5F5F5F5F5F5F5F5F5F5F5F5F5F5F5F5F5F5F5F5F5F5F5F5F5F5F5F5F5F5E2E2E2E2BEF5F5F5F5F5F5F5E2E2E2F5E2E2E2F5E2F5F5F5F5F5F5F5F5F5F5F5F5F5F5F5F5F5F5F5F5F5F5F5F5F5F5F5F5F5F5F5F5F5F5F5F5F5F5E2F5E2E2F5E2E2E2E2F5BEF5F5E2E2E2E2E2BEF5F5F5
310
F5F5F5F5F5F5F5F5F5F5F5F5F5F5F5F5F5F5F5F5F5F5F5E2F5F5F5E2E2F5F5E2F5F5F5E2E2F5F5F5F5F5F5F5F5F5F5F5F5F5F5E2F5F5F5F5F5F5F5F5F5F5F5F5F5F5F5F5F5F5F5F5F5F5F5F5F5F5F5F5F5F5F5F5F5F5F5F5F5F5F5F5F5F5F5F5F5F5F5E2E2E2E2BEF5F5F5F5F5F5F5E2E2E2E2E2E2E2F5E2E2E2E2E2E2E2E2
310
E2E2E2E2E2E2E2E2E2E2E2E2E2E2E2E2E2E2E2E2E2E2E2E2E2E2E2E2E2E2E2E2F5E2E2E2E2E2E2E2F5BEF5F5E2E2E2E2E2BEF5F5F5F5F5F5F5F5F5F5F5F5F5F5F5F5F5F5F5F5F5F5F5F5F5F5E2F5F5F5E2E2F5F5E2F5F5F5E2E2F5F5F5F5F5F5F5F5F5F5F5F5F5F5E2F5F5F5F5F5F5F5F5F5F5F5F5F5F5F5F5F5F5F5F5F5F5
310
F5F5F5F5F5F5F5F5F5F5F5F5F5F5F5F5F5F5F5F5F5F5F5F5F5F5BEF5F5BEF5F5F5F5F5F5F5E2E2E2E2E2E2F5F5E2E2E2E2E2E2E2E2E2E2E2E2E2E2E2E2E2E2E2E2E2E2E2E2E2E2E2E2E2E2E2E2E2E2E2E2E2E2E2E2F5E2E2E2E2E2E2E2F5BEF5F5E2E2E2E2E2BEF5F5F5F5F5F5F5F5F5F5F5F5F5F5F5F5F5F5F5F5F5F5F5F5
310
F5F5E2F5F5F5E2E2F5F5E2F5F5F5E2E2F5F5F5F5F5F5F5F5F5F5F5F5F5F5E2F5F5F5F5F5F5F5F5F5F5F5F5F5F5F5F5F5F5F5F5F5F5F5F5F5F5F5F5F5F5F5F5F5F5F5F5F5F5F5F5F5F5F5F5F5F5F5F5BEF5F5BEF5F5F5F5F5F5F5E2F5E2E2E2F5F5F5E2E2E2E2E2E2E2E2E2E2E2E2E2E2E2E2E2E2E2E2E2E2E2E2E2E2E2E2E2
310
E2E2E2E2E2E2E2E2E2E2E2F5F5E2E2E2F5E2E2F5BEF5F5F5F5F5F5BEBEF5F5F5F5F5F5F5F5F5F5F5F5F5F5F5F5F5F5F5F5F5F5F5F5F5F5E2F5F5F5E2E2F5F5E2F5F5F5E2E2F5F5F5F5F5F5F5F5F5F5F5F5F5F5E2F5F5F5F5F5F5F5F5F5F5F5F5F5F5F5F5F5F5F5F5F5F5F5F5F5F5F5F5F5F5F5F5F5F5F5F5F5F5F5F5F5F5F5
310
F5F5F5F5F5BEF5F5BEF5F5F5F5F5F5F5E2F5F5F5F5F5F5F5E2F5F5F5F5F5F5F5F5F5F5F5F5F5F5F5F5F5F5F5F5F5F5F5F5F5F5F5F5F5F5F5F5F5F5F5F5F5F5E2F5F5F5F5F5BEBEBEBEBEBEBEBEBEBEBEBEBEF5F5F5F5F5F5F5F5F5F5F5F5F5F5F5F5F5F5F5F5F5F5F5F5F5F5E2F5F5F5E2E2F5F5E2F5F5F5E2E2F5F5F5F5F5
310
F5F5F5F5F5F5F5F5F5E2F5F5F5F5F5F5F5F5F5F5F5F5F5F5F5F5F5F5F5F5F5F5F5F5F5F5F5F5F5F5F5F5F5F5F5F5F5F5F5F5F5F5F5F5F5F5F5F5BEF5BEBEBEBEBEBEBEBEBEE2E2E2E2E2E2E2F5E2F5F5F5F5F5F5F5F5F5F5F5F5F5F5F5F5F5F5F5F5F5F5F5F5F5F5F5F5F5F5F5F5F5F5F5F5F5F5E2F5F5F5F5F5BEBEBEBEBE
310
F5F5F5F5F5F5F5F5F5F5F5F5F5F5F5F5F5F5F5F5F5F5F5F5F5F5F5F5F5F5F5F5F5F5E2F5F5F5E2E2F5F5E2F5F5F5E2E2F5F5F5F5F5F5F5F5F5F5F5F5F5F5E2F5F5F5F5F5F5F5F5F5F5F5F5F5F5F5F5F5F5F5F5F5F5F5F5F5F5F5F5F5F5F5F5F5F5F5F5F5F5F5F5F5F5F5F5E2E2E2E2BEF5F5F5F5F5F5F5F5F5F5F5F5F5F5F5
310
F5E2F5E2F5F5F5F5F5F5F5F5F5F5F5F5F5F5F5F5F5F5F5F5F5F5F5F5F5F5F5F5F5F5F5F5F5F5F5F5F5F5E2F5F5F5F5F5BEBEBEBEBEF5F5F5F5F5F5F5F5F5F5F5F5F5F5F5F5F5F5F5F5F5F5F5F5F5F5F5F5F5F5F5F5F5F5E2F5F5F5E2E2F5F5E2F5F5F5E2E2F5F5F5F5F5F5F5F5F5F5F5F5F5F5E2F5F5F5F5F5F5F5F5F5F5F5
310
F5F5F5F5F5F5F5F5F5F5F5F5F5F5F5F5F5F5F5F5F5F5F5F5F5F5F5F5F5F5F5F5F5E2E2E2E2BEF5F5F5F5F5F5F5F5F5F5F5F5F5F5F5F5E2F5E2E2E2E2E2E2E2E2E2E2E2E2E2E2E2E2E2E2E2E2E2E2E2E2E2E2E2E2E2E2E2E2E2E2E2E2E2E2E2E2F5F5F5F5F5BEBEBEBEBEF5F5F5F5F5F5F5F5F5F5F5F5F5F5F5F5F5F5F5F5F5
310
F5F5F5F5F5F5F5F5F5F5F5F5F5E2F5F5F5E2E2F5F5E2F5F5F5E2E2F5F5F5F5F5F5F5F5F5F5F5F5F5F5E2F5F5F5F5F5F5F5F5F5F5F5F5F5F5F5F5F5F5F5F5F5F5F5F5F5F5F5F5F5F5F5F5F5F5F5F5F5F5F5F5F5F5F5F5E2E2E2E2BEF5F5F5F5F5F5F5F5F5F5F5F5F5F5F5F5E2F5E2E2E2E2E2E2E2E2E2E2E2E2E2E2E2E2E2E2
310
E2E2E2E2E2E2E2E2E2E2E2E2E2E2E2E2E2E2E2E2E2E2F5F5F5F5F5BEBEBEBEBEF5F5F5F5F5F5F5F5F5F5F5F5F5F5F5F5F5F5F5F5F5F5F5F5F5F5F5F5F5F5F5F5F5F5E2F5F5F5E2E2F5F5E2F5F5F5E2E2F5F5F5F5F5F5F5F5F5F5F5F5F5F5E2F5F5F5F5F5F5F5F5F5F5F5F5F5F5F5F5F5F5F5F5F5F5F5F5F5F5F5F5F5F5F5F5
310
F5F5F5F5F5F5F5F5F5F5F5F5E2E2E2E2BEF5F5F5F5F5F5F5F5F5F5F5F5F5F5F5F5E2F5F5F5F5F5F5F5F5F5F5F5F5F5F5F5F5F5F5F5F5F5F5F5F5F5F5F5F5F5F5F5F5F5F5F5F5F5F5F5F5F5F5F5F5F5F5BEBEBEBEBEF5F5F5F5F5F5F5F5F5F5F5F5F5F5F5F5F5F5F5F5F5F5F5F5F5F5F5F5F5F5F5F5F5F5E2F5F5F5E2E2F5F5
310
E2F5F5F5E2E2F5F5F5F5F5F5F5F5F5F5F5F5F5F5E2F5F5F5F5F5F5F5F5F5F5F5F5F5F5F5F5F5F5F5F5F5F5F5F5F5F5F5F5F5F5F5F5F5F5F5F5F5F5F5F5F5F5F5F5E2E2E2E2BEF5F5F5F5F5F5F5F5F5F5F5F5F5F5F5F5E2F5F5F5F5F5F5F5F5F5F5F5F5F5F5F5F5F5F5F5F5F5F5F5F5F5F5F5F5F5F5F5F5F5F5F5F5F5F5F5F5
310
F5F5F5F5F5F5BEBEBEBEBEF5F5F5F5F5F5F5F5F5F5F5F5F5F5F5F5F5F5F5F5F5F5F5F5F5F5F5F5F5F5F5F5F5F5E2F5F5F5E2E2F5F5E2F5F5F5E2E2F5F5F5F5F5F5F5F5F5F5F5F5F5F5E2F5F5F5F5F5F5F5F5F5F5F5F5F5F5F5F5F5F5F5F5F5F5F5F5F5F5F5F5F5F5F5F5F5F5F5F5F5F5F5F5F5F5F5F5F5F5F5F5BEF5F5F5F5
310
F5F5F5F5F5F5F5F5F5F5F5F5E2F5F5F5F5F5F5F5F5F5F5F5F5F5F5F5F5F5F5F5F5F5F5F5F5F5F5F5F5F5F5F5F5F5F5F5F5F5F5F5F5F5F5F5F5F5F5BEBEBEBEBEF5F5F5F5F5F5F5F5F5F5F5F5F5F5F5F5F5F5F5F5F5F5F5F5F5F5F5F5F5F5F5F5F5F5E2F5F5F5E2E2F5F5E2F5F5F5E2E2F5F5F5F5F5F5F5F5F5F5F5F5F5F5E2
310
F5F5F5F5F5F5F5F5F5F5F5F5F5F5F5F5F5F5F5F5F5F5F5F5F5F5F5F5F5F5F5F5F5F5F5F5F5F5F5F5F5F5F5F5F5F5F5F5BEF5F5F5F5F5F5F5F5F5F5F5F5F5F5F5F5E2F5F5F5F5F5F5F5F5F5F5F5F5F5F5F5F5F5F5F5F5F5F5F5F5F5F5F5F5F5F5F5F5F5F5F5F5F5F5F5F5F5F5F5F5F5F5BEBEBEBEBEF5F5F5F5F5F5F5F5F5F5
310
F5F5F5F5F5F5F5F5F5F5F5F5F5F5F5F5F5F5F5F5F5F5F5F5E2F5F5F5E2E2F5F5E2F5F5F5F5E2F5F5F5F5F5F5F5F5F5F5F5F5F5F5E2F5F5F5F5F5F5F5F5F5F5F5F5F5F5F5F5F5F5F5F5F5F5F5F5F5F5F5F5F5F5F5F5F5F5F5F5F5F5F5F5F5F5F5F5F5F5F5F5BEF5F5F5F5F5F5F5F5F5F5F5F5F5F5F5F5E2F5F5E2F5F5F5F5F5
310
F5F5F5F5F5F5F5F5F5F5F5F5F5F5F5F5F5F5F5F5F5F5F5F5F5F5F5F5F5F5F5F5F5F5F5F5F5F5BEBEBEBEBEF5F5F5F5F5F5F5F5F5F5F5F5F5F5F5F5F5F5F5F5F5F5F5F5F5F5F5F5F5F5F5F5F5F5E2F5F5F5E2F5F5F5E2F5F5F5F5E2F5F5F5F5F5F5F5F5F5F5F5F5F5F5E2F5F5F5F5F5F5F5F5F5F5F5F5F5F5F5F5F5F5F5F5F5
310
F5F5F5F5F5F5F5F5F5F5F5F5F5F5F5F5F5F5F5F5F5F5F5F5F5F5F5BEF5F5F5F5F5F5F5F5F5F5F5F5F5F5F5F5E2E2E2E2E2F5F5F5F5F5F5F5F5F5F5F5F5F5F5F5F5F5F5F5F5F5F5F5F5F5F5F5F5F5F5F5F5F5F5F5F5F5F5F5F5F5F5BEBEBEBEBEF5F5F5F5F5F5F5F5F5F5F5F5F5F5F5F5F5F5F5F5F5F5F5F5F5F5F5F5F5F5F5
310
F5F5F5E2F5F5F5E2F5F5F5E2F5F5F5F5E2F5F5F5F5F5F5F5F5F5F5F5F5F5F5E2F5F5F5F5F5F5F5F5F5F5F5F5F5F5F5F5F5F5F5F5F5F5F5F5F5F5F5F5F5F5F5F5F5F5F5F5F5F5F5F5F5F5F5F5F5F5F5F5BEF5F5F5F5F5F5F5F5F5F5F5F5F5F5F5F5E2E2E2E2E2E2F5F5F5F5F5F5F5F5F5F5F5F5F5F5F5F5F5F5F5F5F5F5F5F5
310
F5F5F5F5F5F5F5F5F5E2E2E2E2F5F5F5F5BEBEBEBEBEF5F5F5F5F5F5F5F5F5F5F5F5F5F5F5F5F5F5F5F5F5F5F5F5F5F5F5F5F5F5F5F5F5F5E2F5F5F5E2F5F5F5E2F5F5F5F5E2F5F5F5F5F5F5F5F5F5F5F5F5F5F5E2F5F5F5F5F5F5F5F5F5F5F5F5F5F5F5F5F5F5F5F5F5F5F5F5F5F5F5F5F5F5F5F5F5F5F5F5F5F5F5F5F5F5
310
F5F5F5F5F5F5BEF5F5F5F5F5F5F5F5F5F5F5F5F5F5F5F5E2E2E2E2E2E2F5F5F5F5F5F5F5F5F5F5F5F5F5F5F5F5F5F5F5F5F5F5F5F5F5F5F5F5F5F5F5F5F5E2E2E2E2E2F5F5F5BEBEBEBEBEF5F5F5F5F5F5F5F5F5F5F5F5F5F5F5F5F5F5F5F5F5F5F5F5F5F5F5F5F5F5F5F5F5F5E2F5F5F5E2F5F5F5E2F5F5F5F5E2F5F5F5F5
310
F5F5F5F5F5F5F5F5F5F5E2F5F5F5F5F5F5F5F5F5F5F5F5F5F5F5F5F5F5F5F5F5F5F5F5F5F5F5F5F5F5F5F5F5F5F5F5F5F5F5F5F5F5F5F5F5F5F5F5BEF5F5F5F5F5F5F5F5F5F5F5F5F5F5F5F5E2E2E2E2E2F5F5F5F5F5F5F5F5F5F5F5F5F5F5F5F5F5F5F5F5F5F5F5F5F5F5F5F5F5F5F5F5F5E2E2E2E2E2E2F5F5F5BEBEBEBE
310
BEF5F5F5F5F5F5F5F5F5F5F5F5F5F5F5F5F5F5F5F5F5F5F5F5F5F5F5F5F5F5F5F5F5F5E2F5F5F5E2F5F5F5E2F5F5F5F5E2F5F5F5F5F5F5F5F5F5F5F5F5F5F5E2F5F5F5F5F5F5F5F5F5F5F5F5F5F5F5F5F5F5F5F5F5F5F5F5F5F5F5F5F5F5F5F5F5F5F5F5F5F5F5F5F5F5F5F5F5F5F5F5BEF5F5F5F5F5F5F5F5F5F5F5F5F5F5
310
F5F5E2F5E2E2F5F5F5F5F5F5F5F5F5F5F5F5F5F5F5F5F5F5F5F5F5F5F5F5F5F5F5F5F5F5F5F5F5F5F5E2E2E2F5E2F5F5F5BEBEBEBEBEF5F5F5F5F5F5F5F5F5F5F5F5F5F5F5F5F5F5F5F5F5F5F5F5F5F5F5F5F5F5F5F5F5F5E2F5F5F5E2F5F5F5E2F5F5F5F5E2F5F5F5F5F5F5F5F5F5F5F5F5F5F5E2F5F5F5F5F5F5F5F5F5F5
310
F5F5F5F5F5F5F5F5F5F5F5F5F5F5F5F5F5F5F5F5F5F5F5F5F5F5F5F5F5F5F5F5F5F5F5F5F5BEBEF5F5F5F5F5F5F5F5F5F5F5F5F5F5F5F5E2F5F5F5F5F5F5F5F5F5F5F5F5F5F5F5F5F5F5F5F5F5F5F5F5F5F5F5F5F5F5F5F5F5F5F5F5F5F5E2E2E2E2F5F5F5F5BEBEBEBEBEF5F5F5F5F5F5F5F5F5F5F5F5F5F5F5F5F5F5F5F5
310
F5F5F5F5F5F5F5F5F5F5F5F5F5F5E2F5F5F5E2F5F5F5E2F5F5F5F5E2F5F5F5F5F5F5F5F5F5F5F5F5F5F5E2F5F5F5F5F5F5F5F5F5F5F5F5F5F5F5F5F5F5F5F5F5F5F5F5F5F5F5F5F5F5F5F5F5F5F5F5F5F5F5F5F5F5F5F5F5F5F5BEBEBEBEBEBEBEBEBEBEBEBEBEBEBEBEBEBEE2E2E2E2E2E2E2E2E2E2E2E2E2E2E2E2E2E2E2
310
E2E2E2E2E2E2E2E2E2E2E2E2E2E2E2E2E2E2E2E2E2E2E2E2E2E2E2E2BEBEBEBEBEF5F5F5F5F5F5F5F5F5F5F5F5F5F5F5F5F5F5F5F5F5F5F5F5F5F5F5F5F5F5F5F5F5F5E2F5F5F5E2F5F5F5E2F5F5F5E2E2F5F5F5F5F5F5F5F5F5F5F5F5F5F5E2F5F5F5F5F5F5F5F5F5F5F5F5F5F5F5F5F5F5F5F5F5F5F5F5F5F5F5F5F5F5F5
310
F5F5F5F5F5F5F5F5F5F5F5F5F5F5F5F5F5F5F5F5F5F5F5F5F5F5F5F5F5F5F5F5F5F5BEF5F5F5F5F5F5F5F5F5F5F5F5F5F5F5F5F5F5F5F5F5F5F5F5F5F5F5F5F5F5F5F5F5F5F5F5F5F5F5F5F5F5F5F5F5F5F5F5F5F5BEF5F5F5F5F5F5F5F5F5F5F5F5F5F5F5F5F5F5F5F5F5F5F5F5F5F5F5F5F5F5F5F5F5F5E2F5F5F5E2E2F5
310
F5E2F5F5F5E2E2F5F5F5F5F5F5F5F5F5F5F5F5F5F5E2F5F5F5F5F5F5F5F5F5F5F5F5F5F5F5F5F5F5F5F5F5F5F5F5F5F5F5F5F5F5F5F5F5F5F5F5F5F5F5F5F5F5F5F5F5F5F5F5F5F5F5F5F5F5F5F5F5F5F5F5F5F5F5F5F5BEF5F5F5F5F5F5F5F5F5F5F5F5F5F5F5F5F5F5F5F5F5F5F5F5F5F5F5F5F5F5F5F5F5F5F5F5F5F5F5
310
F5F5F5F5F5F5F5F5F5F5F5BEF5F5F5F5F5F5F5F5F5F5F5F5F5F5F5F5F5F5F5F5F5F5F5F5F5F5F5F5F5F5F5F5F5F5E2F5F5F5E2E2F5F5E2F5F5F5E2E2F5F5F5F5F5F5F5F5F5F5F5F5F5F5E2F5F5F5F5F5F5F5F5F5F5F5F5F5F5F5F5F5F5F5F5F5F5F5F5F5F5F5F5F5F5F5F5F5F5F5F5F5F5F5F5F5F5F5F5F5F5F5F5F5F5F5F5
310
F5F5F5F5F5F5F5F5F5F5F5F5F5BEF5F5F5F5F5F5F5F5F5F5F5F5F5F5F5F5F5F5F5F5F5F5F5F5F5F5F5F5F5F5F5F5F5F5F5F5F5F5F5F5F5F5F5F5F5F5F5F5F5F5BEF5F5F5F5F5F5F5F5F5F5F5F5F5F5F5F5F5F5F5F5F5F5F5F5F5F5F5F5F5F5F5F5F5F5E2F5F5F5E2E2F5F5E2F5F5F5E2E2F5F5F5F5F5F5F5F5F5F5F5F5F5F5
310
E2F5F5F5F5F5F5F5F5F5F5F5F5F5F5F5F5F5F5F5F5F5F5F5F5F5F5F5F5F5F5F5F5F5F5F5F5F5F5F5F5F5F5F5F5F5F5F5F5F5F5F5F5F5F5F5F5F5F5F5F5F5F5F5F5F5BEBEBEBEBEBEBEBEBEBEBEBEBEBEBEBEBEBEE2E2E2E2E2BEBEBEBEBEBEBEBEBEBEBEBEBEBEBEBEBEBEBEBEBEBEBEBEBEBEBEBEBEF5F5F5F5F5F5F5F5F5
310
F5F5F5F5F5F5F5F5F5F5F5F5F5F5F5F5F5F5F5F5F5F5F5F5F5E2F5F5F5E2E2F5F5E2F5F5F5E2E2F5F5F5F5F5F5F5F5F5F5F5F5F5F5E2F5F5F5F5F5F5F5F5F5F5F5F5F5F5F5F5F5F5F5F5F5F5F5F5F5F5F5F5F5F5F5F5F5F5F5F5F5F5F5F5F5F5F5F5F5F5F5F5F5F5F5F5F5F5F5F5F5F5F5F5F5F5F5F5F5BEF5F5F5F5F5F5F5
310
F5F5F5F5F5F5F5F5F5F5E2E2E2E2E2F5F5F5F5F5F5F5F5F5F5F5F5F5F5F5F5F5F5F5F5F5F5F5F5F5F5F5F5BEF5F5F5F5F5F5F5F5F5F5F5F5F5F5F5F5F5F5F5F5F5F5F5F5F5F5F5F5F5F5F5F5F5F5E2F5F5F5E2E2F5F5E2F5F5F5E2E2F5F5F5F5F5F5F5F5F5F5F5F5F5F5E2F5F5F5F5F5F5F5F5F5F5F5F5F5F5F5F5F5F5F5F5
310
F5F5F5F5F5F5F5F5F5F5F5F5F5F5F5F5F5F5F5F5F5F5F5F5F5F5F5F5F5F5F5F5F5F5F5F5F5F5F5F5F5F5F5F5F5F5F5F5F5F5F5F5F5F5F5F5F5F5F5F5F5F5F5E2E2E2E2E2F5F5F5F5F5F5F5F5F5F5F5F5F5F5F5F5F5F5F5F5F5F5F5F5F5F5F5F5F5F5F5F5F5F5F5F5F5F5F5F5F5F5F5F5F5F5F5F5F5F5F5F5F5F5F5F5F5F5F5
310
F5F5F5F5E2F5F5F5E2E2F5F5E2F5F5F5E2E2F5F5F5F5F5F5F5F5F5F5F5F5F5F5E2F5F5F5F5F5F5F5F5F5F5F5F5F5F5F5F5F5F5F5F5F5F5F5F5F5F5F5F5F5F5F5F5F5F5F5F5F5F5F5F5F5F5F5F5F5F5F5F5F5F5F5F5F5F5F5F5F5F5F5F5F5F5F5F5F5F5F5F5F5F5F5F5F5F5F5F5F5F5F5F5F5F5F5E2E2E2E2E2F5F5F5F5F5F5
310
F5F5F5F5F5F5F5F5F5F5F5F5F5F5F5F5F5F5F5F5F5F5F5F5F5F5F5F5F5F5F5F5F5F5F5F5F5F5F5F5F5F5F5F5F5F5F5F5F5F5F5F5F5F5F5F5F5E2F5F5F5E2E2F5F5E2F5F5F5E2E2F5F5F5F5F5F5F5F5F5F5F5F5F5F5E2F5F5F5F5F5F5F5F5F5F5F5F5F5F5F5F5F5F5F5F5F5F5F5F5F5F5F5F5F5F5F5F5F5F5F5F5F5F5F5F5F5
310
F5F5F5F5F5F5F5F5F5F5F5F5F5F5F5F5F5F5F5F5F5F5F5F5F5F5F5F5F5F5F5F5F5F5F5F5F5F5F5F5F5F5F5F5F5F5F5F5F5F5F5F5F5F5F5F5F5F5F5F5F5F5F5F5F5F5F5F5F5F5F5F5F5F5F5F5F5F5F5F5F5F5F5F5F5F5F5F5F5F5F5F5F5F5F5F5F5F5F5F5F5F5F5F5F5F5F5F5F5F5E2F5F5F5E2E2F5F5E2F5F5F5E2E2F5F5F5
310
F5F5F5F5F5F5F5F5F5F5F5E2F5F5F5F5F5F5F5F5F5F5F5F5F5F5F5F5F5F5F5F5F5F5F5F5F5F5F5F5F5F5F5F5F5F5F5F5F5F5F5F5F5F5F5F5F5F5F5F5F5F5F5F5F5F5F5F5F5F5F5F5F5F5F5F5F5F5F5F5F5F5F5F5F5F5F5F5F5F5F5F5F5F5F5F5F5F5F5F5F5F5F5F5F5F5F5F5F5F5F5F5F5F5F5F5F5F5F5F5F5F5F5F5F5F5F5
310
F5F5F5F5F5F5F5F5F5F5F5F5F5F5F5F5F5F5F5F5F5F5F5F5F5F5F5F5F5F5F5F5F5F5F5F5E2F5F5F5E2E2F5F5E2F5F5F5E2E2F5F5F5F5F5F5F5F5F5F5F5F5F5F5E2F5F5F5F5F5F5F5F5F5F5F5F5F5F5F5F5F5F5F5F5F5F5F5F5F5F5F5F5F5F5F5F5F5F5F5F5F5F5F5F5F5F5F5F5F5F5F5F5F5F5F5F5F5F5F5F5F5F5F5F5F5F5
310
F5F5F5F5F5F5F5F5F5F5F5F5F5F5F5F5F5F5F5F5F5F5F5F5F5F5F5F5F5F5F5F5F5F5F5F5F5F5F5F5F5F5F5F5F5F5F5F5F5F5F5F5F5F5F5F5F5F5F5F5F5F5F5F5F5F5F5F5F5F5F5F5F5F5F5F5F5F5F5F5F5F5F5F5F5F5F5F5F5E2F5F5F5E2E2F5F5E2F5F5F5E2E2F5F5F5F5F5F5F5F5F5F5F5F5F5F5E2F5F5F5F5F5F5F5F5F5
310
F5F5F5F5F5F5F5F5F5F5F5F5F5F5F5F5F5F5F5F5F5F5F5F5F5F5F5F5F5F5F5F5F5F5F5F5F5F5F5F5F5F5F5F5F5F5F5F5F5F5F5F5F5F5F5F5F5F5F5F5F5F5F5F5F5F5F5F5F5F5F5F5F5F5F5F5F5F5F5F5F5F5F5F5F5F5F5F5F5F5F5F5F5F5F5F5F5F5F5F5F5F5F5F5F5F5F5F5F5F5F5F5F5F5F5F5F5F5F5F5F5F5F5F5F5F5F5
310
F5F5F5F5F5F5F5F5F5F5F5F5F5F5F5E2F5F5F5E2E2F5F5E2F5F5F5E2E2F5F5F5F5F5F5F5F5F5F5F5F5F5F5E2F5F5F5F5F5F5F5F5F5F5F5F5F5F5F5F5F5F5F5F5F5F5F5F5F5F5F5F5F5F5F5F5F5F5F5F5F5F5F5F5F5F5F5F5F5F5F5F5F5F5F5F5F5F5F5F5F5F5F5F5F5F5F5F5F5F5F5F5F5F5F5F5F5F5F5F5F5F5F5F5F5F5F5
310
F5F5F5F5F5F5F5F5F5F5F5F5F5F5F5F5F5F5F5F5F5F5F5F5F5F5F5F5F5F5F5F5F5F5F5F5F5F5F5F5F5F5F5F5F5F5F5F5F5F5F5F5F5F5F5F5F5F5F5F5F5F5F5F5F5F5F5F5E2F5F5F5E2E2F5F5E2F5F5F5E2E2F5F5F5F5F5F5F5F5F5F5F5F5F5F5E2F5F5F5F5F5F5F5F5F5F5F5F5F5F5F5F5F5F5F5F5F5F5F5F5F5F5F5F5F5F5
310
F5F5F5F5F5F5F5F5F5F5F5F5F5F5F5F5F5F5F5F5F5F5F5F5F5F5F5F5F5F5F5F5F5F5F5F5F5F5F5F5F5F5F5F5F5F5F5F5F5F5F5F5F5F5F5F5F5F5F5F5F5F5F5F5F5F5F5F5F5F5F5F5F5F5F5F5F5F5F5F5F5F5F5F5F5F5F5F5F5F5F5F5F5F5F5F5F5F5F5F5F5F5F5F5F5F5F5F5F5F5F5F5F5F5F5F5F5F5F5F5F5E2F5F5F5E2E2
310
F5F5E2F5F5F5E2E2F5F5F5F5F5F5F5F5F5F5F5F5F5F5E2F5F5F5F5F5F5F5F5F5F5F5F5F5F5F5F5F5F5F5F5F5F5F5F5F5F5F5F5F5F5F5F5F5F5F5F5F5F5F5F5F5F5F5F5F5F5F5F5F5F5F5F5F5F5F5F5F5F5F5F5F5F5F5F5F5F5F5F5F5F5F5F5F5F5F5F5F5F5F5F5F5F5F5F5F5F5F5F5F5F5F5F5F5F5F5F5F5F5F5F5F5F5F5F5
310
F5F5F5F5F5F5F5F5F5F5F5F5F5F5F5F5F5F5F5F5F5F5F5F5F5F5F5F5F5F5F5F5F5F5F5F5F5F5F5F5F5F5F5F5F5F5F5E2F5F5F5E2E2F5F5E2F5F5F5E2E2F5F5F5F5F5F5F5F5F5F5F5F5F5F5E2F5F5F5F5F5F5F5F5F5F5F5F5F5F5F5F5F5F5F5F5F5F5F5F5F5F5F5F5F5F5F5F5F5F5F5F5F5F5F5F5F5F5F5F5F5F5F5F5F5F5F5
310
F5F5F5F5F5F5F5F5F5F5F5F5F5F5F5F5F5F5F5F5F5F5F5F5F5F5F5F5F5F5F5F5F5F5F5F5F5F5F5F5F5F5F5F5F5F5F5F5F5F5F5F5F5F5F5F5F5F5F5F5F5F5F5F5F5F5F5F5F5F5F5F5F5F5F5F5F5F5F5F5F5F5F5F5F5F5F5F5F5F5F5F5F5F5F5F5F5F5F5F5E2F5F5F5E2E2F5F5E2F5F5F5E2E2F5F5F5F5F5F5F5F5F5F5F5F5F5
310
F5E2F5F5F5F5F5F5F5F5F5F5F5F5F5F5F5F5F5F5F5F5F5F5F5F5F5F5F5F5F5F5F5F5F5F5F5F5F5F5F5F5F5F5F5F5F5F5F5F5F5F5F5F5F5F5F5F5F5F5F5F5F5F5F5F5F5F5F5F5F5F5F5F5F5F5F5F5F5F5F5F5F5F5F5F5F5F5F5F5F5F5F5F5F5F5F5F5F5F5F5F5F5F5F5F5F5F5F5F5F5F5F5F5F5F5F5F5F5F5F5F5F5F5F5F5F5
310
F5F5F5F5F5F5F5F5F5F5F5F5F5F5F5F5F5F5F5F5F5F5F5F5F5F5E2F5F5F5E2E2F5F5E2F5F5F5F5E2F5F5F5F5F5F5F5F5F5F5F5F5F5F5E2F5F5F5F5F5F5F5F5F5F5F5F5F5F5F5F5F5F5F5F5F5F5F5F5F5F5F5F5F5F5F5F5F5F5F5F5F5F5F5F5F5F5F5F5F5F5F5F5F5F5F5F5F5F5F5F5F5F5F5F5F5F5F5F5F5F5F5F5F5F5F5F5
310
F5F5F5F5F5F5F5F5F5F5F5F5F5F5F5F5F5F5F5F5F5F5F5F5F5F5F5F5F5F5F5F5F5F5F5F5F5F5F5F5F5F5F5F5F5F5F5F5F5F5F5F5F5F5F5F5F5F5F5F5F5F5F5F5F5F5F5F5F5F5F5F5F5F5F5F5F5F5F5E2F5F5F5E2F5F5F5E2F5F5F5F5E2F5F5F5F5F5F5F5F5F5F5F5F5F5F5E2F5F5F5F5F5F5F5F5F5F5F5F5F5F5F5F5F5F5F5
310
F5F5F5F5F5F5F5F5F5F5F5F5F5F5F5F5F5F5F5F5F5F5F5F5F5F5F5F5F5F5F5F5F5F5F5F5F5F5F5F5F5F5F5F5F5F5F5F5F5F5F5F5F5F5F5F5F5F5F5F5F5F5F5F5F5F5F5F5F5F5F5F5F5F5F5F5F5F5F5F5F5F5F5F5F5F5F5F5F5F5F5F5F5F5F5F5F5F5F5F5F5F5F5F5F5F5F5F5F5F5F5F5F5F5F5F5F5F5F5F5F5F5F5F5F5F5F5
310
F5F5F5F5F5E2F5F5F5E2F5F5F5E2F5F5F5F5E2F5F5F5F5F5F5F5F5F5F5F5F5F5F5E2F5F5F5F5F5F5F5F5F5F5F5F5F5F5F5F5F5F5F5F5F5F5F5F5F5F5F5F5F5F5F5F5F5F5F5F5F5F5F5F5F5F5F5F5F5F5F5F5F5F5F5F5F5F5F5F5F5F5F5F5BEF5F5BEF5F5E2E2E2E2F5F5F5F5F5F5F5F5F5F5F5F5F5F5F5F5F5F5F5F5F5F5F5
310
F5F5F5F5F5F5F5F5F5F5F5F5F5F5F5F5F5F5F5F5F5F5F5F5F5F5F5F5F5F5F5F5F5F5F5F5F5F5F5F5F5F5F5F5F5F5F5F5F5F5F5F5F5F5F5F5F5F5E2F5F5F5E2F5F5F5E2F5F5F5F5E2F5F5F5F5F5F5F5F5F5F5F5F5F5F5E2F5F5F5F5F5F5F5F5F5F5F5F5F5F5F5F5F5F5F5F5F5F5F5F5F5F5F5F5F5F5F5F5F5F5F5F5F5F5F5F5
310
F5F5F5F5F5F5F5F5F5F5F5F5F5F5F5F5F5F5BEBEBEF5F5E2BEBEE2E2E2E2BEF5F5F5F5F5F5F5F5F5F5F5F5F5F5F5F5F5F5F5F5F5F5F5F5F5F5F5F5F5F5F5F5F5F5F5F5F5F5F5F5F5F5F5F5F5F5F5F5F5F5F5F5F5F5F5F5F5F5F5F5F5F5F5F5F5F5F5F5F5F5F5F5F5F5F5F5F5F5F5F5E2F5F5F5E2F5F5F5E2F5F5F5F5E2F5F5
310
F5F5F5F5F5F5F5F5F5F5F5F5E2F5F5F5F5F5F5F5F5F5F5F5F5F5F5F5F5F5F5F5F5F5F5F5F5F5F5F5F5F5F5F5F5F5F5F5F5F5F5F5F5F5F5F5F5F5F5F5F5F5F5F5F5F5F5F5F5F5F5F5F5BEF5F5BEF5F5E2E2E2E2F5F5F5F5F5F5F5F5F5F5F5F5F5F5F5F5F5F5F5F5F5F5F5F5F5F5F5F5F5F5F5F5F5F5F5F5F5F5F5F5F5F5F5F5
310
F5F5F5F5F5F5F5F5F5F5F5F5F5F5F5F5F5F5F5F5F5F5F5F5F5F5F5F5F5F5F5F5F5F5F5F5F5E2F5F5F5E2F5F5F5E2F5F5F5F5E2F5F5F5F5F5F5F5F5F5F5F5F5F5F5E2F5F5F5F5F5F5F5F5F5F5F5F5F5F5F5F5F5F5F5F5F5F5F5BEBEF5F5F5F5F5F5F5F5F5F5F5F5F5F5F5F5F5F5F5F5BEBEF5F5F5F5F5F5F5F5F5F5F5F5F5BE
310
F5F5BEF5F5E2E2E2E2F5F5F5F5F5F5F5F5F5F5F5F5F5F5F5F5F5F5F5F5F5F5F5F5F5F5F5F5F5F5F5F5F5F5F5F5F5F5F5F5F5F5F5F5F5F5F5F5F5F5F5F5F5F5F5F5F5F5F5F5F5F5F5F5F5F5F5F5F5F5F5F5F5F5F5F5F5F5F5F5F5E2F5F5F5E2F5F5F5E2F5F5F5F5E2F5F5F5F5F5F5F5F5F5F5F5F5F5F5E2F5F5F5F5F5F5F5F5
310
F5F5F5F5F5F5F5F5F5F5F5F5F5F5F5BEBEBEBEBEBEBEBEBEBEE2E2E2BEBEBEBEBEBEBEBEBEBEBEF5F5F5F5F5F5F5F5F5F5F5F5F5BEF5BEBEF5F5E2E2E2E2F5F5F5F5F5F5F5F5F5F5F5F5F5F5F5F5F5F5F5F5F5F5F5F5F5F5F5F5F5F5F5F5F5F5F5F5F5F5F5F5F5BEF5F5F5F5F5F5F5F5F5F5F5F5F5F5F5F5F5F5F5F5F5F5F5
310
F5F5F5F5F5F5F5F5F5F5F5F5F5F5F5F5E2F5F5F5E2F5F5F5E2F5F5F5F5E2F5F5F5F5F5F5F5F5F5F5F5F5F5F5E2F5F5F5F5F5F5F5F5F5F5F5F5F5F5F5F5F5F5F5F5F5F5F5BEF5F5F5F5F5F5F5F5F5E2E2E2F5F5F5F5F5F5F5F5F5F5BEF5F5F5F5F5F5F5F5F5F5F5F5F5BEF5BEBEBEBEBEBEBEBEBEBEBEBEBEBEBEBEBEBEBEBE
310
BEE2E2E2E2E2BEBEBEBEBEBEBEBEBEBEBEBEBEBEBEBEBEBEBEBEBEBEBEBEF5F5F5F5F5F5F5F5F5F5F5F5F5F5F5F5F5F5F5F5F5F5F5F5F5F5F5F5F5F5F5F5F5F5F5F5F5F5F5E2F5F5F5E2F5F5F5E2F5F5F5F5E2F5F5F5F5F5F5F5F5F5F5F5F5F5F5E2F5F5F5F5F5F5F5F5F5F5F5F5F5F5F5F5F5F5F5F5F5F5F5BEF5F5F5F5F5
310
F5F5F5F5F5F5F5F5F5F5F5F5F5F5F5F5F5BEF5F5F5F5F5F5F5F5F5F5F5F5F5BEF5BEBEF5F5F5F5F5F5F5F5F5F5F5F5F5F5F5F5F5F5F5E2E2E2E2E2F5F5F5F5F5F5F5F5F5F5F5F5F5F5F5F5F5F5F5F5F5F5F5BEF5F5F5F5F5F5F5F5F5F5F5F5F5F5F5F5F5F5F5F5F5F5F5F5F5F5F5F5F5F5F5F5F5F5F5F5F5F5F5E2F5F5F5E2
310
F5F5F5E2F5F5F5E2E2F5F5F5F5F5F5F5F5F5F5F5F5F5F5E2F5F5F5F5F5F5F5F5F5F5F5F5F5F5F5F5F5F5F5F5F5F5F5BEF5F5F5F5F5F5F5F5F5F5F5F5F5F5F5F5F5F5F5F5F5F5BEF5F5F5F5F5F5F5F5F5F5F5F5F5BEF5BEBEF5F5F5F5F5F5F5F5F5F5F5F5F5F5F5F5F5F5F5E2E2E2E2E2F5F5F5F5F5F5F5F5F5F5F5F5F5F5F5
310
F5F5F5F5F5F5F5F5BEF5F5F5F5F5F5F5F5F5F5F5F5F5F5F5F5F5F5F5F5F5F5F5F5F5F5F5F5F5F5F5F5F5F5F5F5F5F5F5E2F5F5F5E2E2F5F5E2F5F5F5E2E2F5F5F5F5F5F5F5F5F5F5F5F5F5F5E2F5F5F5F5F5F5F5F5F5F5F5F5F5F5F5F5F5F5F5F5F5F5F5BEF5F5F5F5F5F5F5F5F5F5F5F5F5F5F5F5F5F5F5F5F5F5BEF5F5F5
310
F5F5F5F5F5F5F5F5F5F5BEF5BEBEF5F5F5F5F5F5F5F5F5F5F5F5F5F5F5F5F5F5F5E2E2E2E2E2F5F5F5F5F5F5F5F5F5F5F5F5F5F5F5F5F5F5F5F5F5F5F5BEF5F5F5F5F5F5F5F5F5F5F5F5F5F5F5F5F5F5F5F5F5F5F5F5F5F5F5F5F5F5F5F5F5F5F5F5F5F5F5E2F5F5F5E2E2F5F5E2F5F5F5E2E2F5F5F5F5F5F5F5F5F5F5F5F5
310
F5F5E2F5F5F5F5F5F5F5F5F5F5F5F5F5F5F5F5F5F5F5F5F5F5F5BEF5F5F5F5F5F5F5F5F5F5F5F5F5F5F5F5F5F5F5F5F5F5BEF5F5F5F5F5F5F5F5F5F5F5F5F5BEF5BEBEF5F5F5F5F5F5F5F5F5F5F5F5F5F5F5F5F5F5F5F5F5F5F5F5F5F5F5F5F5F5F5F5F5F5F5F5F5F5F5F5F5F5F5F5F5F5F5BEF5F5F5F5F5F5F5F5F5F5F5F5
310
F5F5F5F5F5F5F5F5F5F5F5F5F5F5F5F5F5F5F5F5F5F5F5F5F5F5F5E2F5F5F5E2E2F5F5E2F5F5F5E2E2F5F5F5F5F5F5F5F5F5F5F5F5F5F5E2F5F5F5F5F5F5F5F5BEF5F5F5F5F5BEF5F5F5F5F5F5F5F5BEF5F5F5F5F5F5F5F5F5F5F5F5F5F5F5F5F5F5F5F5F5F5BEF5F5F5F5F5F5F5F5F5F5F5F5F5BEF5BEBEF5F5F5F5F5F5F5
310
F5F5F5F5F5F5F5F5F5F5F5F5F5F5F5F5F5F5F5F5F5F5F5F5F5F5F5F5F5F5F5F5F5F5F5F5F5F5F5F5BEF5F5F5F5F5F5F5F5F5F5F5F5F5F5F5F5F5F5F5F5F5F5F5F5F5F5F5F5F5F5F5F5F5F5F5F5F5F5F5E2F5F5F5E2E2F5F5E2F5F5F5E2E2F5F5F5F5F5F5F5F5F5F5F5F5F5F5E2F5F5F5E2E2E2E2E2BEF5E2E2E2E2BEF5F5F5
310
F5F5F5F5F5BEE2E2E2E2E2E2E2E2E2E2E2E2E2E2E2E2E2E2E2E2E2E2BEBEBEBEBEBEF5F5F5F5F5F5F5E2BEE2E2BEE2E2E2E2E2E2E2E2E2E2E2E2E2E2E2E2E2E2E2E2E2E2E2E2E2E2E2E2E2E2E2E2E2E2E2E2E2E2E2E2E2E2E2E2E2E2E2E2E2E2BEBEBEF5F5F5F5F5F5E2E2E2E2E2E2E2E2E2E2E2E2E2E2E2E2E2E2E2E2E2E2
310
E2E2E2F5F5F5E2F5F5F5E2E2F5F5E2F5F5F5E2E2F5F5F5F5F5F5F5F5F5F5F5F5F5F5E2E2E2E2E2BEE2E2E2BEE2E2BEE2E2BEE2E2E2BEF5F5F5F5E2F5F5F5F5F5F5F5F5E2BEBEE2E2E2E2BEBEE2E2E2E2BEE2F5F5F5BEF5F5F5F5F5F5F5F5E2BEF5BEBEF5E2E2E2E2E2E2E2E2E2E2E2E2E2E2E2E2E2E2E2F5F5F5F5F5E2E2E2
310
F5E2E2E2E2E2E2E2E2E2E2E2E2F5F5F5F5F5F5BEF5F5BEBEBEF5F5F5F5F5F5E2F5F5F5F5F5F5F5F5F5F5F5F5F5F5F5E2F5F5F5F5F5F5F5E2F5F5F5E2F5F5F5E2E2F5F5E2F5F5F5E2E2F5F5F5F5F5F5F5F5F5F5F5F5F5F5E2E2E2E2E2BEE2E2E2BEE2E2BEE2E2BEE2E2E2BEF5F5F5F5E2F5E2E2E2F5F5F5F5E2BEBEE2F5E2F5
310
E2BEE2F5E2F5E2E2F5F5F5BEF5F5F5F5F5F5F5F5E2BEF5BEBEE2F5E2F5F5E2F5F5F5F5F5F5E2E2F5F5E2E2E2E2E2E2E2E2E2E2E2E2E2E2E2E2E2E2E2E2E2E2E2E2E2F5F5F5F5F5F5BEF5F5BEBEBEF5F5F5F5F5F5E2F5F5F5F5F5F5F5F5F5F5F5F5F5F5F5E2F5F5F5F5F5F5F5E2F5F5F5E2F5F5F5E2E2F5F5E2F5F5F5E2E2F5
310
F5F5F5F5F5F5F5F5F5F5F5F5F5E2E2E2E2E2BEE2E2E2BEE2E2BEE2E2BEE2E2E2BEF5F5F5F5E2F5E2F5E2F5F5F5F5E2BEE2F5E2F5F5E2E2F5E2F5F5E2E2F5F5F5BEF5F5F5F5F5F5F5F5E2BEF5BEBEE2F5E2F5F5E2F5F5F5F5E2E2F5E2E2E2E2F5F5E2E2E2E2E2E2E2E2F5E2F5E2E2E2E2E2F5F5F5F5E2E2F5F5F5F5F5F5BEF5
310
F5BEBEBEF5F5F5F5F5F5E2F5F5F5F5F5F5F5F5F5F5F5F5F5F5F5E2F5F5F5F5F5F5F5E2F5F5F5E2F5F5F5E2E2F5F5E2F5F5F5E2E2F5F5F5F5F5F5F5F5F5F5F5F5F5F5E2F5F5F5F5BEF5F5F5BEF5F5BEF5F5BEF5F5F5BEF5F5F5F5E2E2E2E2E2E2E2E2F5E2BEBEE2F5F5E2BEBEE2F5F5E2BEE2E2E2E2BEF5F5F5F5F5F5F5F5E2
310
BEF5BEBEE2F5E2F5F5E2F5F5F5F5E2E2E2E2E2F5E2F5F5E2F5F5F5F5F5F5E2F5E2F5E2E2E2E2E2E2F5F5F5E2E2F5F5F5F5F5F5BEF5F5BEBEBEF5F5F5F5F5F5E2F5F5F5F5F5F5F5F5F5F5F5F5F5F5F5E2F5F5F5F5F5F5F5E2F5F5F5E2F5F5F5E2E2F5F5E2F5F5F5E2E2F5F5F5F5F5F5F5F5F5F5F5F5F5F5E2F5F5F5F5BEF5F5
310
F5BEF5F5BEF5F5BEF5F5F5BEF5F5F5F5E2F5E2F5E2F5E2F5E2E2BEBEBEE2E2BEBEBEBEE2E2BEBEE2E2E2E2BEF5F5F5F5F5F5F5F5E2BEE2E2BEE2F5E2F5F5E2F5F5F5E2E2E2E2E2E2E2E2F5F5E2F5F5F5F5F5F5E2F5E2E2E2E2E2E2E2E2F5F5F5E2E2F5F5F5F5E2E2E2E2F5BEBEBEF5F5F5F5F5F5E2F5F5F5F5F5F5F5F5F5F5
310
F5F5F5F5F5E2F5F5F5F5F5F5F5E2F5F5F5E2F5F5F5E2E2F5F5E2F5F5F5E2E2F5F5F5F5F5F5F5F5F5F5F5F5F5F5E2F5F5F5BEBEBEBEBEBEBEBEBEBEBEBEBEBEBEBEBEBEBEBEE2F5F5E2F5E2E2F5F5E2BEBEBEBEBEBEBEBEBEBEBEBEBEE2E2E2E2BEF5F5F5F5F5BEBEBEBEE2F5BEE2E2F5E2F5F5E2F5F5F5E2E2E2E2E2E2E2E2
310
F5F5E2F5F5F5F5F5F5E2F5E2E2E2E2F5E2E2E2F5F5F5E2E2F5F5F5F5E2F5E2E2F5BEBEBEF5F5F5F5F5F5E2F5F5F5F5F5F5F5F5F5F5F5F5F5F5F5E2F5F5F5F5F5F5F5E2F5F5F5E2F5F5F5E2E2F5F5E2F5F5F5E2E2F5F5F5F5F5F5F5F5F5F5F5F5F5F5E2F5F5F5F5BEF5F5BEBEF5F5BEF5F5BEF5F5BEBEF5F5F5F5E2E2E2E2E2
310
E2E2E2E2E2BEBEBEBEBEBEBEBEBEBEBEBEBEE2E2E2E2BEF5F5F5F5F5BEBEF5E2F5E2F5E2E2F5E2F5F5E2F5F5F5E2E2E2E2E2E2F5E2E2E2E2F5F5F5F5F5F5E2E2E2E2E2E2E2E2F5E2F5F5F5E2E2F5F5F5F5E2F5E2E2F5BEBEBEF5F5F5F5F5F5E2F5F5F5F5F5F5F5F5F5F5F5F5F5F5F5E2F5F5F5F5F5F5F5E2F5F5F5E2F5F5F5
310
E2E2F5F5E2F5F5F5E2E2F5F5F5F5F5F5F5F5F5F5F5F5F5F5E2F5F5F5F5BEF5F5F5BEF5F5BEF5F5BEF5F5F5BEF5F5F5F5E2E2E2E2E2E2E2F5F5E2BEBEBEE2BEBEBEBEBEE2BEBEBEE2F5F5F5BEF5F5E2E2E2E2BEF5E2F5F5E2F5E2F5E2F5F5E2F5F5F5E2F5E2F5E2E2E2E2F5F5E2F5F5F5F5F5F5E2F5F5E2E2F5E2F5E2E2F5F5
310
F5E2E2F5F5F5F5F5E2E2F5F5BEBEBEF5F5F5F5F5F5E2F5F5F5F5F5F5F5F5F5F5F5F5F5F5F5E2F5F5F5F5F5F5F5E2F5F5F5E2F5F5F5E2E2F5F5E2F5F5F5E2E2F5F5F5F5F5F5F5F5F5F5F5F5F5F5E2F5F5F5F5BEF5F5F5BEF5F5BEF5F5BEF5F5F5BEF5F5F5F5E2F5F5E2F5E2F5F5F5E2BEBEE2F5E2E2BEBEE2F5E2E2BEE2F5F5
310
F5BEF5F5E2E2E2E2BEF5E2F5F5F5F5E2F5E2E2E2E2F5F5F5F5E2E2F5E2E2F5E2F5F5E2F5F5F5F5F5F5E2F5F5F5E2E2E2E2F5E2F5F5F5E2E2E2E2F5F5F5F5F5F5F5BEBEBEF5F5F5F5F5F5E2F5F5F5F5F5F5F5F5F5F5F5F5F5F5F5E2F5F5F5F5F5F5F5E2F5F5F5E2F5F5F5E2E2F5F5E2F5F5F5E2E2F5F5F5F5F5F5F5F5F5F5F5
310
F5F5F5E2F5F5F5F5BEF5F5F5BEF5F5BEF5F5BEF5F5BEBEF5F5F5F5E2F5F5E2F5E2F5F5F5E2BEE2F5F5E2F5E2E2F5F5E2F5E2E2F5F5F5BEF5F5E2E2E2E2BEF5E2F5F5F5F5E2F5E2E2E2F5F5F5F5F5E2E2E2E2E2E2F5F5F5E2F5F5F5F5F5F5E2F5F5F5E2E2E2E2E2F5F5F5F5F5F5E2E2F5F5F5F5F5F5F5BEBEBEF5F5F5F5F5F5
310
E2F5F5F5F5F5F5F5F5F5F5F5F5F5F5F5E2F5F5F5F5F5F5F5E2F5F5F5E2F5F5F5E2E2F5F5E2F5F5F5F5E2F5F5F5F5F5F5F5F5F5F5F5F5F5F5E2F5F5F5F5BEF5F5F5BEF5F5BEF5F5BEF5F5BEBEBEBEE2E2E2E2E2E2E2E2F5F5F5E2BEBEE2E2F5F5E2BEE2E2F5F5E2E2F5F5F5BEF5F5E2E2E2E2BEF5E2F5F5F5F5E2F5E2E2E2F5
310
F5F5F5F5F5F5E2E2E2F5F5F5F5E2F5F5F5F5F5F5E2F5F5F5F5E2E2E2F5F5F5F5F5F5F5E2E2F5F5F5F5F5F5F5BEBEBEF5F5F5F5F5F5E2F5F5F5F5F5F5F5F5F5F5F5F5F5F5F5E2F5F5F5F5F5F5F5E2F5F5F5E2F5F5F5E2F5F5F5E2F5F5F5F5E2F5F5F5F5F5F5F5F5F5F5F5F5F5F5E2F5F5F5F5BEF5F5BEBEF5F5BEF5BEBEBEBE
310
BEBEBEBEE2E2E2E2E2E2E2E2E2F5F5E2BEBEE2F5F5E2BEBEE2F5F5E2BEE2F5F5F5BEF5F5F5F5F5F5BEF5E2F5F5F5F5E2F5E2E2E2E2E2E2E2E2E2E2E2E2E2E2E2E2E2E2E2E2E2E2E2E2E2E2E2E2E2E2E2E2E2E2E2E2E2E2E2E2E2F5F5F5F5F5F5F5BEBEBEF5F5F5F5F5F5E2F5F5F5F5F5F5F5F5F5F5F5F5F5F5F5E2F5F5F5F5
310
F5F5F5E2F5F5F5E2F5F5F5E2F5F5F5E2F5F5F5F5E2F5F5F5F5F5F5F5F5F5F5F5F5F5F5E2F5F5F5F5BEF5F5BEBEBEBEBEBEBEBEBEBEBEBEBEBEE2E2E2E2E2E2E2E2E2F5F5E2BEBEBEE2E2BEBEBEBEE2E2BEBEE2F5F5F5BEF5F5F5F5F5BEBEF5E2F5F5F5F5E2E2E2E2F5F5F5F5F5F5F5F5F5F5F5F5F5F5F5F5F5F5F5F5F5F5F5
310
F5F5F5F5F5F5F5F5F5F5F5F5F5F5F5E2F5F5F5F5F5F5F5BEBEBEF5F5F5F5F5F5E2F5F5F5F5F5F5F5F5F5F5F5F5F5F5F5E2F5F5F5F5F5F5F5E2E2E2F5E2F5F5F5E2F5F5F5E2F5F5F5F5E2F5F5F5F5F5F5F5F5F5F5F5F5F5F5E2F5F5F5BEBEBEBEBEBEBEBEBEBEBEBEBEBEBEBEBEBEE2E2E2E2E2E2E2E2E2E2E2E2E2E2E2E2E2
310
E2E2E2E2E2E2E2E2BEBEBEBEBEBEF5F5F5F5BEBEBEBEE2E2E2E2E2E2E2E2E2E2E2E2E2E2E2E2E2E2E2E2E2E2E2E2E2E2E2E2E2E2E2E2E2E2E2E2E2E2E2E2E2E2E2E2E2E2E2E2E2E2E2E2E2E2BEBEBEF5F5F5F5F5F5E2E2E2E2E2E2E2E2E2E2E2E2E2E2E2E2E2E2E2E2E2E2E2E2E2E2E2F5E2F5F5F5E2F5F5F5E2F5F5F5F5E2
310
F5F5F5F5F5F5F5F5F5F5F5F5F5F5E2F5F5F5F5F5F5F5F5F5F5F5F5F5F5F5F5F5F5F5F5F5E2E2E2E2E2E2E2E2E2F5F5F5F5F5F5F5F5F5F5F5F5F5F5F5F5F5F5F5F5F5F5F5F5F5F5F5F5F5F5F5F5F5F5F5F5F5F5F5F5F5F5F5F5F5F5F5F5F5F5F5F5F5F5F5F5F5F5F5F5F5F5F5F5F5F5F5F5F5F5F5F5F5F5F5F5F5F5F5F5F5F5
310
F5F5F5F5F5F5F5F5F5F5F5F5F5F5F5F5F5F5F5F5F5F5F5F5F5F5F5F5F5F5F5F5F5F5F5F5F5F5F5E2F5F5F5E2F5F5F5E2F5F5F5F5E2F5F5F5F5F5F5F5F5F5F5F5F5F5F5E2F5F5F5F5F5F5F5F5F5F5F5F5F5F5F5F5F5F5F5F5F5F5F5F5E2E2E2E2E2F5F5F5F5F5F5F5F5F5F5F5F5F5F5F5F5F5F5F5F5F5F5F5F5F5F5F5F5F5F5
310
F5F5F5F5F5F5F5F5F5F5F5F5F5F5F5F5F5F5F5F5F5F5F5F5F5F5F5F5F5F5F5F5F5F5F5F5F5F5F5F5F5F5F5F5F5F5F5F5F5F5F5F5F5F5F5F5F5F5F5F5F5F5F5F5F5F5F5F5F5F5F5F5F5F5F5F5F5F5F5F5F5F5F5F5F5F5F5F5F5F5F5F5E2F5F5F5E2F5F5F5E2F5F5F5F5E2F5F5F5F5F5F5F5F5F5F5F5F5F5F5E2F5F5F5F5F5F5
310
F5F5F5F5F5F5F5F5F5F5F5F5F5F5F5F5F5F5F5F5F5F5F5F5F5F5F5F5F5F5F5F5F5F5F5F5F5F5F5F5F5F5F5F5F5F5F5F5F5F5F5F5F5F5F5F5F5F5F5F5F5F5F5F5F5F5F5F5F5F5F5F5F5F5F5F5F5F5F5F5F5F5F5F5F5F5F5F5F5F5F5F5F5F5F5F5F5F5F5F5F5F5F5F5F5F5F5F5F5F5F5F5F5F5F5F5F5F5F5F5F5F5F5F5F5F5F5
310
F5F5F5F5F5F5F5F5F5F5F5F5F5F5F5F5F5F5E2F5F5F5E2F5F5F5E2F5F5F5F5E2F5F5F5F5F5F5F5F5F5F5F5F5F5F5E2F5F5F5F5F5F5F5F5F5F5F5F5F5F5F5F5F5F5F5F5F5F5F5F5F5F5F5F5F5F5F5F5F5F5F5F5F5F5F5F5F5F5F5F5F5F5F5F5F5F5F5F5F5F5F5F5F5F5F5F5F5F5F5F5F5F5F5F5F5F5F5F5F5F5F5F5F5F5F5F5
310
F5F5F5F5F5F5F5F5F5F5F5F5F5F5F5F5F5F5F5F5F5F5F5F5F5F5F5F5F5F5F5F5F5F5F5F5F5F5F5F5F5F5F5F5F5F5F5F5F5F5F5F5F5F5F5F5F5F5F5F5F5F5F5F5F5F5F5F5F5F5F5E2F5F5F5E2F5F5F5E2F5F5F5F5E2F5F5F5F5F5F5F5F5F5F5F5F5F5F5E2F5F5F5F5F5F5F5F5F5F5F5F5F5F5F5F5F5F5F5F5F5F5F5F5F5F5F5
310
F5F5F5F5F5F5F5F5F5F5F5F5F5F5F5F5F5F5F5F5F5F5F5F5F5F5F5F5F5F5F5F5F5F5F5F5F5F5F5F5F5F5F5F5F5F5F5F5F5F5F5F5F5F5F5F5F5F5F5F5F5F5F5F5F5F5F5F5F5F5F5F5F5F5F5F5F5F5F5F5F5F5F5F5F5F5F5F5F5F5F5F5F5F5F5F5F5F5F5F5F5F5F5F5F5F5F5F5F5F5F5F5F5F5F5F5F5F5F5F5F5F5F5F5E2F5F5
310
F5E2F5F5F5E2F5F5F5E2E2F5F5F5F5F5F5F5F5F5F5F5F5F5F5E2F5F5F5F5F5F5F5F5F5F5F5F5F5F5F5F5F5F5F5F5F5F5F5F5F5F5F5F5F5F5F5F5F5F5F5F5F5F5F5F5F5F5F5F5F5F5F5F5F5F5F5F5F5F5F5F5F5F5F5F5F5F5F5F5F5F5F5F5F5F5F5F5F5F5F5F5F5F5F5F5F5F5F5F5F5F5F5F5F5F5F5F5F5F5F5F5F5F5F5F5F5
310
F5F5F5F5F5F5F5F5F5F5F5F5F5F5F5F5F5F5F5F5F5F5F5F5F5F5F5F5F5F5F5F5F5F5F5F5F5F5F5F5F5F5F5F5F5F5F5F5F5F5E2F5F5F5E2E2F5F5E2F5F5F5E2E2F5F5F5F5F5F5F5F5F5F5F5F5F5F5E2F5F5F5F5F5F5F5F5F5F5F5F5F5F5F5F5F5F5F5F5F5F5F5F5F5F5F5F5F5F5F5F5F5F5F5F5F5F5F5F5F5F5F5F5F5F5F5F5
310
F5F5F5F5F5F5F5F5F5F5F5F5F5F5F5F5F5F5F5F5F5F5F5F5F5F5F5F5F5F5F5F5F5F5F5F5F5F5F5F5F5F5F5F5F5F5F5F5F5F5F5F5F5F5F5F5F5F5F5F5F5F5F5F5F5F5F5F5F5F5F5F5F5F5F5F5F5F5F5F5F5F5F5F5F5F5F5F5F5F5F5F5F5F5F5F5F5F5F5F5F5F5F5E2F5F5F5E2E2F5F5E2F5F5F5E2E2F5F5F5F5F5F5F5F5F5F5
310
F5F5F5F5E2F5F5F5F5F5F5F5F5F5F5F5F5F5F5F5F5F5F5F5F5F5F5F5F5F5F5F5F5F5F5F5F5F5F5F5F5F5F5F5F5F5F5F5F5F5F5F5F5F5F5F5F5F5F5F5F5F5F5F5F5F5F5F5F5F5F5F5F5F5F5F5F5F5F5F5F5F5F5F5F5F5F5F5F5F5F5F5F5F5F5F5F5F5F5F5F5F5F5F5F5F5F5F5F5F5F5F5F5F5F5F5F5F5F5F5F5F5F5F5F5F5F5
310
F5F5F5F5F5F5F5F5F5F5F5F5F5F5F5F5F5F5F5F5F5F5F5F5F5F5F5F5F5E2F5F5F5E2E2F5F5E2F5F5F5E2E2F5F5F5F5F5F5F5F5F5F5F5F5F5F5E2E2E2E2E2E2E2E2E2E2E2E2E2E2E2E2E2E2E2E2E2E2E2E2E2E2E2E2E2E2E2E2E2E2E2E2E2E2E2E2E2E2E2E2E2E2E2E2E2E2E2E2E2E2E2E2E2E2E2E2E2E2E2E2E2E2E2E2E2E2
310
E2E2E2E2E2E2E2E2E2E2E2E2E2E2E2E2E2E2E2E2E2E2E2E2E2E2E2E2E2E2E2E2E2E2E2E2E2E2E2E2E2E2E2E2E2E2E2E2E2E2E2E2E2E2E2E2E2E2E2E2E2E2E2E2E2E2E2E2E2E2E2E2E2E2E2E2E2E2E2E2E2E2E2F5F5F5E2E2F5F5E2F5F5F5E2E2F5F5F5F5F5F5F5F5F5F5F5F5F5F5F5F5F5F5F5F5F5F5F5F5F5F5F5F5F5F5F5
310
F5F5F5F5F5F5F5F5F5F5F5F5F5F5F5F5F5F5F5F5F5F5F5F5F5F5F5F5F5F5F5F5F5F5F5F5F5F5F5F5F5F5F5F5F5F5F5F5F5F5F5F5F5F5F5F5F5F5F5F5F5F5F5F5F5F5F5F5F5F5F5F5F5F5F5F5F5F5F5F5F5F5F5F5F5F5F5F5F5F5F5F5F5F5F5F5F5F5F5F5F5F5F5F5F5F5F5F5F5F5F5F5F5F5F5F5F5F5F5F5F5F5F5F5F5F5F5
310
F5F5F5F5F5F5F5F5F5F5F5F5E2E2F5F5E2F5F5F5E2E2F5F5F5F5F5F5F5F5F5F5F5F5F5F5F5F5F5F5F5F5F5F5F5F5F5F5F5F5F5F5F5F5F5F5F5F5F5F5F5F5F5F5F5F5F5F5F5F5F5F5F5F5F5F5F5F5F5F5F5F5F5F5F5F5F5F5F5F5F5F5F5F5F5F5F5F5F5F5F5F5F5F5F5F5F5F5F5F5F5F5F5F5F5F5F5F5F5F5F5F5F5F5F5F5F5
310
F5F5F5F5F5F5F5F5F5F5F5F5F5F5F5F5F5F5F5F5F5F5F5F5F5F5F5F5F5F5F5F5F5F5F5F5F5F5F5F5F5F5F5F5F5F5F5F5F5F5F5F5F5F5F5F5F5F5F5F5F5F5F5F5F5E2E2F5F5E2F5F5F5E2E2F5F5F5F5F5F5F5F5F5F5F5F5F5F5F5F5F5F5F5F5F5F5F5F5F5F5F5F5F5F5F5F5F5F5F5F5F5F5F5F5F5F5F5F5F5F5F5F5F5F5F5F5
310
F5F5F5F5F5F5F5F5F5F5F5F5F5F5F5F5F5F5F5F5F5F5F5F5F5F5F5F5F5F5F5F5F5F5F5F5F5F5F5F5F5F5F5F5F5F5F5F5F5F5F5F5F5F5F5F5F5F5F5F5F5F5F5F5F5F5F5F5F5F5F5F5F5F5F5F5F5F5F5F5F5F5F5F5F5F5F5F5F5F5F5F5F5F5F5F5F5F5F5F5F5F5F5F5F5F5F5F5F5F5F5F5F5F5F5F5F5F5E2E2F5F5E2F5F5F5E2
310
E2E2E2E2E2E2E2E2E2E2E2E2E2E2E2E2E2E2E2E2E2E2E2E2E2E2E2E2E2E2E2E2E2E2E2E2E2E2E2E2E2E2E2E2E2E2E2E2E2E2E2E2E2E2E2E2E2E2E2E2E2E2E2E2E2E2E2E2E2E2E2E2E2E2E2E2E2E2E2E2E2E2E2E2E2E2E2E2E2E2E2E2E2E2E2E2E2E2E2E2E2E2E2E2E2E2E2E2E2E2E2E2E2E2E2E2E2E2E2E2E2E2E2E2E2E2E2
310
E2E2E2E2E2E2E2E2E2E2E2E2E2E2E2E2E2E2E2E2E2E2E2E2E2E2E2E2E2E2E2E2E2E2E2E2E2E2E2E2E2E2E2E2E2E2F5F5E2F5F5F5F5F5F5F5F5F5F5F5F5F5F5F5F5F5F5F5F5F5F5F5F5F5F5F5F5F5F5F5F5F5F5F5F5F5F5F5F5F5F5F5F5F5F5F5F5F5F5F5F5F5F5F5F5F5F5F5F5F5F5F5F5F5F5F5F5F5F5F5F5F5F5F5F5F5F5
310
F5F5F5F5F5F5F5F5F5F5F5F5F5F5F5F5F5F5F5F5F5F5F5F5F5F5F5F5F5F5F5F5F5F5F5F5F5F5F5F5F5F5F5F5F5F5F5F5F5F5F5F5F5F5F5F5F5F5F5F5F5F5F5F5F5F5F5F5F5F5F5F5F5F5F5F5F5F5F5F5F5F5F5F5F5F5F5F5F5F5F5F5F5F5F5F5F5F5F5F5F5E2F5F5F5F5F5F5F5F5F5F5F5F5F5F5F5F5F5F5F5F5F5F5F5F5F5
310
F5F5F5F5F5F5F5F5F5F5F5F5F5F5F5F5F5F5F5F5F5F5F5F5F5F5F5F5F5F5F5F5F5F5F5F5F5F5F5F5F5F5F5F5F5F5F5F5F5F5F5F5F5F5F5F5F5F5F5F5F5F5F5F5F5F5F5F5F5F5F5F5F5F5F5F5F5F5F5F5F5F5F5F5F5F5F5F5F5F5F5F5F5F5F5F5F5F5F5F5F5F5F5F5F5F5F5F5F5F5F5F5F5F5F5F5F5F5F5F5F5F5F5F5F5F5F5
310
F5F5F5F5F5F5F5F5F5F5F5F5F5F5F5F5F5F5F5F5F5F5F5F5F5F5F5
  0
XRECORD
  5
58A4
102
{ACAD_REACTORS
330
5436
102
}
330
5436
100
AcDbXrecord
280
     1
102
MATERIAL
148
0.0
149
0.0
149
0.0
 93
        0
 94
      127
282
     0
 72
     0
 77
     0
171
     0
175
     0
179
     0
273
     0
  0
XRECORD
  5
5438
102
{ACAD_REACTORS
330
5436
102
}
330
5436
100
AcDbXrecord
280
     1
270
     1
271
     1
  0
XRECORD
  5
5437
102
{ACAD_REACTORS
330
5436
102
}
330
5436
100
AcDbXrecord
280
     1
270
     1
271
     1
  0
XRECORD
  5
543B
102
{ACAD_REACTORS
330
5436
102
}
330
5436
100
AcDbXrecord
280
     1
270
     1
271
     1
  0
XRECORD
  5
543A
102
{ACAD_REACTORS
330
5436
102
}
330
5436
100
AcDbXrecord
280
     1
270
     1
271
     1
  0
XRECORD
  5
543C
102
{ACAD_REACTORS
330
5436
102
}
330
5436
100
AcDbXrecord
280
     1
270
     1
271
     1
  0
XRECORD
  5
5439
102
{ACAD_REACTORS
330
5436
102
}
330
5436
100
AcDbXrecord
280
     1
270
     1
271
     1
  0
XRECORD
  5
58A3
102
{ACAD_REACTORS
330
542E
102
}
330
542E
100
AcDbXrecord
280
     1
102
MATERIAL
148
0.0
149
0.0
149
0.0
 93
        0
 94
      127
282
     0
 72
     0
 77
     0
171
     0
175
     0
179
     0
273
     0
  0
XRECORD
  5
5430
102
{ACAD_REACTORS
330
542E
102
}
330
542E
100
AcDbXrecord
280
     1
270
     1
271
     1
  0
XRECORD
  5
542F
102
{ACAD_REACTORS
330
542E
102
}
330
542E
100
AcDbXrecord
280
     1
270
     1
271
     1
  0
XRECORD
  5
5433
102
{ACAD_REACTORS
330
542E
102
}
330
542E
100
AcDbXrecord
280
     1
270
     1
271
     1
  0
XRECORD
  5
5432
102
{ACAD_REACTORS
330
542E
102
}
330
542E
100
AcDbXrecord
280
     1
270
     1
271
     1
  0
XRECORD
  5
5434
102
{ACAD_REACTORS
330
542E
102
}
330
542E
100
AcDbXrecord
280
     1
270
     1
271
     1
  0
XRECORD
  5
5431
102
{ACAD_REACTORS
330
542E
102
}
330
542E
100
AcDbXrecord
280
     1
270
     1
271
     1
  0
XRECORD
  5
58A5
102
{ACAD_REACTORS
330
543E
102
}
330
543E
100
AcDbXrecord
280
     1
102
MATERIAL
148
0.0
149
0.0
149
0.0
 93
        0
 94
      127
282
     0
 72
     0
 77
     0
171
     0
175
     0
179
     0
273
     0
  0
XRECORD
  5
5440
102
{ACAD_REACTORS
330
543E
102
}
330
543E
100
AcDbXrecord
280
     1
270
     1
271
     1
  0
XRECORD
  5
543F
102
{ACAD_REACTORS
330
543E
102
}
330
543E
100
AcDbXrecord
280
     1
270
     1
271
     1
  0
XRECORD
  5
5443
102
{ACAD_REACTORS
330
543E
102
}
330
543E
100
AcDbXrecord
280
     1
270
     1
271
     1
  0
XRECORD
  5
5442
102
{ACAD_REACTORS
330
543E
102
}
330
543E
100
AcDbXrecord
280
     1
270
     1
271
     1
  0
XRECORD
  5
5444
102
{ACAD_REACTORS
330
543E
102
}
330
543E
100
AcDbXrecord
280
     1
270
     1
271
     1
  0
XRECORD
  5
5441
102
{ACAD_REACTORS
330
543E
102
}
330
543E
100
AcDbXrecord
280
     1
270
     1
271
     1
  0
CELLSTYLEMAP
  5
58A2
102
{ACAD_REACTORS
330
5685
102
}
330
5685
100
AcDbCellStyleMap
 90
        3
300
CELLSTYLE
  1
TABLEFORMAT_BEGIN
 90
        5
170
     1
 91
        0
 92
    32768
 62
   257
 93
        1
300
CONTENTFORMAT
  1
CONTENTFORMAT_BEGIN
 90
        0
 91
        0
 92
      512
 93
        0
300

 40
0.0
140
1.0
 94
        5
 62
     0
340
11
144
6.0
309
CONTENTFORMAT_END
171
     1
301
MARGIN
  1
CELLMARGIN_BEGIN
 40
1.5
 40
1.5
 40
1.5
 40
1.5
 40
4.5
 40
4.5
309
CELLMARGIN_END
 94
        6
 95
        1
302
GRIDFORMAT
  1
GRIDFORMAT_BEGIN
 90
        0
 91
        1
 62
     0
 92
       -2
340
0
 93
        0
 40
1.125
309
GRIDFORMAT_END
 95
        2
302
GRIDFORMAT
  1
GRIDFORMAT_BEGIN
 90
        0
 91
        1
 62
     0
 92
       -2
340
0
 93
        0
 40
1.125
309
GRIDFORMAT_END
 95
        4
302
GRIDFORMAT
  1
GRIDFORMAT_BEGIN
 90
        0
 91
        1
 62
     0
 92
       -2
340
0
 93
        0
 40
1.125
309
GRIDFORMAT_END
 95
        8
302
GRIDFORMAT
  1
GRIDFORMAT_BEGIN
 90
        0
 91
        1
 62
     0
 92
       -2
340
0
 93
        0
 40
1.125
309
GRIDFORMAT_END
 95
       16
302
GRIDFORMAT
  1
GRIDFORMAT_BEGIN
 90
        0
 91
        1
 62
     0
 92
       -2
340
0
 93
        0
 40
1.125
309
GRIDFORMAT_END
 95
       32
302
GRIDFORMAT
  1
GRIDFORMAT_BEGIN
 90
        0
 91
        1
 62
     0
 92
       -2
340
0
 93
        0
 40
1.125
309
GRIDFORMAT_END
309
TABLEFORMAT_END
  1
CELLSTYLE_BEGIN
 90
        1
 91
        1
300
_TITLE
309
CELLSTYLE_END
300
CELLSTYLE
  1
TABLEFORMAT_BEGIN
 90
        5
170
     1
 91
        0
 92
        0
 62
   257
 93
        1
300
CONTENTFORMAT
  1
CONTENTFORMAT_BEGIN
 90
        0
 91
        0
 92
      512
 93
        0
300

 40
0.0
140
1.0
 94
        5
 62
     0
340
11
144
4.5
309
CONTENTFORMAT_END
171
     1
301
MARGIN
  1
CELLMARGIN_BEGIN
 40
1.5
 40
1.5
 40
1.5
 40
1.5
 40
4.5
 40
4.5
309
CELLMARGIN_END
 94
        6
 95
        1
302
GRIDFORMAT
  1
GRIDFORMAT_BEGIN
 90
        0
 91
        1
 62
     0
 92
       -2
340
0
 93
        0
 40
1.125
309
GRIDFORMAT_END
 95
        2
302
GRIDFORMAT
  1
GRIDFORMAT_BEGIN
 90
        0
 91
        1
 62
     0
 92
       -2
340
0
 93
        0
 40
1.125
309
GRIDFORMAT_END
 95
        4
302
GRIDFORMAT
  1
GRIDFORMAT_BEGIN
 90
        0
 91
        1
 62
     0
 92
       -2
340
0
 93
        0
 40
1.125
309
GRIDFORMAT_END
 95
        8
302
GRIDFORMAT
  1
GRIDFORMAT_BEGIN
 90
        0
 91
        1
 62
     0
 92
       -2
340
0
 93
        0
 40
1.125
309
GRIDFORMAT_END
 95
       16
302
GRIDFORMAT
  1
GRIDFORMAT_BEGIN
 90
        0
 91
        1
 62
     0
 92
       -2
340
0
 93
        0
 40
1.125
309
GRIDFORMAT_END
 95
       32
302
GRIDFORMAT
  1
GRIDFORMAT_BEGIN
 90
        0
 91
        1
 62
     0
 92
       -2
340
0
 93
        0
 40
1.125
309
GRIDFORMAT_END
309
TABLEFORMAT_END
  1
CELLSTYLE_BEGIN
 90
        2
 91
        1
300
_HEADER
309
CELLSTYLE_END
300
CELLSTYLE
  1
TABLEFORMAT_BEGIN
 90
        5
170
     1
 91
        0
 92
        0
 62
   257
 93
        1
300
CONTENTFORMAT
  1
CONTENTFORMAT_BEGIN
 90
        0
 91
        0
 92
      512
 93
        0
300

 40
0.0
140
1.0
 94
        2
 62
     0
340
11
144
4.5
309
CONTENTFORMAT_END
171
     1
301
MARGIN
  1
CELLMARGIN_BEGIN
 40
1.5
 40
1.5
 40
1.5
 40
1.5
 40
4.5
 40
4.5
309
CELLMARGIN_END
 94
        6
 95
        1
302
GRIDFORMAT
  1
GRIDFORMAT_BEGIN
 90
        0
 91
        1
 62
     0
 92
       -2
340
0
 93
        0
 40
1.125
309
GRIDFORMAT_END
 95
        2
302
GRIDFORMAT
  1
GRIDFORMAT_BEGIN
 90
        0
 91
        1
 62
     0
 92
       -2
340
0
 93
        0
 40
1.125
309
GRIDFORMAT_END
 95
        4
302
GRIDFORMAT
  1
GRIDFORMAT_BEGIN
 90
        0
 91
        1
 62
     0
 92
       -2
340
0
 93
        0
 40
1.125
309
GRIDFORMAT_END
 95
        8
302
GRIDFORMAT
  1
GRIDFORMAT_BEGIN
 90
        0
 91
        1
 62
     0
 92
       -2
340
0
 93
        0
 40
1.125
309
GRIDFORMAT_END
 95
       16
302
GRIDFORMAT
  1
GRIDFORMAT_BEGIN
 90
        0
 91
        1
 62
     0
 92
       -2
340
0
 93
        0
 40
1.125
309
GRIDFORMAT_END
 95
       32
302
GRIDFORMAT
  1
GRIDFORMAT_BEGIN
 90
        0
 91
        1
 62
     0
 92
       -2
340
0
 93
        0
 40
1.125
309
GRIDFORMAT_END
309
TABLEFORMAT_END
  1
CELLSTYLE_BEGIN
 90
        3
 91
        2
300
_DATA
309
CELLSTYLE_END
  0
XRECORD
  5
58A6
102
{ACAD_REACTORS
330
5685
102
}
330
5685
100
AcDbXrecord
280
     1
102
ACAD_ROUNDTRIP_PRE2007_TABLESTYLE
 90
      512
 91
        0
  1

 92
      512
 93
        0
  2

 94
      512
 95
        0
  3

  0
ENDSEC
  0
EOF
