  0
SECTION
  2
HEADER
  9
$ACADVER
  1
AC1018
  9
$ACADMAINTVER
 70
   104
  9
$DWGCODEPAGE
  3
ANSI_1252
  9
$LASTSAVEDBY
  1
kk
  9
$INSBASE
 10
0.0
 20
0.0
 30
0.0
  9
$EXTMIN
 10
358.8526095523498
 20
132.7593580816343
 30
0.0
  9
$EXTMAX
 10
545.3520737308429
 20
340.5367520325623
 30
0.0
  9
$LIMMIN
 10
0.0
 20
0.0
  9
$LIMMAX
 10
420.0
 20
297.0
  9
$ORTHOMODE
 70
     0
  9
$REGENMODE
 70
     1
  9
$FILLMODE
 70
     1
  9
$QTEXTMODE
 70
     0
  9
$MIRRTEXT
 70
     1
  9
$LTSCALE
 40
1.0
  9
$ATTMODE
 70
     1
  9
$TEXTSIZE
 40
2.5
  9
$TRACEWID
 40
1.0
  9
$TEXTSTYLE
  7
Standard
  9
$CLAYER
  8
0
  9
$CELTYPE
  6
ByLayer
  9
$CECOLOR
 62
   256
  9
$CELTSCALE
 40
1.0
  9
$DISPSILH
 70
     0
  9
$DIMSCALE
 40
1.0
  9
$DIMASZ
 40
2.5
  9
$DIMEXO
 40
0.625
  9
$DIMDLI
 40
3.75
  9
$DIMRND
 40
0.0
  9
$DIMDLE
 40
0.0
  9
$DIMEXE
 40
1.25
  9
$DIMTP
 40
0.0
  9
$DIMTM
 40
0.0
  9
$DIMTXT
 40
2.5
  9
$DIMCEN
 40
2.5
  9
$DIMTSZ
 40
0.0
  9
$DIMTOL
 70
     0
  9
$DIMLIM
 70
     0
  9
$DIMTIH
 70
     1
  9
$DIMTOH
 70
     0
  9
$DIMSE1
 70
     0
  9
$DIMSE2
 70
     0
  9
$DIMTAD
 70
     1
  9
$DIMZIN
 70
     8
  9
$DIMBLK
  1

  9
$DIMASO
 70
     1
  9
$DIMSHO
 70
     1
  9
$DIMPOST
  1

  9
$DIMAPOST
  1

  9
$DIMALT
 70
     0
  9
$DIMALTD
 70
     2
  9
$DIMALTF
 40
0.0394
  9
$DIMLFAC
 40
1.0
  9
$DIMTOFL
 70
     1
  9
$DIMTVP
 40
1.0
  9
$DIMTIX
 70
     0
  9
$DIMSOXD
 70
     0
  9
$DIMSAH
 70
     0
  9
$DIMBLK1
  1

  9
$DIMBLK2
  1

  9
$DIMSTYLE
  2
DIN
  9
$DIMCLRD
 70
     0
  9
$DIMCLRE
 70
     0
  9
$DIMCLRT
 70
     0
  9
$DIMTFAC
 40
1.0
  9
$DIMGAP
 40
0.625
  9
$DIMJUST
 70
     0
  9
$DIMSD1
 70
     0
  9
$DIMSD2
 70
     0
  9
$DIMTOLJ
 70
     1
  9
$DIMTZIN
 70
     0
  9
$DIMALTZ
 70
     0
  9
$DIMALTTZ
 70
     0
  9
$DIMUPT
 70
     0
  9
$DIMDEC
 70
     4
  9
$DIMTDEC
 70
     4
  9
$DIMALTU
 70
     8
  9
$DIMALTTD
 70
     2
  9
$DIMTXSTY
  7
Standard
  9
$DIMAUNIT
 70
     0
  9
$DIMADEC
 70
     0
  9
$DIMALTRND
 40
0.0
  9
$DIMAZIN
 70
     0
  9
$DIMDSEP
 70
    46
  9
$DIMATFIT
 70
     3
  9
$DIMFRAC
 70
     0
  9
$DIMLDRBLK
  1

  9
$DIMLUNIT
 70
     6
  9
$DIMLWD
 70
    -2
  9
$DIMLWE
 70
    -2
  9
$DIMTMOVE
 70
     0
  9
$LUNITS
 70
     2
  9
$LUPREC
 70
     4
  9
$SKETCHINC
 40
1.0
  9
$FILLETRAD
 40
2.0
  9
$AUNITS
 70
     0
  9
$AUPREC
 70
     0
  9
$MENU
  1
.
  9
$ELEVATION
 40
0.0
  9
$PELEVATION
 40
0.0
  9
$THICKNESS
 40
0.0
  9
$LIMCHECK
 70
     0
  9
$CHAMFERA
 40
10.0
  9
$CHAMFERB
 40
10.0
  9
$CHAMFERC
 40
20.0
  9
$CHAMFERD
 40
0.0
  9
$SKPOLY
 70
     0
  9
$TDCREATE
 40
2452747.423617974
  9
$TDUCREATE
 40
2452747.340284641
  9
$TDUPDATE
 40
2455412.577393843
  9
$TDUUPDATE
 40
2455412.494060510
  9
$TDINDWG
 40
0.2193048843
  9
$TDUSRTIMER
 40
0.2193048843
  9
$USRTIMER
 70
     1
  9
$ANGBASE
 50
0.0
  9
$ANGDIR
 70
     0
  9
$PDMODE
 70
     0
  9
$PDSIZE
 40
0.0
  9
$PLINEWID
 40
0.0
  9
$SPLFRAME
 70
     0
  9
$SPLINETYPE
 70
     6
  9
$SPLINESEGS
 70
     8
  9
$HANDSEED
  5
1D0C
  9
$SURFTAB1
 70
     6
  9
$SURFTAB2
 70
     6
  9
$SURFTYPE
 70
     6
  9
$SURFU
 70
     6
  9
$SURFV
 70
     6
  9
$UCSBASE
  2

  9
$UCSNAME
  2

  9
$UCSORG
 10
0.0
 20
0.0
 30
0.0
  9
$UCSXDIR
 10
1.0
 20
0.0
 30
0.0
  9
$UCSYDIR
 10
0.0
 20
1.0
 30
0.0
  9
$UCSORTHOREF
  2

  9
$UCSORTHOVIEW
 70
     0
  9
$UCSORGTOP
 10
0.0
 20
0.0
 30
0.0
  9
$UCSORGBOTTOM
 10
0.0
 20
0.0
 30
0.0
  9
$UCSORGLEFT
 10
0.0
 20
0.0
 30
0.0
  9
$UCSORGRIGHT
 10
0.0
 20
0.0
 30
0.0
  9
$UCSORGFRONT
 10
0.0
 20
0.0
 30
0.0
  9
$UCSORGBACK
 10
0.0
 20
0.0
 30
0.0
  9
$PUCSBASE
  2

  9
$PUCSNAME
  2

  9
$PUCSORG
 10
0.0
 20
0.0
 30
0.0
  9
$PUCSXDIR
 10
1.0
 20
0.0
 30
0.0
  9
$PUCSYDIR
 10
0.0
 20
1.0
 30
0.0
  9
$PUCSORTHOREF
  2

  9
$PUCSORTHOVIEW
 70
     0
  9
$PUCSORGTOP
 10
0.0
 20
0.0
 30
0.0
  9
$PUCSORGBOTTOM
 10
0.0
 20
0.0
 30
0.0
  9
$PUCSORGLEFT
 10
0.0
 20
0.0
 30
0.0
  9
$PUCSORGRIGHT
 10
0.0
 20
0.0
 30
0.0
  9
$PUCSORGFRONT
 10
0.0
 20
0.0
 30
0.0
  9
$PUCSORGBACK
 10
0.0
 20
0.0
 30
0.0
  9
$USERI1
 70
     0
  9
$USERI2
 70
     0
  9
$USERI3
 70
     0
  9
$USERI4
 70
     0
  9
$USERI5
 70
     0
  9
$USERR1
 40
0.0
  9
$USERR2
 40
0.0
  9
$USERR3
 40
0.0
  9
$USERR4
 40
0.0
  9
$USERR5
 40
0.0
  9
$WORLDVIEW
 70
     1
  9
$SHADEDGE
 70
     3
  9
$SHADEDIF
 70
    70
  9
$TILEMODE
 70
     0
  9
$MAXACTVP
 70
    64
  9
$PINSBASE
 10
0.0
 20
0.0
 30
0.0
  9
$PLIMCHECK
 70
     0
  9
$PEXTMIN
 10
0.0
 20
0.0
 30
0.0
  9
$PEXTMAX
 10
210.0
 20
297.0
 30
0.0
  9
$PLIMMIN
 10
-5.877474836766263
 20
-13.10186532834567
  9
$PLIMMAX
 10
215.797284243984
 20
300.3712748991296
  9
$UNITMODE
 70
     0
  9
$VISRETAIN
 70
     1
  9
$PLINEGEN
 70
     0
  9
$PSLTSCALE
 70
     1
  9
$TREEDEPTH
 70
  3020
  9
$CMLSTYLE
  2
Standard
  9
$CMLJUST
 70
     0
  9
$CMLSCALE
 40
20.0
  9
$PROXYGRAPHICS
 70
     1
  9
$MEASUREMENT
 70
     1
  9
$CELWEIGHT
370
    -1
  9
$ENDCAPS
280
     0
  9
$JOINSTYLE
280
     0
  9
$LWDISPLAY
290
     1
  9
$INSUNITS
 70
     4
  9
$HYPERLINKBASE
  1

  9
$STYLESHEET
  1

  9
$XEDIT
290
     1
  9
$CEPSNTYPE
380
     0
  9
$PSTYLEMODE
290
     1
  9
$FINGERPRINTGUID
  2
{FDEAD570-A652-11D2-9A35-0060089B3A3F}
  9
$VERSIONGUID
  2
{6E0EA623-6898-46AD-AE32-8DEB22891DEF}
  9
$EXTNAMES
290
     1
  9
$PSVPSCALE
 40
0.0
  9
$OLESTARTUP
290
     0
  9
$SORTENTS
280
   127
  9
$INDEXCTL
280
     0
  9
$HIDETEXT
280
     0
  9
$XCLIPFRAME
290
     0
  9
$HALOGAP
280
     0
  9
$OBSCOLOR
 70
   257
  9
$OBSLTYPE
280
     0
  9
$INTERSECTIONDISPLAY
280
     0
  9
$INTERSECTIONCOLOR
 70
   257
  9
$DIMASSOC
280
     1
  9
$PROJECTNAME
  1

  0
ENDSEC
  0
SECTION
  2
CLASSES
  0
CLASS
  1
ACDBDICTIONARYWDFLT
  2
AcDbDictionaryWithDefault
  3
ObjectDBX Classes
 90
        0
 91
        1
280
     0
281
     0
  0
CLASS
  1
PLOTSETTINGS
  2
AcDbPlotSettings
  3
ObjectDBX Classes
 90
        0
 91
        1
280
     0
281
     0
  0
CLASS
  1
DICTIONARYVAR
  2
AcDbDictionaryVar
  3
ObjectDBX Classes
 90
        0
 91
        6
280
     0
281
     0
  0
CLASS
  1
SORTENTSTABLE
  2
AcDbSortentsTable
  3
ObjectDBX Classes
 90
        0
 91
        3
280
     0
281
     0
  0
CLASS
  1
MATERIAL
  2
AcDbMaterial
  3
ObjectDBX Classes
 90
     1153
 91
        3
280
     0
281
     0
  0
CLASS
  1
VISUALSTYLE
  2
AcDbVisualStyle
  3
ObjectDBX Classes
 90
     4095
 91
       16
280
     0
281
     0
  0
CLASS
  1
TABLESTYLE
  2
AcDbTableStyle
  3
ObjectDBX Classes
 90
     4095
 91
        1
280
     0
281
     0
  0
CLASS
  1
SCALE
  2
AcDbScale
  3
ObjectDBX Classes
 90
     1153
 91
       33
280
     0
281
     0
  0
CLASS
  1
MLEADERSTYLE
  2
AcDbMLeaderStyle
  3
ACDB_MLEADERSTYLE_CLASS
 90
     4095
 91
        1
280
     0
281
     0
  0
CLASS
  1
CELLSTYLEMAP
  2
AcDbCellStyleMap
  3
ObjectDBX Classes
 90
     1152
 91
        2
280
     0
281
     0
  0
ENDSEC
  0
SECTION
  2
TABLES
  0
TABLE
  2
VPORT
  5
8
102
{ACAD_XDICTIONARY
360
1CF5
102
}
330
0
100
AcDbSymbolTable
 70
     1
  0
VPORT
  5
1784
330
8
100
AcDbSymbolTableRecord
100
AcDbViewportTableRecord
  2
*Active
 70
     0
 10
0.0
 20
0.0
 11
1.0
 21
1.0
 12
452.1090847484701
 22
236.6380195929597
 13
0.0
 23
0.0
 14
10.0
 24
10.0
 15
10.0
 25
10.0
 16
0.0
 26
0.0
 36
1.0
 17
0.0
 27
0.0
 37
0.0
 40
210.1515584021639
 41
1.789077212806026
 42
50.0
 43
0.0
 44
0.0
 50
0.0
 51
0.0
 71
     0
 72
   100
 73
     1
 74
     3
 75
     0
 76
     0
 77
     0
 78
     0
281
     0
 65
     1
110
0.0
120
0.0
130
0.0
111
1.0
121
0.0
131
0.0
112
0.0
122
1.0
132
0.0
 79
     0
146
0.0
  0
ENDTAB
  0
TABLE
  2
LTYPE
  5
5
330
0
100
AcDbSymbolTable
 70
     4
  0
LTYPE
  5
14
330
5
100
AcDbSymbolTableRecord
100
AcDbLinetypeTableRecord
  2
ByBlock
 70
     0
  3

 72
    65
 73
     0
 40
0.0
  0
LTYPE
  5
15
330
5
100
AcDbSymbolTableRecord
100
AcDbLinetypeTableRecord
  2
ByLayer
 70
     0
  3

 72
    65
 73
     0
 40
0.0
  0
LTYPE
  5
16
330
5
100
AcDbSymbolTableRecord
100
AcDbLinetypeTableRecord
  2
Continuous
 70
     0
  3
Solid line
 72
    65
 73
     0
 40
0.0
  0
LTYPE
  5
145
330
5
100
AcDbSymbolTableRecord
100
AcDbLinetypeTableRecord
  2
STRICHPUNKT
 70
     0
  3
__ . __ . __ . __ . __ . __ . __ . __ . __ . __
 72
    65
 73
     4
 40
1.0
 49
0.5
 74
     0
 49
-0.25
 74
     0
 49
0.0
 74
     0
 49
-0.25
 74
     0
  0
LTYPE
  5
146
330
5
100
AcDbSymbolTableRecord
100
AcDbLinetypeTableRecord
  2
GEN7A
 70
     0
  3
__ . __ . __
 72
    65
 73
     4
 40
6.875
 49
4.75
 74
     0
 49
-0.875
 74
     0
 49
0.375
 74
     0
 49
-0.875
 74
     0
  0
LTYPE
  5
1B29
330
5
100
AcDbSymbolTableRecord
100
AcDbLinetypeTableRecord
  2
GEN3A
 70
     0
  3
 - - - - -
 72
    65
 73
     2
 40
3.125
 49
2.25
 74
     0
 49
-0.875
 74
     0
  0
ENDTAB
  0
TABLE
  2
LAYER
  5
2
102
{ACAD_XDICTIONARY
360
17E7
102
}
330
0
100
AcDbSymbolTable
 70
    18
  0
LAYER
  5
10
102
{ACAD_XDICTIONARY
360
1977
102
}
330
2
100
AcDbSymbolTableRecord
100
AcDbLayerTableRecord
  2
0
 70
     0
 62
     7
  6
Continuous
370
    -3
390
F
  0
LAYER
  5
33
102
{ACAD_XDICTIONARY
360
1979
102
}
330
2
100
AcDbSymbolTableRecord
100
AcDbLayerTableRecord
  2
RAHMEN025
 70
     0
 62
     7
  6
Continuous
370
    -3
390
F
  0
LAYER
  5
36
102
{ACAD_XDICTIONARY
360
197B
102
}
330
2
100
AcDbSymbolTableRecord
100
AcDbLayerTableRecord
  2
RAHMEN07
 70
     0
 62
     5
  6
Continuous
370
    -3
390
F
  0
LAYER
  5
5C
102
{ACAD_XDICTIONARY
360
197D
102
}
330
2
100
AcDbSymbolTableRecord
100
AcDbLayerTableRecord
  2
RAHMEN05
 70
     0
 62
     6
  6
Continuous
370
    -3
390
F
  0
LAYER
  5
72
102
{ACAD_XDICTIONARY
360
197F
102
}
330
2
100
AcDbSymbolTableRecord
100
AcDbLayerTableRecord
  2
RAHMEN035
 70
     0
 62
     2
  6
Continuous
370
    -3
390
F
  0
LAYER
  5
85
102
{ACAD_XDICTIONARY
360
1981
102
}
330
2
100
AcDbSymbolTableRecord
100
AcDbLayerTableRecord
  2
Title Block
 70
     0
 62
     7
  6
Continuous
370
    -3
390
F
  0
LAYER
  5
86
102
{ACAD_XDICTIONARY
360
1983
102
}
330
2
100
AcDbSymbolTableRecord
100
AcDbLayerTableRecord
  2
Viewport
 70
     0
 62
     7
  6
Continuous
370
    -3
390
F
  0
LAYER
  5
147
330
2
100
AcDbSymbolTableRecord
100
AcDbLayerTableRecord
  2
DEFPOINTS
 70
     0
 62
     7
  6
Continuous
290
     0
370
    -3
390
F
  0
LAYER
  5
148
102
{ACAD_XDICTIONARY
360
1985
102
}
330
2
100
AcDbSymbolTableRecord
100
AcDbLayerTableRecord
  2
7A
 70
     0
 62
     4
  6
GEN7A
370
    -3
390
F
  0
LAYER
  5
149
102
{ACAD_XDICTIONARY
360
1987
102
}
330
2
100
AcDbSymbolTableRecord
100
AcDbLayerTableRecord
  2
GEV_FROZEN
 70
     1
 62
     7
  6
Continuous
370
    -3
390
F
  0
LAYER
  5
14A
102
{ACAD_XDICTIONARY
360
1989
102
}
330
2
100
AcDbSymbolTableRecord
100
AcDbLayerTableRecord
  2
THLI
 70
     0
 62
     7
  6
Continuous
370
    -3
390
F
  0
LAYER
  5
14B
102
{ACAD_XDICTIONARY
360
198B
102
}
330
2
100
AcDbSymbolTableRecord
100
AcDbLayerTableRecord
  2
CENN
 70
     0
 62
     7
  6
Continuous
370
    -3
390
F
  0
LAYER
  5
14C
102
{ACAD_XDICTIONARY
360
198D
102
}
330
2
100
AcDbSymbolTableRecord
100
AcDbLayerTableRecord
  2
4
 70
     0
 62
     3
  6
Continuous
370
    -3
390
F
  0
LAYER
  5
14D
102
{ACAD_XDICTIONARY
360
198F
102
}
330
2
100
AcDbSymbolTableRecord
100
AcDbLayerTableRecord
  2
BHMM
 70
     0
 62
     7
  6
Continuous
370
    -3
390
F
  0
LAYER
  5
14F
102
{ACAD_XDICTIONARY
360
1991
102
}
330
2
100
AcDbSymbolTableRecord
100
AcDbLayerTableRecord
  2
1
 70
     0
 62
     7
  6
STRICHPUNKT
370
    -3
390
F
  0
LAYER
  5
150
102
{ACAD_XDICTIONARY
360
1993
102
}
330
2
100
AcDbSymbolTableRecord
100
AcDbLayerTableRecord
  2
3
 70
     0
 62
     6
  6
Continuous
370
    -3
390
F
  0
LAYER
  5
1678
102
{ACAD_XDICTIONARY
360
1995
102
}
330
2
100
AcDbSymbolTableRecord
100
AcDbLayerTableRecord
  2
Hellblau
 70
     0
 62
   140
  6
Continuous
370
    -3
390
F
  0
LAYER
  5
1B2A
330
2
100
AcDbSymbolTableRecord
100
AcDbLayerTableRecord
  2
3A
 70
     0
 62
     6
  6
GEN3A
370
    -3
390
F
  0
ENDTAB
  0
TABLE
  2
STYLE
  5
3
330
0
100
AcDbSymbolTable
 70
     2
  0
STYLE
  5
11
330
3
100
AcDbSymbolTableRecord
100
AcDbTextStyleTableRecord
  2
Standard
 70
     0
 40
0.0
 41
1.0
 50
0.0
 71
     0
 42
2.5
  3
txt
  4

  0
STYLE
  5
42
330
3
100
AcDbSymbolTableRecord
100
AcDbTextStyleTableRecord
  2
ISO Proportional
 70
     0
 40
0.0
 41
1.0
 50
0.0
 71
     0
 42
2.5
  3
isocp.shx
  4

  0
ENDTAB
  0
TABLE
  2
VIEW
  5
6
330
0
100
AcDbSymbolTable
 70
     0
  0
ENDTAB
  0
TABLE
  2
UCS
  5
7
330
0
100
AcDbSymbolTable
 70
     0
  0
ENDTAB
  0
TABLE
  2
APPID
  5
9
330
0
100
AcDbSymbolTable
 70
    12
  0
APPID
  5
12
330
9
100
AcDbSymbolTableRecord
100
AcDbRegAppTableRecord
  2
ACAD
 70
     0
  0
APPID
  5
157
330
9
100
AcDbSymbolTableRecord
100
AcDbRegAppTableRecord
  2
GENIUS_GENODEF_13
 70
     0
  0
APPID
  5
158
330
9
100
AcDbSymbolTableRecord
100
AcDbRegAppTableRecord
  2
GENIUS_GENOREF_13
 70
     0
  0
APPID
  5
159
330
9
100
AcDbSymbolTableRecord
100
AcDbRegAppTableRecord
  2
VCC
 70
     0
  0
APPID
  5
15A
330
9
100
AcDbSymbolTableRecord
100
AcDbRegAppTableRecord
  2
GEVPT
 70
     0
  0
APPID
  5
15B
330
9
100
AcDbSymbolTableRecord
100
AcDbRegAppTableRecord
  2
GEVIT
 70
     0
  0
APPID
  5
15C
330
9
100
AcDbSymbolTableRecord
100
AcDbRegAppTableRecord
  2
GENBH
 70
     0
  0
APPID
  5
15D
330
9
100
AcDbSymbolTableRecord
100
AcDbRegAppTableRecord
  2
GENIUS_GEFPARTINS_13
 70
     0
  0
APPID
  5
15E
330
9
100
AcDbSymbolTableRecord
100
AcDbRegAppTableRecord
  2
GEVID954573509
 70
     0
  0
APPID
  5
15F
330
9
100
AcDbSymbolTableRecord
100
AcDbRegAppTableRecord
  2
GENIUS_GENFIL_13
 70
     0
  0
APPID
  5
160
330
9
100
AcDbSymbolTableRecord
100
AcDbRegAppTableRecord
  2
GENIUS_GENOBJ-N-CHA_13
 70
     0
  0
APPID
  5
17D7
330
9
100
AcDbSymbolTableRecord
100
AcDbRegAppTableRecord
  2
ACAD_MLEADERVER
 70
     0
  0
ENDTAB
  0
TABLE
  2
DIMSTYLE
  5
A
330
0
100
AcDbSymbolTable
 70
     2
100
AcDbDimStyleTable
 71
     2
340
7F
340
634
  0
DIMSTYLE
105
7F
102
{ACAD_REACTORS
330
13B5
330
17FE
330
1840
330
18A7
330
18B4
330
18C1
330
19D5
330
1BEA
102
}
330
A
100
AcDbSymbolTableRecord
100
AcDbDimStyleTableRecord
  2
DIN
 70
     0
 41
2.5
 42
0.625
 43
3.75
 44
1.25
 74
     0
 77
     1
 78
     8
140
2.5
141
2.5
143
0.0394
145
1.0
147
0.625
172
     1
273
     8
277
     6
340
11
  0
DIMSTYLE
105
634
102
{ACAD_REACTORS
330
DE4
330
DE3
330
DE2
330
DE1
102
}
330
A
100
AcDbSymbolTableRecord
100
AcDbDimStyleTableRecord
  2
-UNTEN
 70
     0
 41
2.5
 42
0.625
 43
3.75
 44
1.25
 74
     0
 77
     1
 78
     8
140
2.0
141
2.5
143
0.0394
145
1.0
147
0.625
172
     1
273
     8
283
     0
340
11
  0
ENDTAB
  0
TABLE
  2
BLOCK_RECORD
  5
1
330
0
100
AcDbSymbolTable
 70
    20
  0
BLOCK_RECORD
  5
1F
102
{ACAD_XDICTIONARY
360
164B
102
}
330
1
100
AcDbSymbolTableRecord
100
AcDbBlockTableRecord
  2
*Model_Space
340
22
  0
BLOCK_RECORD
  5
1B
330
1
100
AcDbSymbolTableRecord
100
AcDbBlockTableRecord
  2
*Paper_Space
340
1E
  0
BLOCK_RECORD
  5
31
330
1
100
AcDbSymbolTableRecord
100
AcDbBlockTableRecord
  2
DIN A4 title block
340
0
310
2800000020000000200000000100080000000000000400000000000000000000000000000000000000000000000080000080000000808000800000008000800080800000C0C0C000C0DCC000F0CAA6000020400000206000002080000020A0000020C0000020E00000400000004020000040400000406000004080000040A0
310
000040C0000040E00000600000006020000060400000606000006080000060A0000060C0000060E00000800000008020000080400000806000008080000080A0000080C0000080E00000A0000000A0200000A0400000A0600000A0800000A0A00000A0C00000A0E00000C0000000C0200000C0400000C0600000C0800000C0
310
A00000C0C00000C0E00000E0000000E0200000E0400000E0600000E0800000E0A00000E0C00000E0E00040000000400020004000400040006000400080004000A0004000C0004000E00040200000402020004020400040206000402080004020A0004020C0004020E000404000004040200040404000404060004040800040
310
40A0004040C0004040E00040600000406020004060400040606000406080004060A0004060C0004060E00040800000408020004080400040806000408080004080A0004080C0004080E00040A0000040A0200040A0400040A0600040A0800040A0A00040A0C00040A0E00040C0000040C0200040C0400040C0600040C08000
310
40C0A00040C0C00040C0E00040E0000040E0200040E0400040E0600040E0800040E0A00040E0C00040E0E00080000000800020008000400080006000800080008000A0008000C0008000E00080200000802020008020400080206000802080008020A0008020C0008020E00080400000804020008040400080406000804080
310
008040A0008040C0008040E00080600000806020008060400080606000806080008060A0008060C0008060E00080800000808020008080400080806000808080008080A0008080C0008080E00080A0000080A0200080A0400080A0600080A0800080A0A00080A0C00080A0E00080C0000080C0200080C0400080C0600080C0
310
800080C0A00080C0C00080C0E00080E0000080E0200080E0400080E0600080E0800080E0A00080E0C00080E0E000C0000000C0002000C0004000C0006000C0008000C000A000C000C000C000E000C0200000C0202000C0204000C0206000C0208000C020A000C020C000C020E000C0400000C0402000C0404000C0406000C0
310
408000C040A000C040C000C040E000C0600000C0602000C0604000C0606000C0608000C060A000C060C000C060E000C0800000C0802000C0804000C0806000C0808000C080A000C080C000C080E000C0A00000C0A02000C0A04000C0A06000C0A08000C0A0A000C0A0C000C0A0E000C0C00000C0C02000C0C04000C0C06000
310
C0C08000C0C0A000F0FBFF00A4A0A000808080000000FF0000FF000000FFFF00FF000000FF00FF00FFFF0000FFFFFF00FFFFFFFFFFFFFFFFFFFFFFFFFFFFFFFFFFFFFFFFFFFFFFFFFFFFFFFFFFFFFFFFFFFFFFFFFFFF0000000000000000000000000000000000000000FFFFFFFFFFFFFFFFFFFFFFFF00000000000000FCFC
310
FCFC0000FCFC0000000000FFFFFFFFFFFFFFFFFFFFFFFF0000000000000000FC00FCFDFDFDFDFDFDFD0000FFFFFFFFFFFFFFFFFFFFFFFF000000000000000000000000FFFDFDFDFDFFFFFCFFFFFFFFFFFFFFFFFFFFFFFF000000000000000000000000FFFDFDFDFDFFFFFCFFFFFFFFFFFFFFFFFFFFFFFF00FC00FC00FC0000
310
FC00FC00000000FCFCFCFCFCFFFFFFFFFFFFFFFFFFFFFFFF0000000000FC0000000000000000000000000000FFFFFFFFFFFFFFFFFFFFFFFF00FCFFFFFFFFFFFFFFFFFFFFFFFFFFFFFFFFFFFCFFFFFFFFFFFFFFFFFFFFFFFF00FCFFFFFFFFFFFFFFFFFFFFFFFFFFFFFFFFFFFCFFFFFFFFFFFFFFFFFFFFFFFF00FCFFFFFFFFFF
310
FFFFFFFFFFFFFFFFFFFFFFFFFCFFFFFFFFFFFFFFFFFFFFFFFF00FCFFFFFFFFFFFFFFFFFFFFFFFFFFFFFFFFFFFCFFFFFFFFFFFFFFFFFFFFFFFF00FCFFFFFFFFFFFFFFFFFFFFFFFFFFFFFFFFFFFCFFFFFFFFFFFFFFFFFFFFFFFF00FCFFFFFFFFFFFFFFFFFFFFFFFFFFFFFFFFFFFCFFFFFFFFFFFFFFFFFFFFFFFF00FCFFFFFFFF
310
FFFFFFFFFFFFFFFFFFFFFFFFFFFCFFFFFFFFFFFFFFFFFFFFFFFF00FCFFFFFFFFFFFFFFFFFFFFFFFFFFFFFFFFFFFCFFFFFFFFFFFFFFFFFFFFFFFF00FCFFFFFFFFFFFFFFFFFFFFFFFFFFFFFFFFFFFCFFFFFFFFFFFFFFFFFFFFFFFF00FCFFFFFFFFFFFFFFFFFFFFFFFFFFFFFFFFFFFCFFFFFFFFFFFFFFFFFFFFFFFF00FCFFFFFF
310
FFFFFFFFFFFFFFFFFFFFFFFFFFFFFCFFFFFFFFFFFFFFFFFFFFFFFF00FCFFFFFFFFFFFFFFFFFFFFFFFFFFFFFFFFFFFCFFFFFFFFFFFFFFFFFFFFFFFF00FCFFFFFFFFFFFFFFFFFFFFFFFFFFFFFFFFFFFCFFFFFFFFFFFFFFFFFFFFFFFF00FCFFFFFFFFFFFFFFFFFFFFFFFFFFFFFFFFFFFCFFFFFFFFFFFFFFFFFFFFFFFF00FCFFFF
310
FFFFFFFFFFFFFFFFFFFFFFFFFFFFFFFCFFFFFFFFFFFFFFFFFFFFFFFF00FCFFFFFFFFFFFFFFFFFFFFFFFFFFFFFFFFFFFCFFFFFFFFFFFFFFFFFFFFFFFF00FCFFFFFFFFFFFFFFFFFFFFFFFFFFFFFFFFFFFCFFFFFFFFFFFFFFFFFFFFFFFF00FCFFFFFFFFFFFFFFFFFFFFFFFFFFFFFFFFFFFCFFFFFFFFFFFFFFFFFFFFFFFF00FCFF
310
FFFFFFFFFFFFFFFFFFFFFFFFFFFFFFFFFCFFFFFFFFFFFFFFFFFFFFFFFF00FCFFFFFFFFFFFFFFFFFFFFFFFFFFFFFFFFFFFCFFFFFFFFFFFFFFFFFFFFFFFF00FCFFFFFFFFFFFFFFFFFFFFFFFFFFFFFFFFFFFCFFFFFFFFFFFFFFFFFFFFFFFF00FCFCFCFCFCFCFCFCFCFCFCFCFCFCFCFCFCFCFCFFFFFFFFFFFFFFFFFFFFFFFF0000
310
000000000000000000000000000000000000FFFFFFFFFFFFFFFFFFFFFFFFFFFFFFFFFFFFFFFFFFFFFFFFFFFFFFFFFFFFFFFFFFFFFFFFFFFF
102
{BLKREFS
331
75
102
}
1001
ACAD
1000
DesignCenter Data
1002
{
1070
     1
1070
     4
1002
}
  0
BLOCK_RECORD
  5
EE8
330
1
100
AcDbSymbolTableRecord
100
AcDbBlockTableRecord
  2
*D1
340
0
  0
BLOCK_RECORD
  5
EF5
330
1
100
AcDbSymbolTableRecord
100
AcDbBlockTableRecord
  2
*D2
340
0
  0
BLOCK_RECORD
  5
F02
330
1
100
AcDbSymbolTableRecord
100
AcDbBlockTableRecord
  2
*D3
340
0
  0
BLOCK_RECORD
  5
F0F
330
1
100
AcDbSymbolTableRecord
100
AcDbBlockTableRecord
  2
*D4
340
0
  0
BLOCK_RECORD
  5
13B6
330
1
100
AcDbSymbolTableRecord
100
AcDbBlockTableRecord
  2
*D5
340
0
  0
BLOCK_RECORD
  5
17FF
330
1
100
AcDbSymbolTableRecord
100
AcDbBlockTableRecord
  2
*D6
340
0
  0
BLOCK_RECORD
  5
1841
330
1
100
AcDbSymbolTableRecord
100
AcDbBlockTableRecord
  2
*D7
340
0
  0
BLOCK_RECORD
  5
18A8
330
1
100
AcDbSymbolTableRecord
100
AcDbBlockTableRecord
  2
*D8
340
0
  0
BLOCK_RECORD
  5
18B5
330
1
100
AcDbSymbolTableRecord
100
AcDbBlockTableRecord
  2
*D9
340
0
  0
BLOCK_RECORD
  5
18C2
330
1
100
AcDbSymbolTableRecord
100
AcDbBlockTableRecord
  2
*D10
340
0
  0
BLOCK_RECORD
  5
19D7
330
1
100
AcDbSymbolTableRecord
100
AcDbBlockTableRecord
  2
*D11
340
0
  0
BLOCK_RECORD
  5
1A14
330
1
100
AcDbSymbolTableRecord
100
AcDbBlockTableRecord
  2
A$C3EE10CAA
340
0
102
{BLKREFS
331
1A8E
331
1C51
331
1C7F
331
1C86
102
}
  0
BLOCK_RECORD
  5
1A9A
330
1
100
AcDbSymbolTableRecord
100
AcDbBlockTableRecord
  2
A$C15A01CB4
340
0
102
{BLKREFS
331
1AE9
102
}
  0
BLOCK_RECORD
  5
1B09
330
1
100
AcDbSymbolTableRecord
100
AcDbBlockTableRecord
  2
*U14
340
0
102
{BLKREFS
331
1B12
102
}
  0
BLOCK_RECORD
  5
1B10
330
1
100
AcDbSymbolTableRecord
100
AcDbBlockTableRecord
  2
*U15
340
0
102
{BLKREFS
331
1B90
331
1B91
102
}
  0
BLOCK_RECORD
  5
1B18
330
1
100
AcDbSymbolTableRecord
100
AcDbBlockTableRecord
  2
A$C563F488A
340
0
102
{BLKREFS
331
1BD5
102
}
  0
BLOCK_RECORD
  5
1BEB
330
1
100
AcDbSymbolTableRecord
100
AcDbBlockTableRecord
  2
*D17
340
0
  0
BLOCK_RECORD
  5
1C7E
102
{ACAD_XDICTIONARY
360
1C80
102
}
330
1
100
AcDbSymbolTableRecord
100
AcDbBlockTableRecord
  2
A$C50921526
340
0
102
{BLKREFS
331
1C84
102
}
1001
ACAD
1000
DesignCenter Data
1002
{
1070
     1
1070
     4
1002
}
  0
BLOCK_RECORD
  5
1C85
102
{ACAD_XDICTIONARY
360
1C87
102
}
330
1
100
AcDbSymbolTableRecord
100
AcDbBlockTableRecord
  2
A$C7F285EBB
340
0
102
{BLKREFS
331
1C8B
102
}
1001
ACAD
1000
DesignCenter Data
1002
{
1070
     1
1070
     4
1002
}
  0
ENDTAB
  0
ENDSEC
  0
SECTION
  2
BLOCKS
  0
BLOCK
  5
20
330
1F
100
AcDbEntity
  8
0
100
AcDbBlockBegin
  2
*Model_Space
 70
     0
 10
0.0
 20
0.0
 30
0.0
  3
*Model_Space
  1

  0
ENDBLK
  5
21
330
1F
100
AcDbEntity
  8
0
100
AcDbBlockEnd
  0
BLOCK
  5
1C
330
1B
100
AcDbEntity
 67
     1
  8
0
100
AcDbBlockBegin
  2
*Paper_Space
 70
     0
 10
0.0
 20
0.0
 30
0.0
  3
*Paper_Space
  1

  0
ENDBLK
  5
1D
330
1B
100
AcDbEntity
 67
     1
  8
0
100
AcDbBlockEnd
  0
BLOCK
  5
71
330
31
100
AcDbEntity
  8
RAHMEN035
100
AcDbBlockBegin
  2
DIN A4 title block
 70
     2
 10
0.0
 20
0.0
 30
0.0
  3
DIN A4 title block
  1

  4
DIN A4 title block and attributes
  0
LINE
  5
32
330
31
100
AcDbEntity
  8
RAHMEN025
100
AcDbLine
 10
210.0
 20
0.0
 30
0.0
 11
210.0
 21
297.0
 31
0.0
  0
LINE
  5
34
330
31
100
AcDbEntity
  8
RAHMEN025
100
AcDbLine
 10
0.0
 20
297.0
 30
0.0
 11
0.0
 21
0.0
 31
0.0
  0
LINE
  5
35
330
31
100
AcDbEntity
  8
RAHMEN07
100
AcDbLine
 10
205.0
 20
5.0
 30
0.0
 11
205.0
 21
292.0
 31
0.0
  0
LINE
  5
37
330
31
100
AcDbEntity
  8
RAHMEN07
100
AcDbLine
 10
17.80000000000027
 20
5.0
 30
0.0
 11
17.80000000000027
 21
292.0
 31
0.0
  0
LINE
  5
38
330
31
100
AcDbEntity
  8
RAHMEN025
100
AcDbLine
 10
0.0
 20
0.0
 30
0.0
 11
210.0
 21
0.0
 31
0.0
  0
LINE
  5
39
330
31
100
AcDbEntity
  8
RAHMEN025
100
AcDbLine
 10
17.80000000000027
 20
9.25
 30
0.0
 11
205.0
 21
9.25
 31
0.0
  0
LINE
  5
3A
330
31
100
AcDbEntity
  8
RAHMEN07
100
AcDbLine
 10
17.80000000000027
 20
60.25000000000002
 30
0.0
 11
205.0000000000002
 21
60.25000000000002
 31
0.0
  0
LINE
  5
3B
330
31
100
AcDbEntity
  8
RAHMEN07
100
AcDbLine
 10
17.80000000000027
 20
22.0
 30
0.0
 11
205.0
 21
22.0
 31
0.0
  0
LINE
  5
3C
330
31
100
AcDbEntity
  8
RAHMEN07
100
AcDbLine
 10
17.80000000000027
 20
43.24999999999998
 30
0.0
 11
205.0000000000002
 21
43.24999999999998
 31
0.0
  0
LINE
  5
3D
330
31
100
AcDbEntity
  8
RAHMEN025
100
AcDbLine
 10
17.80000000000027
 20
39.00000000000002
 30
0.0
 11
116.6000000000002
 21
39.00000000000002
 31
0.0
  0
LINE
  5
3E
330
31
100
AcDbEntity
  8
RAHMEN025
100
AcDbLine
 10
17.80000000000027
 20
34.75000000000001
 30
0.0
 11
116.6000000000001
 21
34.75000000000001
 31
0.0
  0
LINE
  5
3F
330
31
100
AcDbEntity
  8
RAHMEN025
100
AcDbLine
 10
17.80000000000027
 20
30.50000000000002
 30
0.0
 11
116.6000000000001
 21
30.50000000000002
 31
0.0
  0
LINE
  5
40
330
31
100
AcDbEntity
  8
RAHMEN025
100
AcDbLine
 10
17.80000000000027
 20
26.25000000000002
 30
0.0
 11
116.6000000000001
 21
26.25000000000002
 31
0.0
  0
TEXT
  5
41
330
31
100
AcDbEntity
  8
RAHMEN025
100
AcDbText
 10
73.65231252739386
 20
5.875
 30
0.0
 40
2.5
  1
Ursprung
  7
ISO Proportional
100
AcDbText
  0
TEXT
  5
43
330
31
100
AcDbEntity
  8
RAHMEN025
100
AcDbText
 10
72.89893356388438
 20
27.12500000000002
 30
0.0
 40
2.5
  1
Norm
  7
ISO Proportional
100
AcDbText
  0
TEXT
  5
44
330
31
100
AcDbEntity
  8
RAHMEN025
100
AcDbText
 10
72.89893356388438
 20
31.37500000000001
 30
0.0
 40
2.5
  1
Gepr.
  7
ISO Proportional
100
AcDbText
  0
TEXT
  5
45
330
31
100
AcDbEntity
  8
RAHMEN025
100
AcDbText
 10
72.89893356388438
 20
35.62500000000002
 30
0.0
 40
2.5
  1
Bearb.
  7
ISO Proportional
100
AcDbText
  0
TEXT
  5
46
330
31
100
AcDbEntity
  8
RAHMEN025
100
AcDbText
 10
74.00366595510707
 20
55.81250000000001
 30
0.0
 40
2.5
  1
(Zul. Abw.)
  7
ISO Proportional
100
AcDbText
  0
LINE
  5
47
330
31
100
AcDbEntity
  8
RAHMEN07
100
AcDbLine
 10
17.80000000000027
 20
5.0
 30
0.0
 11
205.0
 21
5.0
 31
0.0
  0
TEXT
  5
48
330
31
100
AcDbEntity
  8
RAHMEN025
100
AcDbText
 10
19.40366595510713
 20
55.81250000000001
 30
0.0
 40
2.5
  1
(Verwendungsbereich)
  7
ISO Proportional
100
AcDbText
  0
LINE
  5
49
330
31
100
AcDbEntity
  8
RAHMEN025
100
AcDbLine
 10
72.4000000000002
 20
60.25000000000002
 30
0.0
 11
72.4000000000002
 21
5.0
 31
0.0
  0
LINE
  5
4A
330
31
100
AcDbEntity
  8
RAHMEN025
100
AcDbLine
 10
25.60000000000028
 20
43.25000000000001
 30
0.0
 11
25.60000000000025
 21
5.0
 31
0.0
  0
LINE
  5
4B
330
31
100
AcDbEntity
  8
RAHMEN025
100
AcDbLine
 10
51.60000000000025
 20
43.25000000000001
 30
0.0
 11
51.60000000000025
 21
5.0
 31
0.0
  0
LINE
  5
4C
330
31
100
AcDbEntity
  8
RAHMEN025
100
AcDbLine
 10
64.60000000000025
 20
43.25000000000001
 30
0.0
 11
64.60000000000025
 21
5.0
 31
0.0
  0
TEXT
  5
4D
330
31
100
AcDbEntity
  8
RAHMEN025
100
AcDbText
 10
18.11472997742618
 20
5.875
 30
0.0
 40
2.5
  1
Zust.
  7
ISO Proportional
100
AcDbText
  0
TEXT
  5
4E
330
31
100
AcDbEntity
  8
RAHMEN025
100
AcDbText
 10
31.18543904041607
 20
5.875
 30
0.0
 40
2.5
  1
Änderung
  7
ISO Proportional
100
AcDbText
  0
TEXT
  5
4F
330
31
100
AcDbEntity
  8
RAHMEN025
100
AcDbText
 10
53.41162858072454
 20
5.875
 30
0.0
 40
2.5
  1
Datum
  7
ISO Proportional
100
AcDbText
  0
TEXT
  5
50
330
31
100
AcDbEntity
  8
RAHMEN025
100
AcDbText
 10
64.67503184848237
 20
5.875
 30
0.0
 40
2.5
  1
Name
  7
ISO Proportional
100
AcDbText
  0
LINE
  5
51
330
31
100
AcDbEntity
  8
RAHMEN025
100
AcDbLine
 10
17.80000000000027
 20
13.5
 30
0.0
 11
72.4000000000002
 21
13.5
 31
0.0
  0
LINE
  5
52
330
31
100
AcDbEntity
  8
RAHMEN025
100
AcDbLine
 10
17.80000000000027
 20
17.75
 30
0.0
 11
72.4000000000002
 21
17.75
 31
0.0
  0
LINE
  5
53
330
31
100
AcDbEntity
  8
RAHMEN025
100
AcDbLine
 10
116.6000000000002
 20
60.25000000000002
 30
0.0
 11
116.6000000000001
 21
5.0
 31
0.0
  0
LINE
  5
54
330
31
100
AcDbEntity
  8
RAHMEN025
100
AcDbLine
 10
98.40000000000026
 20
60.25000000000002
 30
0.0
 11
98.40000000000021
 21
22.0
 31
0.0
  0
TEXT
  5
55
330
31
100
AcDbEntity
  8
RAHMEN025
100
AcDbText
 10
99.84609815315639
 20
55.81250000000001
 30
0.0
 40
2.5
  1
(Oberfl.)
  7
ISO Proportional
100
AcDbText
  0
TEXT
  5
56
330
31
100
AcDbEntity
  8
RAHMEN025
100
AcDbText
 10
169.7262599024917
 20
55.81250000000001
 30
0.0
 40
2.5
  1
(Gewicht)
  7
ISO Proportional
100
AcDbText
  0
LINE
  5
57
330
31
100
AcDbEntity
  8
RAHMEN025
100
AcDbLine
 10
168.6000000000002
 20
60.24999999999995
 30
0.0
 11
168.6000000000002
 21
53.87500000000001
 31
0.0
  0
LINE
  5
58
330
31
100
AcDbEntity
  8
RAHMEN025
100
AcDbLine
 10
116.6000000000002
 20
53.87500000000001
 30
0.0
 11
205.0000000000002
 21
53.87500000000001
 31
0.0
  0
TEXT
  5
59
330
31
100
AcDbEntity
  8
RAHMEN025
100
AcDbText
 10
117.7620476356918
 20
44.12499999999998
 30
0.0
 40
2.5
  1
(Modell- oder Gesenk-Nr)
  7
ISO Proportional
100
AcDbText
  0
TEXT
  5
5A
330
31
100
AcDbEntity
  8
RAHMEN025
100
AcDbText
 10
117.7620476356918
 20
50.34635004497819
 30
0.0
 40
2.5
  1
(Werkstoff, Halbzeug)
  7
ISO Proportional
100
AcDbText
  0
ATTDEF
  5
5B
330
31
100
AcDbEntity
  8
RAHMEN05
100
AcDbText
 10
144.500744468706
 20
30.55510922715244
 30
0.0
 40
5.0
  1
Benennung
  7
ISO Proportional
 72
     4
 11
160.5913536854751
 21
32.21450001038333
 31
0.0
100
AcDbAttributeDefinition
  3
Benennung
  2
BENENNUNG
 70
     0
  0
ATTDEF
  5
5D
330
31
100
AcDbEntity
  8
RAHMEN05
100
AcDbText
 10
147.5035696603037
 20
12.82473610229667
 30
0.0
 40
5.0
  1
XXX
  7
ISO Proportional
 72
     4
 11
154.2535696603037
 21
15.32473610229667
 31
0.0
100
AcDbAttributeDefinition
  3
Zeichnungsnummer
  2
ZEICHNUNGSNUMMER
 70
     0
  0
TEXT
  5
5E
330
31
100
AcDbEntity
  8
RAHMEN025
100
AcDbText
 10
118.2767000439928
 20
5.875
 30
0.0
 40
2.5
  1
Ersatz für:
  7
ISO Proportional
100
AcDbText
  0
ATTDEF
  5
5F
330
31
100
AcDbEntity
  8
RAHMEN025
100
AcDbText
 10
99.71813410214245
 20
31.45603256725529
 30
0.0
 40
2.5
  1
XXX
  7
ISO Proportional
100
AcDbAttributeDefinition
  3
Geprüft von
  2
NAME
 70
     0
  0
ATTDEF
  5
60
330
31
100
AcDbEntity
  8
RAHMEN025
100
AcDbText
 10
83.45502135033781
 20
31.45603256725529
 30
0.0
 40
2.5
  1
00.00.00
  7
ISO Proportional
100
AcDbAttributeDefinition
  3
Geprüft am
  2
GEPRÜFT
 70
     0
  0
LINE
  5
61
330
31
100
AcDbEntity
  8
RAHMEN025
100
AcDbLine
 10
82.80000000000024
 20
43.24999999999998
 30
0.0
 11
82.80000000000018
 21
22.00000000000003
 31
0.0
  0
ATTDEF
  5
62
330
31
100
AcDbEntity
  8
RAHMEN025
100
AcDbText
 10
83.45502135033781
 20
35.70603256725529
 30
0.0
 40
2.5
  1
00.00.00
  7
ISO Proportional
100
AcDbAttributeDefinition
  3
Bearbeitet am
  2
BEARBEIT.
 70
     0
  0
TEXT
  5
63
330
31
100
AcDbEntity
  8
RAHMEN025
100
AcDbText
 10
86.62791085491761
 20
39.87500000000002
 30
0.0
 40
2.5
  1
Datum
  7
ISO Proportional
100
AcDbText
  0
ATTDEF
  5
64
330
31
100
AcDbEntity
  8
RAHMEN025
100
AcDbText
 10
99.71813410214245
 20
35.70603256725529
 30
0.0
 40
2.5
  1
XXX
  7
ISO Proportional
100
AcDbAttributeDefinition
  3
Gezeichnet von
  2
NAME
 70
     0
  0
TEXT
  5
65
330
31
100
AcDbEntity
  8
RAHMEN025
100
AcDbText
 10
103.1733221513886
 20
39.87500000000002
 30
0.0
 40
2.5
  1
Name
  7
ISO Proportional
100
AcDbText
  0
TEXT
  5
66
330
31
100
AcDbEntity
  8
RAHMEN025
100
AcDbText
 10
117.7620476356918
 20
47.25715873595926
 30
0.0
 40
2.5
  1
(Rohteil-Nr)
  7
ISO Proportional
100
AcDbText
  0
LINE
  5
67
330
31
100
AcDbEntity
  8
RAHMEN025
100
AcDbLine
 10
192.0000000000001
 20
21.99999999999999
 30
0.0
 11
192.0000000000001
 21
9.25
 31
0.0
  0
TEXT
  5
68
330
31
100
AcDbEntity
  8
RAHMEN025
100
AcDbText
 10
162.4767000439927
 20
5.875
 30
0.0
 40
2.5
  1
Ersatz durch:
  7
ISO Proportional
100
AcDbText
  0
LINE
  5
69
330
31
100
AcDbEntity
  8
RAHMEN025
100
AcDbLine
 10
160.8
 20
9.25
 30
0.0
 11
160.8
 21
4.999999999999914
 31
0.0
  0
TEXT
  5
6A
330
31
100
AcDbEntity
  8
RAHMEN025
100
AcDbText
 10
192.912259483322
 20
10.25579083555395
 30
0.0
 40
2.5
  1
Blätter
  7
ISO Proportional
100
AcDbText
  0
LINE
  5
6B
330
31
100
AcDbEntity
  8
RAHMEN025
100
AcDbLine
 10
192.0
 20
13.5
 30
0.0
 11
205.0
 21
13.5
 31
0.0
  0
TEXT
  5
6C
330
31
100
AcDbEntity
  8
RAHMEN025
100
AcDbText
 10
192.9084594911225
 20
18.63219445009372
 30
0.0
 40
2.5
  1
Blatt
  7
ISO Proportional
100
AcDbText
  0
ATTDEF
  5
6D
330
31
100
AcDbEntity
  8
RAHMEN025
100
AcDbText
 10
133.3916231867287
 20
55.81250000000001
 30
0.0
 40
2.5
  1
1:1
  7
ISO Proportional
100
AcDbAttributeDefinition
  3
Maßstab
  2
MAßSTAB
 70
     0
  0
TEXT
  5
6E
330
31
100
AcDbEntity
  8
RAHMEN025
100
AcDbText
 10
117.7262599024917
 20
55.81250000000001
 30
0.0
 40
2.5
  1
Maßstab
  7
ISO Proportional
100
AcDbText
  0
LINE
  5
6F
330
31
100
AcDbEntity
  8
RAHMEN025
100
AcDbLine
 10
210.0
 20
297.0
 30
0.0
 11
0.0
 21
297.0
 31
0.0
  0
LINE
  5
70
330
31
100
AcDbEntity
  8
RAHMEN07
100
AcDbLine
 10
205.0
 20
292.0
 30
0.0
 11
17.80000000000027
 21
292.0
 31
0.0
  0
ENDBLK
  5
73
330
31
100
AcDbEntity
  8
RAHMEN035
100
AcDbBlockEnd
  0
BLOCK
  5
EF3
330
EE8
100
AcDbEntity
  8
0
100
AcDbBlockBegin
  2
*D1
 70
     1
 10
0.0
 20
0.0
 30
0.0
  3
*D1
  1

  0
LINE
  5
196D
330
EE8
100
AcDbEntity
  8
3
 62
     0
370
    -2
100
AcDbLine
 10
373.0506554637655
 20
320.4905197495668
 30
0.0
 11
360.2276095523499
 21
320.4905197495668
 31
0.0
  0
LINE
  5
196E
330
EE8
100
AcDbEntity
  8
3
 62
     0
370
    -2
100
AcDbLine
 10
374.7401437396939
 20
310.4898648921166
 30
0.0
 11
360.2276095523499
 21
310.4898648921166
 31
0.0
  0
LINE
  5
196F
330
EE8
100
AcDbEntity
  8
3
 62
     0
370
    -2
100
AcDbLine
 10
361.4776095523499
 20
317.9905197495668
 30
0.0
 11
361.4776095523499
 21
312.9898648921166
 31
0.0
  0
LINE
  5
1970
330
EE8
100
AcDbEntity
  8
3
 62
     0
370
    -2
100
AcDbLine
 10
361.4776095523499
 20
310.4898648921166
 30
0.0
 11
361.4776095523499
 21
304.4065315587833
 31
0.0
  0
SOLID
  5
1971
330
EE8
100
AcDbEntity
  8
3
 62
     0
100
AcDbTrace
 10
361.0609428856832
 20
317.9905197495668
 30
0.0
 11
361.8942762190166
 21
317.9905197495668
 31
0.0
 12
361.4776095523499
 22
320.4905197495668
 32
0.0
 13
361.4776095523499
 23
320.4905197495668
 33
0.0
  0
SOLID
  5
1972
330
EE8
100
AcDbEntity
  8
3
 62
     0
100
AcDbTrace
 10
361.0609428856832
 20
312.9898648921166
 30
0.0
 11
361.8942762190166
 21
312.9898648921166
 31
0.0
 12
361.4776095523499
 22
310.4898648921166
 32
0.0
 13
361.4776095523499
 23
310.4898648921166
 33
0.0
  0
MTEXT
  5
1973
330
EE8
100
AcDbEntity
  8
3
 62
     0
100
AcDbMText
 10
359.8526095523498
 20
306.19819822545
 30
0.0
 40
2.0
 41
0.0
 71
     5
 72
     1
  1
10
 11
0.0000000000000001
 21
1.0
 31
0.0
 73
     1
 44
1.0
  0
POINT
  5
1974
330
EE8
100
AcDbEntity
  8
DEFPOINTS
 62
     0
100
AcDbPoint
 10
373.6756554637655
 20
320.4905197495668
 30
0.0
  0
POINT
  5
1975
330
EE8
100
AcDbEntity
  8
DEFPOINTS
 62
     0
100
AcDbPoint
 10
375.365143739694
 20
310.4898648921166
 30
0.0
  0
POINT
  5
1976
330
EE8
100
AcDbEntity
  8
DEFPOINTS
 62
     0
100
AcDbPoint
 10
361.4776095523499
 20
310.4898648921166
 30
0.0
  0
ENDBLK
  5
EF4
330
EE8
100
AcDbEntity
  8
0
100
AcDbBlockEnd
  0
BLOCK
  5
F00
330
EF5
100
AcDbEntity
  8
0
100
AcDbBlockBegin
  2
*D2
 70
     1
 10
0.0
 20
0.0
 30
0.0
  3
*D2
  1

  0
LINE
  5
1959
330
EF5
100
AcDbEntity
  8
3
 62
     0
370
    -2
100
AcDbLine
 10
373.0506554637655
 20
319.4905197495668
 30
0.0
 11
363.2739754770989
 21
319.4905197495668
 31
0.0
  0
LINE
  5
195A
330
EF5
100
AcDbEntity
  8
3
 62
     0
370
    -2
100
AcDbLine
 10
374.7401437396939
 20
310.4898648921166
 30
0.0
 11
363.2739754770989
 21
310.4898648921166
 31
0.0
  0
LINE
  5
195B
330
EF5
100
AcDbEntity
  8
3
 62
     0
370
    -2
100
AcDbLine
 10
364.5239754770989
 20
316.9905197495668
 30
0.0
 11
364.5239754770989
 21
312.9898648921166
 31
0.0
  0
LINE
  5
195C
330
EF5
100
AcDbEntity
  8
3
 62
     0
370
    -2
100
AcDbLine
 10
364.5239754770989
 20
310.4898648921166
 30
0.0
 11
364.5239754770989
 21
305.4065315587834
 31
0.0
  0
SOLID
  5
195D
330
EF5
100
AcDbEntity
  8
3
 62
     0
100
AcDbTrace
 10
364.1073088104322
 20
316.9905197495668
 30
0.0
 11
364.9406421437656
 21
316.9905197495668
 31
0.0
 12
364.5239754770989
 22
319.4905197495668
 32
0.0
 13
364.5239754770989
 23
319.4905197495668
 33
0.0
  0
SOLID
  5
195E
330
EF5
100
AcDbEntity
  8
3
 62
     0
100
AcDbTrace
 10
364.1073088104322
 20
312.9898648921166
 30
0.0
 11
364.9406421437656
 21
312.9898648921166
 31
0.0
 12
364.5239754770989
 22
310.4898648921166
 32
0.0
 13
364.5239754770989
 23
310.4898648921166
 33
0.0
  0
MTEXT
  5
195F
330
EF5
100
AcDbEntity
  8
3
 62
     0
100
AcDbMText
 10
362.8989754770988
 20
306.69819822545
 30
0.0
 40
2.0
 41
0.0
 71
     5
 72
     1
  1
9
 11
0.0000000000000001
 21
1.0
 31
0.0
 73
     1
 44
1.0
  0
POINT
  5
1960
330
EF5
100
AcDbEntity
  8
DEFPOINTS
 62
     0
100
AcDbPoint
 10
373.6756554637655
 20
319.4905197495668
 30
0.0
  0
POINT
  5
1961
330
EF5
100
AcDbEntity
  8
DEFPOINTS
 62
     0
100
AcDbPoint
 10
375.365143739694
 20
310.4898648921166
 30
0.0
  0
POINT
  5
1962
330
EF5
100
AcDbEntity
  8
DEFPOINTS
 62
     0
100
AcDbPoint
 10
364.5239754770989
 20
310.4898648921166
 30
0.0
  0
ENDBLK
  5
F01
330
EF5
100
AcDbEntity
  8
0
100
AcDbBlockEnd
  0
BLOCK
  5
F0D
330
F02
100
AcDbEntity
  8
0
100
AcDbBlockBegin
  2
*D3
 70
     1
 10
0.0
 20
0.0
 30
0.0
  3
*D3
  1

  0
LINE
  5
1945
330
F02
100
AcDbEntity
  8
3
 62
     0
370
    -2
100
AcDbLine
 10
372.8380867378877
 20
318.4905197495668
 30
0.0
 11
366.3203414018478
 21
318.4905197495668
 31
0.0
  0
LINE
  5
1946
330
F02
100
AcDbEntity
  8
3
 62
     0
370
    -2
100
AcDbLine
 10
374.7401437396939
 20
310.4898648921166
 30
0.0
 11
366.3203414018478
 21
310.4898648921166
 31
0.0
  0
LINE
  5
1947
330
F02
100
AcDbEntity
  8
3
 62
     0
370
    -2
100
AcDbLine
 10
367.5703414018478
 20
315.9905197495668
 30
0.0
 11
367.5703414018478
 21
312.9898648921166
 31
0.0
  0
LINE
  5
1948
330
F02
100
AcDbEntity
  8
3
 62
     0
370
    -2
100
AcDbLine
 10
367.5703414018478
 20
310.4898648921166
 30
0.0
 11
367.5703414018478
 21
305.4065315587834
 31
0.0
  0
SOLID
  5
1949
330
F02
100
AcDbEntity
  8
3
 62
     0
100
AcDbTrace
 10
367.1536747351811
 20
315.9905197495668
 30
0.0
 11
367.9870080685144
 21
315.9905197495668
 31
0.0
 12
367.5703414018478
 22
318.4905197495668
 32
0.0
 13
367.5703414018478
 23
318.4905197495668
 33
0.0
  0
SOLID
  5
194A
330
F02
100
AcDbEntity
  8
3
 62
     0
100
AcDbTrace
 10
367.1536747351811
 20
312.9898648921166
 30
0.0
 11
367.9870080685144
 21
312.9898648921166
 31
0.0
 12
367.5703414018478
 22
310.4898648921166
 32
0.0
 13
367.5703414018478
 23
310.4898648921166
 33
0.0
  0
MTEXT
  5
194B
330
F02
100
AcDbEntity
  8
3
 62
     0
100
AcDbMText
 10
365.9453414018477
 20
306.69819822545
 30
0.0
 40
2.0
 41
0.0
 71
     5
 72
     1
  1
8
 11
0.0000000000000001
 21
1.0
 31
0.0
 73
     1
 44
1.0
  0
POINT
  5
194C
330
F02
100
AcDbEntity
  8
DEFPOINTS
 62
     0
100
AcDbPoint
 10
373.4630867378877
 20
318.4905197495668
 30
0.0
  0
POINT
  5
194D
330
F02
100
AcDbEntity
  8
DEFPOINTS
 62
     0
100
AcDbPoint
 10
375.365143739694
 20
310.4898648921166
 30
0.0
  0
POINT
  5
194E
330
F02
100
AcDbEntity
  8
DEFPOINTS
 62
     0
100
AcDbPoint
 10
367.5703414018478
 20
310.4898648921166
 30
0.0
  0
ENDBLK
  5
F0E
330
F02
100
AcDbEntity
  8
0
100
AcDbBlockEnd
  0
BLOCK
  5
F1A
330
F0F
100
AcDbEntity
  8
0
100
AcDbBlockBegin
  2
*D4
 70
     1
 10
0.0
 20
0.0
 30
0.0
  3
*D4
  1

  0
LINE
  5
1931
330
F0F
100
AcDbEntity
  8
3
 62
     0
370
    -2
100
AcDbLine
 10
372.8380867378877
 20
317.4905197495668
 30
0.0
 11
369.2397764716393
 21
317.4905197495668
 31
0.0
  0
LINE
  5
1932
330
F0F
100
AcDbEntity
  8
3
 62
     0
370
    -2
100
AcDbLine
 10
374.7401437396939
 20
310.4898648921166
 30
0.0
 11
369.2397764716393
 21
310.4898648921166
 31
0.0
  0
LINE
  5
1933
330
F0F
100
AcDbEntity
  8
3
 62
     0
370
    -2
100
AcDbLine
 10
370.4897764716392
 20
314.9905197495668
 30
0.0
 11
370.4897764716392
 21
312.9898648921166
 31
0.0
  0
LINE
  5
1934
330
F0F
100
AcDbEntity
  8
3
 62
     0
370
    -2
100
AcDbLine
 10
370.4897764716392
 20
310.4898648921166
 30
0.0
 11
370.4897764716392
 21
305.4065315587834
 31
0.0
  0
SOLID
  5
1935
330
F0F
100
AcDbEntity
  8
3
 62
     0
100
AcDbTrace
 10
370.0731098049725
 20
314.9905197495668
 30
0.0
 11
370.9064431383059
 21
314.9905197495668
 31
0.0
 12
370.4897764716392
 22
317.4905197495668
 32
0.0
 13
370.4897764716392
 23
317.4905197495668
 33
0.0
  0
SOLID
  5
1936
330
F0F
100
AcDbEntity
  8
3
 62
     0
100
AcDbTrace
 10
370.0731098049725
 20
312.9898648921166
 30
0.0
 11
370.9064431383059
 21
312.9898648921166
 31
0.0
 12
370.4897764716392
 22
310.4898648921166
 32
0.0
 13
370.4897764716392
 23
310.4898648921166
 33
0.0
  0
MTEXT
  5
1937
330
F0F
100
AcDbEntity
  8
3
 62
     0
100
AcDbMText
 10
368.8647764716392
 20
306.69819822545
 30
0.0
 40
2.0
 41
0.0
 71
     5
 72
     1
  1
7
 11
0.0000000000000001
 21
1.0
 31
0.0
 73
     1
 44
1.0
  0
POINT
  5
1938
330
F0F
100
AcDbEntity
  8
DEFPOINTS
 62
     0
100
AcDbPoint
 10
373.4630867378877
 20
317.4905197495668
 30
0.0
  0
POINT
  5
1939
330
F0F
100
AcDbEntity
  8
DEFPOINTS
 62
     0
100
AcDbPoint
 10
375.365143739694
 20
310.4898648921166
 30
0.0
  0
POINT
  5
193A
330
F0F
100
AcDbEntity
  8
DEFPOINTS
 62
     0
100
AcDbPoint
 10
370.4897764716392
 20
310.4898648921166
 30
0.0
  0
ENDBLK
  5
F1B
330
F0F
100
AcDbEntity
  8
0
100
AcDbBlockEnd
  0
BLOCK
  5
13C1
330
13B6
100
AcDbEntity
  8
0
100
AcDbBlockBegin
  2
*D5
 70
     1
 10
0.0
 20
0.0
 30
0.0
  3
*D5
  1

  0
LINE
  5
1C35
330
13B6
100
AcDbEntity
  8
3
 62
     0
370
    -2
100
AcDbLine
 10
432.4526731412145
 20
310.4898648921169
 30
0.0
 11
412.1175327718881
 21
310.4898648921169
 31
0.0
  0
LINE
  5
1C36
330
13B6
100
AcDbEntity
  8
3
 62
     0
370
    -2
100
AcDbLine
 10
455.9026731412153
 20
325.9898648921169
 30
0.0
 11
412.1175327718881
 21
325.9898648921169
 31
0.0
  0
LINE
  5
1C37
330
13B6
100
AcDbEntity
  8
3
 62
     0
370
    -2
100
AcDbLine
 10
413.3675327718881
 20
312.9898648921169
 30
0.0
 11
413.3675327718881
 21
323.4898648921169
 31
0.0
  0
LINE
  5
1C38
330
13B6
100
AcDbEntity
  8
3
 62
     0
370
    -2
100
AcDbLine
 10
413.3675327718881
 20
325.9898648921169
 30
0.0
 11
413.3675327718881
 21
333.0731982254502
 31
0.0
  0
SOLID
  5
1C39
330
13B6
100
AcDbEntity
  8
3
 62
     0
100
AcDbTrace
 10
412.9508661052214
 20
312.9898648921169
 30
0.0
 11
413.7841994385548
 21
312.9898648921169
 31
0.0
 12
413.3675327718881
 22
310.4898648921169
 32
0.0
 13
413.3675327718881
 23
310.4898648921169
 33
0.0
  0
SOLID
  5
1C3A
330
13B6
100
AcDbEntity
  8
3
 62
     0
100
AcDbTrace
 10
412.9508661052214
 20
323.4898648921169
 30
0.0
 11
413.7841994385548
 21
323.4898648921169
 31
0.0
 12
413.3675327718881
 22
325.9898648921169
 32
0.0
 13
413.3675327718881
 23
325.9898648921169
 33
0.0
  0
MTEXT
  5
1C3B
330
13B6
100
AcDbEntity
  8
3
 62
     0
100
AcDbMText
 10
411.492532771888
 20
330.7815315587837
 30
0.0
 40
2.5
 41
0.0
 71
     5
 72
     1
  1
\A1;16
 11
0.0000000000000001
 21
1.0
 31
0.0
 73
     1
 44
1.0
  0
POINT
  5
1C3C
330
13B6
100
AcDbEntity
  8
DEFPOINTS
 62
     0
100
AcDbPoint
 10
433.0776731412145
 20
310.4898648921169
 30
0.0
  0
POINT
  5
1C3D
330
13B6
100
AcDbEntity
  8
DEFPOINTS
 62
     0
100
AcDbPoint
 10
456.5276731412153
 20
325.9898648921169
 30
0.0
  0
POINT
  5
1C3E
330
13B6
100
AcDbEntity
  8
DEFPOINTS
 62
     0
100
AcDbPoint
 10
413.3675327718881
 20
325.9898648921169
 30
0.0
  0
ENDBLK
  5
13C2
330
13B6
100
AcDbEntity
  8
0
100
AcDbBlockEnd
  0
BLOCK
  5
1800
330
17FF
100
AcDbEntity
  8
0
100
AcDbBlockBegin
  2
*D6
 70
     1
 10
0.0
 20
0.0
 30
0.0
  3
*D6
  1

  0
LINE
  5
1884
330
17FF
100
AcDbEntity
  8
3
 62
     0
370
    -2
100
AcDbLine
 10
431.0776731412145
 20
309.8648648921169
 30
0.0
 11
431.0776731412145
 21
289.2044911753418
 31
0.0
  0
LINE
  5
1885
330
17FF
100
AcDbEntity
  8
3
 62
     0
370
    -2
100
AcDbLine
 10
435.0776731412145
 20
309.8648648921169
 30
0.0
 11
435.0776731412145
 21
289.2044911753418
 31
0.0
  0
LINE
  5
1886
330
17FF
100
AcDbEntity
  8
3
 62
     0
370
    -2
100
AcDbLine
 10
428.5776731412145
 20
290.4544911753419
 30
0.0
 11
426.0776731412144
 21
290.4544911753419
 31
0.0
  0
LINE
  5
1887
330
17FF
100
AcDbEntity
  8
3
 62
     0
370
    -2
100
AcDbLine
 10
437.5776731412145
 20
290.4544911753419
 30
0.0
 11
445.4943398078811
 21
290.4544911753419
 31
0.0
  0
LINE
  5
1888
330
17FF
100
AcDbEntity
  8
3
 62
     0
370
    -2
100
AcDbLine
 10
431.0776731412145
 20
290.4544911753419
 30
0.0
 11
435.0776731412145
 21
290.4544911753419
 31
0.0
  0
SOLID
  5
1889
330
17FF
100
AcDbEntity
  8
3
 62
     0
100
AcDbTrace
 10
428.5776731412145
 20
290.8711578420085
 30
0.0
 11
428.5776731412145
 21
290.0378245086752
 31
0.0
 12
431.0776731412145
 22
290.4544911753419
 32
0.0
 13
431.0776731412145
 23
290.4544911753419
 33
0.0
  0
SOLID
  5
188A
330
17FF
100
AcDbEntity
  8
3
 62
     0
100
AcDbTrace
 10
437.5776731412145
 20
290.8711578420085
 30
0.0
 11
437.5776731412145
 21
290.0378245086752
 31
0.0
 12
435.0776731412145
 22
290.4544911753419
 32
0.0
 13
435.0776731412145
 23
290.4544911753419
 33
0.0
  0
MTEXT
  5
188B
330
17FF
100
AcDbEntity
  8
3
 62
     0
100
AcDbMText
 10
442.7860064745478
 20
292.3294911753418
 30
0.0
 40
2.5
 41
0.0
 71
     5
 72
     1
  1
\A1;M4
 73
     1
 44
1.0
  0
POINT
  5
188C
330
17FF
100
AcDbEntity
  8
DEFPOINTS
 62
     0
100
AcDbPoint
 10
431.0776731412145
 20
310.4898648921169
 30
0.0
  0
POINT
  5
188D
330
17FF
100
AcDbEntity
  8
DEFPOINTS
 62
     0
100
AcDbPoint
 10
435.0776731412145
 20
310.4898648921169
 30
0.0
  0
POINT
  5
188E
330
17FF
100
AcDbEntity
  8
DEFPOINTS
 62
     0
100
AcDbPoint
 10
435.0776731412145
 20
290.4544911753419
 30
0.0
  0
ENDBLK
  5
1801
330
17FF
100
AcDbEntity
  8
0
100
AcDbBlockEnd
  0
BLOCK
  5
1842
330
1841
100
AcDbEntity
  8
0
100
AcDbBlockBegin
  2
*D7
 70
     1
 10
0.0
 20
0.0
 30
0.0
  3
*D7
  1

  0
LINE
  5
1870
330
1841
100
AcDbEntity
  8
3
 62
     0
370
    -2
100
AcDbLine
 10
421.8276731412149
 20
298.8648671149588
 30
0.0
 11
421.8276731412149
 21
285.8050550862919
 31
0.0
  0
LINE
  5
1871
330
1841
100
AcDbEntity
  8
3
 62
     0
370
    -2
100
AcDbLine
 10
496.8276731412148
 20
298.8648671149591
 30
0.0
 11
496.8276731412148
 21
285.8050550862919
 31
0.0
  0
LINE
  5
1872
330
1841
100
AcDbEntity
  8
3
 62
     0
370
    -2
100
AcDbLine
 10
424.327673141215
 20
287.0550550862919
 30
0.0
 11
494.3276731412149
 21
287.0550550862919
 31
0.0
  0
SOLID
  5
1873
330
1841
100
AcDbEntity
  8
3
 62
     0
100
AcDbTrace
 10
424.327673141215
 20
287.4717217529586
 30
0.0
 11
424.327673141215
 21
286.6383884196253
 31
0.0
 12
421.8276731412149
 22
287.0550550862919
 32
0.0
 13
421.8276731412149
 23
287.0550550862919
 33
0.0
  0
SOLID
  5
1874
330
1841
100
AcDbEntity
  8
3
 62
     0
100
AcDbTrace
 10
494.3276731412149
 20
287.4717217529586
 30
0.0
 11
494.3276731412149
 21
286.6383884196253
 31
0.0
 12
496.8276731412148
 22
287.0550550862919
 32
0.0
 13
496.8276731412148
 23
287.0550550862919
 33
0.0
  0
MTEXT
  5
1875
330
1841
100
AcDbEntity
  8
3
 62
     0
100
AcDbMText
 10
455.0359934336774
 20
288.9300550862919
 30
0.0
 40
2.5
 41
0.0
 71
     5
 72
     1
  1
\A1;75
 73
     1
 44
1.0
  0
POINT
  5
1876
330
1841
100
AcDbEntity
  8
DEFPOINTS
 62
     0
100
AcDbPoint
 10
421.8276731412149
 20
299.4898671149588
 30
0.0
  0
POINT
  5
1877
330
1841
100
AcDbEntity
  8
DEFPOINTS
 62
     0
100
AcDbPoint
 10
496.8276731412148
 20
299.4898671149591
 30
0.0
  0
POINT
  5
1878
330
1841
100
AcDbEntity
  8
DEFPOINTS
 62
     0
100
AcDbPoint
 10
496.8276731412148
 20
287.0550550862919
 30
0.0
  0
ENDBLK
  5
1843
330
1841
100
AcDbEntity
  8
0
100
AcDbBlockEnd
  0
BLOCK
  5
18A9
330
18A8
100
AcDbEntity
  8
0
100
AcDbBlockBegin
  2
*D8
 70
     1
 10
0.0
 20
0.0
 30
0.0
  3
*D8
  1

  0
LINE
  5
1C14
330
18A8
100
AcDbEntity
  8
3
 62
     0
370
    -2
100
AcDbLine
 10
433.0776731412145
 20
311.1148648921169
 30
0.0
 11
433.0776731412145
 21
338.2450853658956
 31
0.0
  0
LINE
  5
1C15
330
18A8
100
AcDbEntity
  8
3
 62
     0
370
    -2
100
AcDbLine
 10
485.5776731412145
 20
311.1148648921169
 30
0.0
 11
485.5776731412145
 21
338.2450853658956
 31
0.0
  0
LINE
  5
1C16
330
18A8
100
AcDbEntity
  8
3
 62
     0
370
    -2
100
AcDbLine
 10
435.5776731412145
 20
336.9950853658957
 30
0.0
 11
483.0776731412145
 21
336.9950853658957
 31
0.0
  0
SOLID
  5
1C17
330
18A8
100
AcDbEntity
  8
3
 62
     0
100
AcDbTrace
 10
435.5776731412145
 20
337.4117520325623
 30
0.0
 11
435.5776731412145
 21
336.578418699229
 31
0.0
 12
433.0776731412145
 22
336.9950853658957
 32
0.0
 13
433.0776731412145
 23
336.9950853658957
 33
0.0
  0
SOLID
  5
1C18
330
18A8
100
AcDbEntity
  8
3
 62
     0
100
AcDbTrace
 10
483.0776731412145
 20
337.4117520325623
 30
0.0
 11
483.0776731412145
 21
336.578418699229
 31
0.0
 12
485.5776731412145
 22
336.9950853658957
 32
0.0
 13
485.5776731412145
 23
336.9950853658957
 33
0.0
  0
MTEXT
  5
1C19
330
18A8
100
AcDbEntity
  8
3
 62
     0
100
AcDbMText
 10
459.2831088117543
 20
339.078418699229
 30
0.0
 40
2.5
 41
0.0
 71
     5
 72
     1
  1
\A1;52,5
 73
     1
 44
1.0
  0
POINT
  5
1C1A
330
18A8
100
AcDbEntity
  8
DEFPOINTS
 62
     0
100
AcDbPoint
 10
433.0776731412145
 20
310.4898648921169
 30
0.0
  0
POINT
  5
1C1B
330
18A8
100
AcDbEntity
  8
DEFPOINTS
 62
     0
100
AcDbPoint
 10
485.5776731412145
 20
310.4898648921169
 30
0.0
  0
POINT
  5
1C1C
330
18A8
100
AcDbEntity
  8
DEFPOINTS
 62
     0
100
AcDbPoint
 10
485.5776731412145
 20
336.9950853658957
 30
0.0
  0
ENDBLK
  5
18AA
330
18A8
100
AcDbEntity
  8
0
100
AcDbBlockEnd
  0
BLOCK
  5
18B6
330
18B5
100
AcDbEntity
  8
0
100
AcDbBlockBegin
  2
*D9
 70
     1
 10
0.0
 20
0.0
 30
0.0
  3
*D9
  1

  0
LINE
  5
1C02
330
18B5
100
AcDbEntity
  8
3
 62
     0
370
    -2
100
AcDbLine
 10
436.277673141215
 20
321.3148671149588
 30
0.0
 11
436.277673141215
 21
333.7950728409257
 31
0.0
  0
LINE
  5
1C03
330
18B5
100
AcDbEntity
  8
3
 62
     0
370
    -2
100
AcDbLine
 10
482.3776731412147
 20
321.314867114959
 30
0.0
 11
482.3776731412147
 21
333.7950728409257
 31
0.0
  0
LINE
  5
1C04
330
18B5
100
AcDbEntity
  8
3
 62
     0
370
    -2
100
AcDbLine
 10
438.777673141215
 20
332.5450728409257
 30
0.0
 11
479.8776731412147
 21
332.5450728409257
 31
0.0
  0
SOLID
  5
1C05
330
18B5
100
AcDbEntity
  8
3
 62
     0
100
AcDbTrace
 10
438.777673141215
 20
332.9617395075924
 30
0.0
 11
438.777673141215
 21
332.128406174259
 31
0.0
 12
436.277673141215
 22
332.5450728409257
 32
0.0
 13
436.277673141215
 23
332.5450728409257
 33
0.0
  0
SOLID
  5
1C06
330
18B5
100
AcDbEntity
  8
3
 62
     0
100
AcDbTrace
 10
479.8776731412147
 20
332.9617395075924
 30
0.0
 11
479.8776731412147
 21
332.128406174259
 31
0.0
 12
482.3776731412147
 22
332.5450728409257
 32
0.0
 13
482.3776731412147
 23
332.5450728409257
 33
0.0
  0
MTEXT
  5
1C07
330
18B5
100
AcDbEntity
  8
3
 62
     0
100
AcDbMText
 10
459.0710278274528
 20
334.628406174259
 30
0.0
 40
2.5
 41
0.0
 71
     5
 72
     1
  1
\A1;46,1
 73
     1
 44
1.0
  0
POINT
  5
1C08
330
18B5
100
AcDbEntity
  8
DEFPOINTS
 62
     0
100
AcDbPoint
 10
436.277673141215
 20
320.6898671149588
 30
0.0
  0
POINT
  5
1C09
330
18B5
100
AcDbEntity
  8
DEFPOINTS
 62
     0
100
AcDbPoint
 10
482.3776731412147
 20
320.689867114959
 30
0.0
  0
POINT
  5
1C0A
330
18B5
100
AcDbEntity
  8
DEFPOINTS
 62
     0
100
AcDbPoint
 10
482.3776731412147
 20
332.5450728409257
 30
0.0
  0
ENDBLK
  5
18B7
330
18B5
100
AcDbEntity
  8
0
100
AcDbBlockEnd
  0
BLOCK
  5
18C3
330
18C2
100
AcDbEntity
  8
0
100
AcDbBlockBegin
  2
*D10
 70
     1
 10
0.0
 20
0.0
 30
0.0
  3
*D10
  1

  0
LINE
  5
190A
330
18C2
100
AcDbEntity
  8
3
 62
     0
370
    -2
100
AcDbLine
 10
375.3651437396942
 20
298.8648671149586
 30
0.0
 11
375.3651437396942
 21
289.7065585621429
 31
0.0
  0
LINE
  5
190B
330
18C2
100
AcDbEntity
  8
3
 62
     0
370
    -2
100
AcDbLine
 10
403.3651437396941
 20
298.8648671149586
 30
0.0
 11
403.3651437396941
 21
289.7065585621429
 31
0.0
  0
LINE
  5
190C
330
18C2
100
AcDbEntity
  8
3
 62
     0
370
    -2
100
AcDbLine
 10
377.8651437396942
 20
290.9565585621429
 30
0.0
 11
400.8651437396942
 21
290.9565585621429
 31
0.0
  0
SOLID
  5
190D
330
18C2
100
AcDbEntity
  8
3
 62
     0
100
AcDbTrace
 10
377.8651437396942
 20
291.3732252288096
 30
0.0
 11
377.8651437396942
 21
290.5398918954762
 31
0.0
 12
375.3651437396942
 22
290.9565585621429
 32
0.0
 13
375.3651437396942
 23
290.9565585621429
 33
0.0
  0
SOLID
  5
190E
330
18C2
100
AcDbEntity
  8
3
 62
     0
100
AcDbTrace
 10
400.8651437396942
 20
291.3732252288096
 30
0.0
 11
400.8651437396942
 21
290.5398918954762
 31
0.0
 12
403.3651437396941
 22
290.9565585621429
 32
0.0
 13
403.3651437396941
 23
290.9565585621429
 33
0.0
  0
MTEXT
  5
190F
330
18C2
100
AcDbEntity
  8
3
 62
     0
100
AcDbMText
 10
389.3651437396942
 20
292.8315585621429
 30
0.0
 40
2.5
 41
0.0
 71
     5
 72
     1
  1
\A1;28
 73
     1
 44
1.0
  0
POINT
  5
1910
330
18C2
100
AcDbEntity
  8
DEFPOINTS
 62
     0
100
AcDbPoint
 10
375.3651437396942
 20
299.4898671149585
 30
0.0
  0
POINT
  5
1911
330
18C2
100
AcDbEntity
  8
DEFPOINTS
 62
     0
100
AcDbPoint
 10
403.3651437396941
 20
299.4898671149585
 30
0.0
  0
POINT
  5
1912
330
18C2
100
AcDbEntity
  8
DEFPOINTS
 62
     0
100
AcDbPoint
 10
403.3651437396941
 20
290.9565585621429
 30
0.0
  0
ENDBLK
  5
18C4
330
18C2
100
AcDbEntity
  8
0
100
AcDbBlockEnd
  0
BLOCK
  5
19D8
330
19D7
100
AcDbEntity
  8
0
100
AcDbBlockBegin
  2
*D11
 70
     1
 10
0.0
 20
0.0
 30
0.0
  3
*D11
  1

  0
LINE
  5
1C3F
330
19D7
100
AcDbEntity
  8
3
 62
     0
370
    -2
100
AcDbLine
 10
497.4526731412149
 20
299.4898671149591
 30
0.0
 11
504.5619083214075
 21
299.4898671149591
 31
0.0
  0
LINE
  5
1C40
330
19D7
100
AcDbEntity
  8
3
 62
     0
370
    -2
100
AcDbLine
 10
497.1526731412147
 20
321.989864892117
 30
0.0
 11
504.5619083214075
 21
321.989864892117
 31
0.0
  0
LINE
  5
1C41
330
19D7
100
AcDbEntity
  8
3
 62
     0
370
    -2
100
AcDbLine
 10
503.3119083214075
 20
301.9898671149591
 30
0.0
 11
503.3119083214075
 21
319.489864892117
 31
0.0
  0
LINE
  5
1C42
330
19D7
100
AcDbEntity
  8
3
 62
     0
370
    -2
100
AcDbLine
 10
503.3119083214075
 20
321.989864892117
 30
0.0
 11
503.3119083214075
 21
333.239864892117
 31
0.0
  0
SOLID
  5
1C43
330
19D7
100
AcDbEntity
  8
3
 62
     0
100
AcDbTrace
 10
502.8952416547408
 20
301.9898671149591
 30
0.0
 11
503.7285749880742
 21
301.9898671149591
 31
0.0
 12
503.3119083214075
 22
299.4898671149591
 32
0.0
 13
503.3119083214075
 23
299.4898671149591
 33
0.0
  0
SOLID
  5
1C44
330
19D7
100
AcDbEntity
  8
3
 62
     0
100
AcDbTrace
 10
502.8952416547408
 20
319.489864892117
 30
0.0
 11
503.7285749880742
 21
319.489864892117
 31
0.0
 12
503.3119083214075
 22
321.989864892117
 32
0.0
 13
503.3119083214075
 23
321.989864892117
 33
0.0
  0
MTEXT
  5
1C45
330
19D7
100
AcDbEntity
  8
3
 62
     0
100
AcDbMText
 10
501.2285749880741
 20
328.8648648921171
 30
0.0
 40
2.5
 41
0.0
 71
     5
 72
     1
  1
\A1;20,5
 11
0.0000000000000001
 21
1.0
 31
0.0
 73
     1
 44
1.0
  0
POINT
  5
1C46
330
19D7
100
AcDbEntity
  8
DEFPOINTS
 62
     0
100
AcDbPoint
 10
496.8276731412148
 20
299.4898671149591
 30
0.0
  0
POINT
  5
1C47
330
19D7
100
AcDbEntity
  8
DEFPOINTS
 62
     0
100
AcDbPoint
 10
496.5276731412147
 20
321.989864892117
 30
0.0
  0
POINT
  5
1C48
330
19D7
100
AcDbEntity
  8
DEFPOINTS
 62
     0
100
AcDbPoint
 10
503.3119083214075
 20
321.989864892117
 30
0.0
  0
ENDBLK
  5
19D9
330
19D7
100
AcDbEntity
  8
0
100
AcDbBlockEnd
  0
BLOCK
  5
1A15
330
1A14
100
AcDbEntity
  8
0
100
AcDbBlockBegin
  2
A$C3EE10CAA
 70
     0
 10
0.0
 20
0.0
 30
0.0
  3
A$C3EE10CAA
  1

  0
LINE
  5
1A16
330
1A14
100
AcDbEntity
  8
0
100
AcDbLine
 10
-0.0000000000000568
 20
3.000000000000085
 30
0.0
 11
-27.79999999999962
 21
7.000000000000085
 31
0.0
  0
LINE
  5
1A17
330
1A14
100
AcDbEntity
  8
0
100
AcDbLine
 10
0.0
 20
3.0
 30
0.0
 11
-27.7999999999999
 21
2.999999999999971
 31
0.0
  0
LINE
  5
1A18
330
1A14
100
AcDbEntity
  8
0
100
AcDbLine
 10
0.0
 20
0.0
 30
0.0
 11
-27.80000000000001
 21
0.0
 31
0.0
  0
LINE
  5
1A19
330
1A14
100
AcDbEntity
  8
0
100
AcDbLine
 10
-27.80000000000001
 20
0.0
 30
0.0
 11
-27.7999999999999
 21
3.000000000000085
 31
0.0
  0
LINE
  5
1A1A
330
1A14
100
AcDbEntity
  8
0
100
AcDbLine
 10
-27.39999999999975
 20
2.999999999999971
 30
0.0
 11
-30.79999999999967
 21
6.000000000000085
 31
0.0
  0
LINE
  5
1A1B
330
1A14
100
AcDbEntity
  8
0
100
AcDbLine
 10
-27.79999999999962
 20
7.000000000000085
 30
0.0
 11
-30.79999999999945
 21
7.000000000000085
 31
0.0
  0
LINE
  5
1A1C
330
1A14
100
AcDbEntity
  8
0
100
AcDbLine
 10
-30.79999999999967
 20
6.000000000000085
 30
0.0
 11
-30.79999999999945
 21
7.000000000000085
 31
0.0
  0
LINE
  5
1A1D
330
1A14
100
AcDbEntity
  8
0
100
AcDbLine
 10
-0.0000000000000568
 20
0.0
 30
0.0
 11
-0.0000000000000568
 21
3.000000000000085
 31
0.0
  0
ENDBLK
  5
1A1E
330
1A14
100
AcDbEntity
  8
0
100
AcDbBlockEnd
  0
BLOCK
  5
1A9B
330
1A9A
100
AcDbEntity
  8
0
100
AcDbBlockBegin
  2
A$C15A01CB4
 70
     0
 10
0.0
 20
0.0
 30
0.0
  3
A$C15A01CB4
  1

  0
LINE
  5
1A9C
330
1A9A
100
AcDbEntity
  8
0
100
AcDbLine
 10
0.0
 20
-0.0000000000000568
 30
0.0
 11
-73.39999999999969
 21
0.0000000000001421
 31
0.0
  0
LINE
  5
1A9D
330
1A9A
100
AcDbEntity
  8
0
100
AcDbLine
 10
-13.09999999999974
 20
-12.59999999999996
 30
0.0
 11
-32.99999999999943
 21
-12.59999999999991
 31
0.0
  0
LINE
  5
1A9E
330
1A9A
100
AcDbEntity
  8
0
100
AcDbLine
 10
-59.89999999999946
 20
-12.59999999999976
 30
0.0
 11
-39.99999999999915
 21
-12.59999999999991
 31
0.0
  0
LINE
  5
1A9F
330
1A9A
100
AcDbEntity
  8
7A
100
AcDbLine
 10
-63.59999999999946
 20
-18.29999999999973
 30
0.0
 11
-63.59999999999946
 21
-15.01106193509804
 31
0.0
1001
GENIUS_GENOREF_13
1005
0
  0
LINE
  5
1AA0
330
1A9A
100
AcDbEntity
  8
0
100
AcDbLine
 10
-60.39999999999929
 20
-27.29999999999976
 30
0.0
 11
-60.39999999999952
 21
-13.09999999999979
 31
0.0
  0
CIRCLE
  5
1AA1
330
1A9A
100
AcDbEntity
  8
0
100
AcDbCircle
 10
-63.59999999999946
 20
-18.29999999999973
 30
0.0
 40
2.5
  0
LINE
  5
1AA2
330
1A9A
100
AcDbEntity
  8
0
100
AcDbLine
 10
-73.89999999999969
 20
-0.4999999999998295
 30
0.0
 11
-73.89999999999969
 21
-27.29999999999967
 31
0.0
  0
LINE
  5
1AA3
330
1A9A
100
AcDbEntity
  8
7A
100
AcDbLine
 10
-63.59999999999946
 20
-18.29999999999973
 30
0.0
 11
-66.88893806490097
 21
-18.29999999999973
 31
0.0
1001
GENIUS_GENOREF_13
1005
0
  0
LINE
  5
1AA4
330
1A9A
100
AcDbEntity
  8
0
100
AcDbLine
 10
-60.89999999999929
 20
-27.79999999999973
 30
0.0
 11
-73.39999999999969
 21
-27.7999999999997
 31
0.0
  0
CIRCLE
  5
1AA5
330
1A9A
100
AcDbEntity
  8
0
100
AcDbCircle
 10
-63.59999999999946
 20
-18.29999999999973
 30
0.0
 40
1.35
  0
ARC
  5
1AA6
330
1A9A
100
AcDbEntity
  8
0
100
AcDbCircle
 10
-73.39999999999969
 20
-27.29999999999967
 30
0.0
 40
0.5
100
AcDbArc
 50
180.0
 51
270.0
  0
ARC
  5
1AA7
330
1A9A
100
AcDbEntity
  8
0
100
AcDbCircle
 10
-60.89999999999929
 20
-27.29999999999976
 30
0.0
 40
0.5
100
AcDbArc
 50
270.0
 51
0.0
  0
LINE
  5
1AA8
330
1A9A
100
AcDbEntity
  8
7A
100
AcDbLine
 10
-63.59999999999946
 20
-18.29999999999973
 30
0.0
 11
-60.31106193509799
 21
-18.29999999999973
 31
0.0
1001
GENIUS_GENOREF_13
1005
0
  0
LINE
  5
1AA9
330
1A9A
100
AcDbEntity
  8
7A
100
AcDbLine
 10
-63.59999999999946
 20
-18.29999999999973
 30
0.0
 11
-63.59999999999946
 21
-21.58893806490104
 31
0.0
1001
GENIUS_GENOREF_13
1005
0
  0
ARC
  5
1AAA
330
1A9A
100
AcDbEntity
  8
0
100
AcDbCircle
 10
-59.89999999999946
 20
-13.09999999999979
 30
0.0
 40
0.5
100
AcDbArc
 50
90.0
 51
180.0
  0
ARC
  5
1AAB
330
1A9A
100
AcDbEntity
  8
0
100
AcDbCircle
 10
-73.39999999999969
 20
-0.4999999999998295
 30
0.0
 40
0.5
100
AcDbArc
 50
90.0
 51
180.0
  0
LINE
  5
1AAC
330
1A9A
100
AcDbEntity
  8
0
100
AcDbLine
 10
-33.49999999999943
 20
-30.79999999999979
 30
0.0
 11
-33.49999999999943
 21
-15.09999999999991
 31
0.0
  0
LINE
  5
1AAD
330
1A9A
100
AcDbEntity
  8
0
100
AcDbLine
 10
-39.49999999999966
 20
-30.79999999999979
 30
0.0
 11
-39.49999999999915
 21
-15.09999999999991
 31
0.0
  0
LINE
  5
1AAE
330
1A9A
100
AcDbEntity
  8
0
100
AcDbLine
 10
-39.49999999999949
 20
-27.79999999999936
 30
0.0
 11
-33.49999999999943
 21
-27.79999999999936
 31
0.0
  0
LINE
  5
1AAF
330
1A9A
100
AcDbEntity
  8
0
100
AcDbLine
 10
-39.49999999999966
 20
-30.79999999999979
 30
0.0
 11
-33.49999999999943
 21
-30.79999999999979
 31
0.0
  0
LINE
  5
1AB0
330
1A9A
100
AcDbEntity
  8
0
100
AcDbLine
 10
-39.49999999999909
 20
-15.09999999999991
 30
0.0
 11
-39.49999999999915
 21
0.0000000000000853
 31
0.0
  0
ARC
  5
1AB1
330
1A9A
100
AcDbEntity
  8
0
100
AcDbCircle
 10
-39.99999999999915
 20
-13.09999999999991
 30
0.0
 40
0.5
100
AcDbArc
 50
359.9999999999984
 51
90.0
  0
LINE
  5
1AB2
330
1A9A
100
AcDbEntity
  8
0
100
AcDbLine
 10
-33.49999999999943
 20
-15.09999999999991
 30
0.0
 11
-33.49999999999943
 21
0.0000000000000568
 31
0.0
  0
ARC
  5
1AB3
330
1A9A
100
AcDbEntity
  8
0
100
AcDbCircle
 10
-32.99999999999943
 20
-13.09999999999991
 30
0.0
 40
0.5
100
AcDbArc
 50
90.0
 51
180.0
  0
LINE
  5
1AB4
330
1A9A
100
AcDbEntity
  8
7A
100
AcDbLine
 10
-9.399999999999693
 20
-18.29999999999998
 30
0.0
 11
-9.399999999999693
 21
-15.01106193509827
 31
0.0
1001
GENIUS_GENOREF_13
1005
0
  0
LINE
  5
1AB5
330
1A9A
100
AcDbEntity
  8
0
100
AcDbLine
 10
-12.59999999999974
 20
-27.29999999999999
 30
0.0
 11
-12.59999999999974
 21
-13.09999999999999
 31
0.0
  0
CIRCLE
  5
1AB6
330
1A9A
100
AcDbEntity
  8
0
100
AcDbCircle
 10
-9.399999999999693
 20
-18.29999999999998
 30
0.0
 40
2.5
  0
LINE
  5
1AB7
330
1A9A
100
AcDbEntity
  8
0
100
AcDbLine
 10
0.5
 20
-0.5
 30
0.0
 11
0.4999999999999432
 21
-27.29999999999999
 31
0.0
  0
LINE
  5
1AB8
330
1A9A
100
AcDbEntity
  8
0
100
AcDbLine
 10
-0.0000000000000568
 20
-27.79999999999993
 30
0.0
 11
-12.09999999999974
 21
-27.79999999999998
 31
0.0
  0
ARC
  5
1AB9
330
1A9A
100
AcDbEntity
  8
0
100
AcDbCircle
 10
-12.09999999999974
 20
-27.29999999999999
 30
0.0
 40
0.5
100
AcDbArc
 50
180.0
 51
270.0
  0
LINE
  5
1ABA
330
1A9A
100
AcDbEntity
  8
7A
100
AcDbLine
 10
-9.399999999999693
 20
-18.29999999999998
 30
0.0
 11
-12.68893806490109
 21
-18.29999999999998
 31
0.0
1001
GENIUS_GENOREF_13
1005
0
  0
CIRCLE
  5
1ABB
330
1A9A
100
AcDbEntity
  8
0
100
AcDbCircle
 10
-9.399999999999693
 20
-18.29999999999998
 30
0.0
 40
1.35
  0
LINE
  5
1ABC
330
1A9A
100
AcDbEntity
  8
7A
100
AcDbLine
 10
-9.399999999999693
 20
-18.29999999999998
 30
0.0
 11
-6.111061935098234
 21
-18.29999999999998
 31
0.0
1001
GENIUS_GENOREF_13
1005
0
  0
LINE
  5
1ABD
330
1A9A
100
AcDbEntity
  8
7A
100
AcDbLine
 10
-9.399999999999693
 20
-18.29999999999998
 30
0.0
 11
-9.399999999999693
 21
-21.58893806490119
 31
0.0
1001
GENIUS_GENOREF_13
1005
0
  0
ARC
  5
1ABE
330
1A9A
100
AcDbEntity
  8
0
100
AcDbCircle
 10
-0.0000000000000568
 20
-27.29999999999999
 30
0.0
 40
0.5
100
AcDbArc
 50
270.0
 51
0.0
  0
ARC
  5
1ABF
330
1A9A
100
AcDbEntity
  8
0
100
AcDbCircle
 10
-13.09999999999974
 20
-13.09999999999999
 30
0.0
 40
0.5
100
AcDbArc
 50
0.0
 51
90.0
  0
ARC
  5
1AC0
330
1A9A
100
AcDbEntity
  8
0
100
AcDbCircle
 10
0.0
 20
-0.5
 30
0.0
 40
0.5
100
AcDbArc
 50
0.0
 51
90.0
  0
ENDBLK
  5
1AC1
330
1A9A
100
AcDbEntity
  8
0
100
AcDbBlockEnd
  0
BLOCK
  5
1B0A
330
1B09
100
AcDbEntity
  8
0
100
AcDbBlockBegin
  2
*U14
 70
     1
 10
0.0
 20
0.0
 30
0.0
  3
*U14
  1
*U
  0
ARC
  5
1B0B
330
1B09
100
AcDbEntity
  8
THLI
100
AcDbCircle
 10
0.0
 20
0.0
 30
0.0
 40
2.0
100
AcDbArc
 50
280.0000000000001
 51
210.0
  0
CIRCLE
  5
1B0C
330
1B09
100
AcDbEntity
  8
BHMM
100
AcDbCircle
 10
0.0
 20
0.0
 30
0.0
 40
1.621
  0
LINE
  5
1B0D
330
1B09
100
AcDbEntity
  8
CENN
100
AcDbLine
 10
-3.5
 20
0.0
 30
0.0
 11
3.5
 21
0.0
 31
0.0
  0
LINE
  5
1B0E
330
1B09
100
AcDbEntity
  8
CENN
100
AcDbLine
 10
0.0
 20
-3.5
 30
0.0
 11
0.0
 21
3.5
 31
0.0
  0
ENDBLK
  5
1B0F
330
1B09
100
AcDbEntity
  8
0
100
AcDbBlockEnd
  0
BLOCK
  5
1B11
330
1B10
100
AcDbEntity
  8
0
100
AcDbBlockBegin
  2
*U15
 70
     1
 10
0.0
 20
0.0
 30
0.0
  3
*U15
  1
*U
  0
INSERT
  5
1B12
330
1B10
100
AcDbEntity
  8
GEV_FROZEN
100
AcDbBlockReference
  2
*U14
 10
0.0
 20
0.0
 30
0.0
 41
0.1
 42
0.1
 43
0.1
1001
GENBH
1002
{
1000
-NOBRK
1002
}
  0
ARC
  5
1B13
330
1B10
100
AcDbEntity
  8
4
100
AcDbCircle
 10
0.0
 20
0.0
 30
0.0
 40
2.0
100
AcDbArc
 50
280.0000000000001
 51
210.0
  0
CIRCLE
  5
1B14
330
1B10
100
AcDbEntity
  8
0
100
AcDbCircle
 10
0.0
 20
0.0
 30
0.0
 40
1.621
  0
LINE
  5
1B15
330
1B10
100
AcDbEntity
  8
7A
100
AcDbLine
 10
-3.5
 20
0.0
 30
0.0
 11
3.5
 21
0.0
 31
0.0
  0
LINE
  5
1B16
330
1B10
100
AcDbEntity
  8
7A
100
AcDbLine
 10
0.0
 20
-3.5
 30
0.0
 11
0.0
 21
3.5
 31
0.0
  0
ENDBLK
  5
1B17
330
1B10
100
AcDbEntity
  8
0
100
AcDbBlockEnd
  0
BLOCK
  5
1B19
330
1B18
100
AcDbEntity
  8
0
100
AcDbBlockBegin
  2
A$C563F488A
 70
     0
 10
0.0
 20
0.0
 30
0.0
  3
A$C563F488A
  1

  0
LINE
  5
1B1A
330
1B18
100
AcDbEntity
  8
0
100
AcDbLine
 10
-33.99999999999926
 20
0.0
 30
0.0
 11
0.0
 21
0.0
 31
0.0
  0
LINE
  5
1B1B
330
1B18
100
AcDbEntity
  8
0
100
AcDbLine
 10
-33.99999999999938
 20
2.999999999999914
 30
0.0
 11
0.0
 21
3.000000000000085
 31
0.0
  0
LINE
  5
1B1C
330
1B18
100
AcDbEntity
  8
0
100
AcDbLine
 10
-74.39999999999963
 20
2.999999999999886
 30
0.0
 11
-39.99999999999938
 21
2.999999999999914
 31
0.0
  0
LINE
  5
1B1D
330
1B18
100
AcDbEntity
  8
0
100
AcDbLine
 10
-74.39999999999963
 20
-0.0000000000000284
 30
0.0
 11
-39.99999999999938
 21
0.0000000000001137
 31
0.0
  0
LINE
  5
1B1E
330
1B18
100
AcDbEntity
  8
0
100
AcDbLine
 10
-74.39999999999963
 20
-0.0000000000000568
 30
0.0
 11
-74.39999999999958
 21
2.999999999999943
 31
0.0
  0
LINE
  5
1B1F
330
1B18
100
AcDbEntity
  8
0
100
AcDbLine
 10
-60.99999999999926
 20
-0.0000000000000853
 30
0.0
 11
-60.99999999999926
 21
2.999999999999914
 31
0.0
  0
LINE
  5
1B20
330
1B18
100
AcDbEntity
  8
0
100
AcDbLine
 10
-39.99999999999938
 20
6.0
 30
0.0
 11
-33.99999999999938
 21
6.0
 31
0.0
  0
LINE
  5
1B21
330
1B18
100
AcDbEntity
  8
3A
100
AcDbLine
 10
-39.99999999999932
 20
2.199999999999732
 30
0.0
 11
-33.99999999999943
 21
2.199999999999647
 31
0.0
  0
LINE
  5
1B22
330
1B18
100
AcDbEntity
  8
0
100
AcDbLine
 10
-39.99999999999938
 20
0.0000000000001137
 30
0.0
 11
-33.99999999999926
 21
0.0
 31
0.0
  0
LINE
  5
1B23
330
1B18
100
AcDbEntity
  8
0
100
AcDbLine
 10
-39.99999999999938
 20
7.0
 30
0.0
 11
-33.99999999999938
 21
7.0
 31
0.0
  0
LINE
  5
1B24
330
1B18
100
AcDbEntity
  8
0
100
AcDbLine
 10
-39.99999999999926
 20
0.0000000000001137
 30
0.0
 11
-39.99999999999943
 21
7.0
 31
0.0
  0
LINE
  5
1B25
330
1B18
100
AcDbEntity
  8
0
100
AcDbLine
 10
-33.99999999999926
 20
0.0
 30
0.0
 11
-33.99999999999938
 21
7.0
 31
0.0
  0
LINE
  5
1B26
330
1B18
100
AcDbEntity
  8
0
100
AcDbLine
 10
-12.99999999999966
 20
0.0000000000000284
 30
0.0
 11
-12.99999999999966
 21
3.000000000000028
 31
0.0
  0
LINE
  5
1B27
330
1B18
100
AcDbEntity
  8
0
100
AcDbLine
 10
0.0
 20
0.0
 30
0.0
 11
0.0
 21
3.000000000000085
 31
0.0
  0
ENDBLK
  5
1B28
330
1B18
100
AcDbEntity
  8
0
100
AcDbBlockEnd
  0
BLOCK
  5
1BEC
330
1BEB
100
AcDbEntity
  8
0
100
AcDbBlockBegin
  2
*D17
 70
     1
 10
0.0
 20
0.0
 30
0.0
  3
*D17
  1

  0
LINE
  5
1BEE
330
1BEB
100
AcDbEntity
  8
3
 62
     0
370
    -2
100
AcDbLine
 10
456.5276731412153
 20
326.6148648921169
 30
0.0
 11
456.5276731412153
 21
330.1926817954603
 31
0.0
  0
LINE
  5
1BEF
330
1BEB
100
AcDbEntity
  8
3
 62
     0
370
    -2
100
AcDbLine
 10
462.5276731412154
 20
326.6148648921169
 30
0.0
 11
462.5276731412154
 21
330.1926817954603
 31
0.0
  0
LINE
  5
1BF0
330
1BEB
100
AcDbEntity
  8
3
 62
     0
370
    -2
100
AcDbLine
 10
454.0276731412154
 20
328.9426817954603
 30
0.0
 11
451.5276731412154
 21
328.9426817954603
 31
0.0
  0
LINE
  5
1BF1
330
1BEB
100
AcDbEntity
  8
3
 62
     0
370
    -2
100
AcDbLine
 10
465.0276731412154
 20
328.9426817954603
 30
0.0
 11
467.5276731412154
 21
328.9426817954603
 31
0.0
  0
LINE
  5
1BF2
330
1BEB
100
AcDbEntity
  8
3
 62
     0
370
    -2
100
AcDbLine
 10
456.5276731412153
 20
328.9426817954603
 30
0.0
 11
462.5276731412154
 21
328.9426817954603
 31
0.0
  0
SOLID
  5
1BF3
330
1BEB
100
AcDbEntity
  8
3
 62
     0
100
AcDbTrace
 10
454.0276731412154
 20
329.359348462127
 30
0.0
 11
454.0276731412154
 21
328.5260151287936
 31
0.0
 12
456.5276731412153
 22
328.9426817954603
 32
0.0
 13
456.5276731412153
 23
328.9426817954603
 33
0.0
  0
SOLID
  5
1BF4
330
1BEB
100
AcDbEntity
  8
3
 62
     0
100
AcDbTrace
 10
465.0276731412154
 20
329.359348462127
 30
0.0
 11
465.0276731412154
 21
328.5260151287936
 31
0.0
 12
462.5276731412154
 22
328.9426817954603
 32
0.0
 13
462.5276731412154
 23
328.9426817954603
 33
0.0
  0
MTEXT
  5
1BF5
330
1BEB
100
AcDbEntity
  8
3
 62
     0
100
AcDbMText
 10
459.5276731412154
 20
330.8176817954603
 30
0.0
 40
2.5
 41
0.0
 71
     5
 72
     1
  1
\A1;6
 73
     1
 44
1.0
  0
POINT
  5
1BF6
330
1BEB
100
AcDbEntity
  8
DEFPOINTS
 62
     0
100
AcDbPoint
 10
456.5276731412153
 20
325.9898648921169
 30
0.0
  0
POINT
  5
1BF7
330
1BEB
100
AcDbEntity
  8
DEFPOINTS
 62
     0
100
AcDbPoint
 10
462.5276731412154
 20
325.9898648921169
 30
0.0
  0
POINT
  5
1BF8
330
1BEB
100
AcDbEntity
  8
DEFPOINTS
 62
     0
100
AcDbPoint
 10
462.5276731412154
 20
328.9426817954603
 30
0.0
  0
ENDBLK
  5
1BED
330
1BEB
100
AcDbEntity
  8
0
100
AcDbBlockEnd
  0
BLOCK
  5
1C82
330
1C7E
100
AcDbEntity
  8
0
100
AcDbBlockBegin
  2
A$C50921526
 70
     0
 10
0.0
 20
0.0
 30
0.0
  3
A$C50921526
  1

  0
INSERT
  5
1C7F
330
1C7E
100
AcDbEntity
  8
0
100
AcDbBlockReference
  2
A$C3EE10CAA
 10
-0.0999999999999659
 20
19.49999999999954
 30
0.0
  0
ENDBLK
  5
1C83
330
1C7E
100
AcDbEntity
  8
0
100
AcDbBlockEnd
  0
BLOCK
  5
1C89
330
1C85
100
AcDbEntity
  8
0
100
AcDbBlockBegin
  2
A$C7F285EBB
 70
     0
 10
0.0
 20
0.0
 30
0.0
  3
A$C7F285EBB
  1

  0
INSERT
  5
1C86
330
1C85
100
AcDbEntity
  8
0
100
AcDbBlockReference
  2
A$C3EE10CAA
 10
-0.0999999999999659
 20
19.49999999999954
 30
0.0
  0
ENDBLK
  5
1C8A
330
1C85
100
AcDbEntity
  8
0
100
AcDbBlockEnd
  0
ENDSEC
  0
SECTION
  2
ENTITIES
  0
DIMENSION
  5
DE1
330
1F
100
AcDbEntity
  8
3
100
AcDbDimension
  2
*D1
 10
361.4776095523499
 20
310.4898648921166
 30
0.0
 11
361.4776095523498
 21
306.19819822545
 31
0.0
 70
   160
 71
     5
 42
10.00065485745011
  3
-UNTEN
100
AcDbAlignedDimension
 13
373.6756554637655
 23
320.4905197495668
 33
0.0
 14
375.365143739694
 24
310.4898648921166
 34
0.0
 50
90.0
100
AcDbRotatedDimension
1001
ACAD
1000
DSTYLE
1002
{
1070
   271
1070
     0
1002
}
  0
DIMENSION
  5
DE2
330
1F
100
AcDbEntity
  8
3
100
AcDbDimension
  2
*D2
 10
364.5239754770989
 20
310.4898648921166
 30
0.0
 11
364.5239754770988
 21
306.69819822545
 31
0.0
 70
   160
 71
     5
 42
9.000654857450115
  3
-UNTEN
100
AcDbAlignedDimension
 13
373.6756554637655
 23
319.4905197495668
 33
0.0
 14
375.365143739694
 24
310.4898648921166
 34
0.0
 50
90.0
100
AcDbRotatedDimension
1001
ACAD
1000
DSTYLE
1002
{
1070
   271
1070
     0
1002
}
  0
DIMENSION
  5
DE3
330
1F
100
AcDbEntity
  8
3
100
AcDbDimension
  2
*D3
 10
367.5703414018478
 20
310.4898648921166
 30
0.0
 11
367.5703414018477
 21
306.69819822545
 31
0.0
 70
   160
 71
     5
 42
8.000654857450115
  3
-UNTEN
100
AcDbAlignedDimension
 13
373.4630867378877
 23
318.4905197495668
 33
0.0
 14
375.365143739694
 24
310.4898648921166
 34
0.0
 50
90.0
100
AcDbRotatedDimension
1001
ACAD
1000
DSTYLE
1002
{
1070
   271
1070
     0
1002
}
  0
DIMENSION
  5
DE4
330
1F
100
AcDbEntity
  8
3
100
AcDbDimension
  2
*D4
 10
370.4897764716392
 20
310.4898648921166
 30
0.0
 11
370.4897764716392
 21
306.69819822545
 31
0.0
 70
   160
 71
     5
 42
7.000654857450115
  3
-UNTEN
100
AcDbAlignedDimension
 13
373.4630867378877
 23
317.4905197495668
 33
0.0
 14
375.365143739694
 24
310.4898648921166
 34
0.0
 50
90.0
100
AcDbRotatedDimension
1001
ACAD
1000
DSTYLE
1002
{
1070
   271
1070
     0
1002
}
  0
DIMENSION
  5
13B5
330
1F
100
AcDbEntity
  8
3
100
AcDbDimension
  2
*D5
 10
413.3675327718881
 20
325.9898648921169
 30
0.0
 11
413.367532771888
 21
330.7815315587837
 31
0.0
 70
   160
  1
16
 71
     5
 42
15.5
  3
DIN
100
AcDbAlignedDimension
 13
433.0776731412145
 23
310.4898648921169
 33
0.0
 14
456.5276731412153
 24
325.9898648921169
 34
0.0
 50
90.0
100
AcDbRotatedDimension
  0
LINE
  5
1417
330
1F
100
AcDbEntity
  8
0
100
AcDbLine
 10
496.827673141215
 20
318.9898648921169
 30
0.0
 11
500.327673141215
 21
318.9898648921169
 31
0.0
  0
LINE
  5
1418
330
1F
100
AcDbEntity
  8
0
100
AcDbLine
 10
500.327673141215
 20
318.9898648921169
 30
0.0
 11
500.327673141215
 21
303.9898648921169
 31
0.0
  0
LINE
  5
1419
330
1F
100
AcDbEntity
  8
0
100
AcDbLine
 10
500.327673141215
 20
303.9898648921169
 30
0.0
 11
496.827673141215
 21
303.9898648921169
 31
0.0
  0
LINE
  5
14D0
330
1F
100
AcDbEntity
  8
0
100
AcDbLine
 10
486.9524756514997
 20
132.7593580816346
 30
0.0
 11
486.9524756514997
 21
158.5617721360021
 31
0.0
  0
LINE
  5
14D1
330
1F
100
AcDbEntity
  8
0
100
AcDbLine
 10
468.7496363705478
 20
158.5617721360021
 30
0.0
 11
468.7496363705479
 21
132.7593580816346
 31
0.0
  0
LINE
  5
14D2
330
1F
100
AcDbEntity
  8
0
100
AcDbLine
 10
449.5036218995001
 20
158.5617721360021
 30
0.0
 11
449.5036218995001
 21
132.7593580816346
 31
0.0
  0
ARC
  5
14D3
330
1F
100
AcDbEntity
  8
0
100
AcDbCircle
 10
474.66120562478
 20
141.8409874885038
 30
0.0
 40
1.7793776
100
AcDbArc
 50
36.86989764584663
 51
323.1301023541534
  0
LINE
  5
14D4
330
1F
100
AcDbEntity
  8
0
100
AcDbLine
 10
476.0847077047804
 20
142.9086140485038
 30
0.0
 11
477.68614754478
 21
140.7733609285038
 31
0.0
  0
LINE
  5
14D5
330
1F
100
AcDbEntity
  8
0
100
AcDbLine
 10
477.68614754478
 20
142.9086140485038
 30
0.0
 11
476.0847077047804
 21
140.7733609285038
 31
0.0
  0
ARC
  5
14D6
330
1F
100
AcDbEntity
  8
0
100
AcDbCircle
 10
479.1096496247798
 20
141.8409874885038
 30
0.0
 40
1.7793776
100
AcDbArc
 50
216.8698976458447
 51
143.1301023541533
  0
LINE
  5
14D7
330
1F
100
AcDbEntity
  8
0
100
AcDbLine
 10
423.1581704892071
 20
158.5617721360021
 30
0.0
 11
423.1581704892071
 21
132.7593580816346
 31
0.0
  0
LINE
  5
14D8
330
1F
100
AcDbEntity
  8
0
100
AcDbLine
 10
486.9524756514993
 20
180.1302091476605
 30
0.0
 11
486.9524756514993
 21
205.932623202028
 31
0.0
  0
LINE
  5
14D9
330
1F
100
AcDbEntity
  8
0
100
AcDbLine
 10
477.68614754478
 20
190.2794651145297
 30
0.0
 11
476.08470770478
 21
188.1442119945297
 31
0.0
  0
LINE
  5
14DA
330
1F
100
AcDbEntity
  8
0
100
AcDbLine
 10
476.08470770478
 20
190.2794651145297
 30
0.0
 11
477.68614754478
 21
188.1442119945297
 31
0.0
  0
LINE
  5
14DB
330
1F
100
AcDbEntity
  8
0
100
AcDbLine
 10
468.7496363705476
 20
205.932623202028
 30
0.0
 11
468.7496363705476
 21
180.1302091476605
 31
0.0
  0
ARC
  5
14DC
330
1F
100
AcDbEntity
  8
0
100
AcDbCircle
 10
479.1096496247797
 20
189.2118385545297
 30
0.0
 40
1.7793776
100
AcDbArc
 50
216.8698976458447
 51
143.1301023541533
  0
ARC
  5
14DD
330
1F
100
AcDbEntity
  8
0
100
AcDbCircle
 10
474.6612056247799
 20
189.2118385545297
 30
0.0
 40
1.7793776
100
AcDbArc
 50
36.86989764584663
 51
323.1301023541534
  0
MTEXT
  5
14DE
330
1F
100
AcDbEntity
  8
0
100
AcDbMText
 10
424.5271900985353
 20
143.1436091305135
 30
0.0
 40
3.17746
 41
41.7105
 71
     1
 72
     5
  1
10,2-13,8  0,2
 73
     1
 44
1.0
  0
LINE
  5
14DF
330
1F
100
AcDbEntity
  8
0
100
AcDbLine
 10
449.5036218994997
 20
205.932623202028
 30
0.0
 11
449.5036218994997
 21
180.1302091476605
 31
0.0
  0
LINE
  5
14E0
330
1F
100
AcDbEntity
  8
0
100
AcDbLine
 10
423.1581704892071
 20
205.932623202028
 30
0.0
 11
423.1581704892071
 21
180.1302091476605
 31
0.0
  0
MTEXT
  5
14E1
330
1F
100
AcDbEntity
  8
0
100
AcDbMText
 10
424.527190098535
 20
190.5144601965394
 30
0.0
 40
3.17746
 41
41.7105
 71
     1
 72
     5
  1
 5,1-6,9   0,4
 73
     1
 44
1.0
  0
MTEXT
  5
14E2
330
1F
100
AcDbEntity
  8
0
100
AcDbMText
 10
471.024045517495
 20
184.7551155426708
 30
0.0
 40
3.17746
 41
16.0338603425
 71
     1
 72
     5
  1
<1Min.
 73
     1
 44
1.0
  0
LINE
  5
14E3
330
1F
100
AcDbEntity
  8
0
100
AcDbLine
 10
423.1581704892071
 20
180.1302091476602
 30
0.0
 11
486.9524756514993
 21
180.1302091476602
 31
0.0
  0
MTEXT
  5
14EF
330
1F
100
AcDbEntity
  8
0
100
AcDbMText
 10
426.4636278380563
 20
184.7425776073862
 30
0.0
 40
3.17746
 41
41.9318
 71
     1
 72
     5
  1
 6-12   0,4-0,8
 73
     1
 44
1.0
  0
LINE
  5
1500
330
1F
100
AcDbEntity
  8
0
100
AcDbLine
 10
423.1581704892071
 20
132.7593580816343
 30
0.0
 11
486.9524756514997
 21
132.7593580816343
 31
0.0
  0
MTEXT
  5
1509
330
1F
100
AcDbEntity
  8
0
100
AcDbMText
 10
429.242414135939
 20
137.3717265413599
 30
0.0
 40
3.17746
 41
42.40039999999999
 71
     1
 72
     5
  1
12-24  0,2-0,4
 73
     1
 44
1.0
  0
MTEXT
  5
151B
330
1F
100
AcDbEntity
  8
0
100
AcDbMText
 10
471.0240455174953
 20
137.3842644766449
 30
0.0
 40
3.17746
 41
16.0338603425
 71
     1
 72
     5
  1
<1Min.
 73
     1
 44
1.0
  0
HATCH
  5
151C
330
1F
100
AcDbEntity
  8
0
100
AcDbHatch
 10
0.0
 20
0.0
 30
0.0
210
0.0
220
0.0
230
1.0
  2
SOLID
 70
     1
 71
     1
 91
        1
 92
        1
 93
        5
 72
     1
 10
476.3506665391878
 20
199.5857047440403
 11
478.5779802892969
 21
199.5857047440403
 72
     1
 10
478.5779802892969
 20
199.5857047440403
 11
479.1411700235713
 21
199.3807204445203
 72
     1
 10
479.1411700235713
 20
199.3807204445203
 11
478.5779802892969
 21
199.1757361450004
 72
     1
 10
478.5779802892969
 20
199.1757361450002
 11
476.3506665391878
 21
199.1757361450002
 72
     2
 10
476.3506665391878
 20
199.3807204445203
 40
0.2049842995200078
 50
90.0
 51
270.0
 73
     0
 97
        5
330
1525
330
151D
330
151E
330
1524
330
1529
 75
     0
 76
     1
 98
        1
 10
148.6007490327249
 20
10.33596247410862
450
        0
451
        0
460
0.0
461
0.0
452
        0
462
0.0
453
        0
470

  0
LINE
  5
151D
102
{ACAD_REACTORS
330
151C
102
}
330
1F
100
AcDbEntity
  8
0
100
AcDbLine
 10
479.1411700235713
 20
199.3807204445203
 30
0.0
 11
478.5779802892969
 21
199.5857047440403
 31
0.0
  0
LINE
  5
151E
102
{ACAD_REACTORS
330
151C
102
}
330
1F
100
AcDbEntity
  8
0
100
AcDbLine
 10
478.5779802892969
 20
199.1757361450004
 30
0.0
 11
479.1411700235713
 21
199.3807204445203
 31
0.0
  0
CIRCLE
  5
151F
330
1F
100
AcDbEntity
  8
0
100
AcDbCircle
 10
476.3506665391878
 20
199.3807204445203
 30
0.0
 40
3.416404992000001
  0
LINE
  5
1520
330
1F
100
AcDbEntity
  8
0
100
AcDbLine
 10
423.1581704892071
 20
205.9326232020282
 30
0.0
 11
486.9524756514993
 21
205.9326232020282
 31
0.0
  0
LINE
  5
1521
330
1F
100
AcDbEntity
  8
0
100
AcDbLine
 10
423.1581704892071
 20
192.3248953793129
 30
0.0
 11
486.9524756514993
 21
192.3248953793129
 31
0.0
  0
MTEXT
  5
1522
330
1F
100
AcDbEntity
  8
0
100
AcDbMText
 10
428.8182251432766
 20
204.3434597580884
 30
0.0
 40
3.17746
 41
42.2010378075
 71
     1
 72
     5
  1
Volt    Amp.
 73
     1
 44
1.0
  0
MTEXT
  5
1523
330
1F
100
AcDbEntity
  8
0
100
AcDbMText
 10
427.3510066820121
 20
198.1150169832271
 30
0.0
 40
3.17746
 41
23.60455597500001
 71
     1
 72
     5
  1
AC/DC
 73
     1
 44
1.0
  0
LINE
  5
1524
102
{ACAD_REACTORS
330
151C
102
}
330
1F
100
AcDbEntity
  8
0
100
AcDbLine
 10
476.3506665391878
 20
199.1757361450002
 30
0.0
 11
478.5779802892969
 21
199.1757361450002
 31
0.0
  0
LINE
  5
1525
102
{ACAD_REACTORS
330
151C
102
}
330
1F
100
AcDbEntity
  8
0
100
AcDbLine
 10
476.3506665391878
 20
199.5857047440403
 30
0.0
 11
478.5779802892969
 21
199.5857047440403
 31
0.0
  0
HATCH
  5
1526
330
1F
100
AcDbEntity
  8
0
100
AcDbHatch
 10
0.0
 20
0.0
 30
0.0
210
0.0
220
0.0
230
1.0
  2
SOLID
 70
     1
 71
     1
 91
        1
 92
        1
 93
        5
 72
     1
 10
476.4873227388679
 20
199.3807204445203
 11
476.4873227388681
 21
202.0221096157368
 72
     1
 10
476.4873227388681
 20
202.022109615737
 11
476.3506665391878
 21
202.7971254365204
 72
     1
 10
476.3506665391879
 20
202.7971254365204
 11
476.2140103395078
 21
202.022109615737
 72
     1
 10
476.2140103395078
 20
202.0221096157372
 11
476.2140103395078
 21
199.3807204445203
 72
     2
 10
476.3506665391878
 20
199.3807204445203
 40
0.1366561996799923
 50
180.0
 51
360.0
 73
     1
 97
        5
330
152C
330
1528
330
1527
330
152B
330
152A
 75
     0
 76
     1
 98
        1
 10
148.6007490327249
 20
10.33596247410862
450
        0
451
        0
460
0.0
461
0.0
452
        0
462
0.0
453
        0
470

  0
LINE
  5
1527
102
{ACAD_REACTORS
330
1526
102
}
330
1F
100
AcDbEntity
  8
0
100
AcDbLine
 10
476.3506665391879
 20
202.7971254365204
 30
0.0
 11
476.2140103395078
 21
202.022109615737
 31
0.0
  0
LINE
  5
1528
102
{ACAD_REACTORS
330
1526
102
}
330
1F
100
AcDbEntity
  8
0
100
AcDbLine
 10
476.4873227388681
 20
202.022109615737
 30
0.0
 11
476.3506665391878
 21
202.7971254365204
 31
0.0
  0
ARC
  5
1529
102
{ACAD_REACTORS
330
151C
102
}
330
1F
100
AcDbEntity
  8
0
100
AcDbCircle
 10
476.3506665391878
 20
199.3807204445203
 30
0.0
 40
0.2049842995200078
100
AcDbArc
 50
90.0
 51
270.0
  0
ARC
  5
152A
102
{ACAD_REACTORS
330
1526
102
}
330
1F
100
AcDbEntity
  8
0
100
AcDbCircle
 10
476.3506665391878
 20
199.3807204445203
 30
0.0
 40
0.1366561996799923
100
AcDbArc
 50
180.0
 51
0.0
  0
LINE
  5
152B
102
{ACAD_REACTORS
330
1526
102
}
330
1F
100
AcDbEntity
  8
0
100
AcDbLine
 10
476.2140103395078
 20
199.3807204445203
 30
0.0
 11
476.2140103395078
 21
202.0221096157372
 31
0.0
  0
LINE
  5
152C
102
{ACAD_REACTORS
330
1526
102
}
330
1F
100
AcDbEntity
  8
0
100
AcDbLine
 10
476.4873227388679
 20
199.3807204445203
 30
0.0
 11
476.4873227388681
 21
202.0221096157368
 31
0.0
  0
LINE
  5
152D
330
1F
100
AcDbEntity
  8
0
100
AcDbLine
 10
423.1581704892071
 20
158.5617721360023
 30
0.0
 11
486.9524756514997
 21
158.5617721360023
 31
0.0
  0
LINE
  5
152E
330
1F
100
AcDbEntity
  8
0
100
AcDbLine
 10
423.1581704892071
 20
144.954044313287
 30
0.0
 11
486.9524756514997
 21
144.954044313287
 31
0.0
  0
MTEXT
  5
152F
330
1F
100
AcDbEntity
  8
0
100
AcDbMText
 10
427.0478911060457
 20
156.9726086920625
 30
0.0
 40
3.17746
 41
40.77316672000001
 71
     1
 72
     5
  1
Volt    Amp.
 73
     1
 44
1.0
  0
MTEXT
  5
1530
330
1F
100
AcDbEntity
  8
0
100
AcDbMText
 10
425.0377720383333
 20
150.6784675701021
 30
0.0
 40
3.17746
 41
23.60455597500001
 71
     1
 72
     5
  1
AC/DC
 73
     1
 44
1.0
  0
LINE
  5
1531
102
{ACAD_REACTORS
330
153B
102
}
330
1F
100
AcDbEntity
  8
0
100
AcDbLine
 10
478.6727131086434
 20
151.061835968328
 30
0.0
 11
478.2033883300817
 21
151.2326562179279
 31
0.0
  0
LINE
  5
1532
102
{ACAD_REACTORS
330
153B
102
}
330
1F
100
AcDbEntity
  8
0
100
AcDbLine
 10
478.2033883300817
 20
150.8910157187281
 30
0.0
 11
478.6727131086434
 21
151.061835968328
 31
0.0
  0
HATCH
  5
1533
330
1F
100
AcDbEntity
  8
0
100
AcDbHatch
 10
0.0
 20
0.0
 30
0.0
210
0.0
220
0.0
230
1.0
  2
SOLID
 70
     1
 71
     1
 91
        1
 92
        1
 93
        5
 72
     1
 10
476.4611737047238
 20
151.061835968328
 11
476.4611737047244
 21
153.2629936110082
 72
     1
 10
476.4611737047244
 20
153.2629936110086
 11
476.347293538324
 21
153.9088401283278
 72
     1
 10
476.3472935383243
 20
153.9088401283278
 11
476.2334133719242
 21
153.2629936110086
 72
     1
 10
476.2334133719242
 20
153.2629936110088
 11
476.2334133719242
 21
151.061835968328
 72
     2
 10
476.347293538324
 20
151.061835968328
 40
0.1138801663999936
 50
180.0
 51
360.0
 73
     1
 97
        5
330
1539
330
1535
330
1534
330
1538
330
1537
 75
     0
 76
     1
 98
        1
 10
203.222362282938
 20
-6.475462340347952
450
        0
451
        0
460
0.0
461
0.0
452
        0
462
0.0
453
        0
470

  0
LINE
  5
1534
102
{ACAD_REACTORS
330
1533
102
}
330
1F
100
AcDbEntity
  8
0
100
AcDbLine
 10
476.3472935383243
 20
153.9088401283278
 30
0.0
 11
476.2334133719242
 21
153.2629936110086
 31
0.0
  0
LINE
  5
1535
102
{ACAD_REACTORS
330
1533
102
}
330
1F
100
AcDbEntity
  8
0
100
AcDbLine
 10
476.4611737047244
 20
153.2629936110086
 30
0.0
 11
476.347293538324
 21
153.9088401283278
 31
0.0
  0
ARC
  5
1536
102
{ACAD_REACTORS
330
153B
102
}
330
1F
100
AcDbEntity
  8
0
100
AcDbCircle
 10
476.347293538324
 20
151.061835968328
 30
0.0
 40
0.1708202496000065
100
AcDbArc
 50
90.0
 51
270.0
  0
ARC
  5
1537
102
{ACAD_REACTORS
330
1533
102
}
330
1F
100
AcDbEntity
  8
0
100
AcDbCircle
 10
476.347293538324
 20
151.061835968328
 30
0.0
 40
0.1138801663999936
100
AcDbArc
 50
180.0
 51
0.0
  0
LINE
  5
1538
102
{ACAD_REACTORS
330
1533
102
}
330
1F
100
AcDbEntity
  8
0
100
AcDbLine
 10
476.2334133719242
 20
151.061835968328
 30
0.0
 11
476.2334133719242
 21
153.2629936110088
 31
0.0
  0
LINE
  5
1539
102
{ACAD_REACTORS
330
1533
102
}
330
1F
100
AcDbEntity
  8
0
100
AcDbLine
 10
476.4611737047238
 20
151.061835968328
 30
0.0
 11
476.4611737047244
 21
153.2629936110082
 31
0.0
  0
CIRCLE
  5
153A
330
1F
100
AcDbEntity
  8
0
100
AcDbCircle
 10
476.347293538324
 20
151.061835968328
 30
0.0
 40
2.84700416
  0
HATCH
  5
153B
330
1F
100
AcDbEntity
  8
0
100
AcDbHatch
 10
0.0
 20
0.0
 30
0.0
210
0.0
220
0.0
230
1.0
  2
SOLID
 70
     1
 71
     1
 91
        1
 92
        1
 93
        5
 72
     1
 10
476.347293538324
 20
151.2326562179279
 11
478.2033883300817
 21
151.2326562179279
 72
     1
 10
478.2033883300817
 20
151.2326562179279
 11
478.6727131086434
 21
151.061835968328
 72
     1
 10
478.6727131086434
 20
151.061835968328
 11
478.2033883300817
 21
150.8910157187281
 72
     1
 10
478.2033883300817
 20
150.8910157187279
 11
476.347293538324
 21
150.8910157187279
 72
     2
 10
476.347293538324
 20
151.061835968328
 40
0.1708202496000065
 50
90.0
 51
270.0
 73
     0
 97
        5
330
153D
330
1531
330
1532
330
153C
330
1536
 75
     0
 76
     1
 98
        1
 10
203.222362282938
 20
-6.475462340347952
450
        0
451
        0
460
0.0
461
0.0
452
        0
462
0.0
453
        0
470

  0
LINE
  5
153C
102
{ACAD_REACTORS
330
153B
102
}
330
1F
100
AcDbEntity
  8
0
100
AcDbLine
 10
476.347293538324
 20
150.8910157187279
 30
0.0
 11
478.2033883300817
 21
150.8910157187279
 31
0.0
  0
LINE
  5
153D
102
{ACAD_REACTORS
330
153B
102
}
330
1F
100
AcDbEntity
  8
0
100
AcDbLine
 10
476.347293538324
 20
151.2326562179279
 30
0.0
 11
478.2033883300817
 21
151.2326562179279
 31
0.0
  0
LINE
  5
15B1
330
1F
100
AcDbEntity
  8
0
370
    30
100
AcDbLine
 10
389.3716402193064
 20
197.6260211451905
 30
0.0
 11
392.8715211852661
 21
194.2540138462493
 31
0.0
  0
CIRCLE
  5
15B2
102
{ACAD_REACTORS
330
1647
102
}
330
1F
100
AcDbEntity
  8
0
370
    30
100
AcDbCircle
 10
391.1215807022864
 20
195.9400174957199
 30
0.0
 40
2.43
  0
LINE
  5
15B4
330
1F
100
AcDbEntity
  8
0
100
AcDbLine
 10
386.3387732690417
 20
199.6302091476599
 30
0.0
 11
373.8387732690418
 21
199.63020914766
 31
0.0
  0
LINE
  5
15B5
102
{ACAD_REACTORS
330
1647
102
}
330
1F
100
AcDbEntity
  8
0
100
AcDbLine
 10
386.3387732690417
 20
184.6302091476598
 30
0.0
 11
401.8387732690418
 21
184.6302091476598
 31
0.0
  0
LINE
  5
15B6
330
1F
100
AcDbEntity
  8
0
100
AcDbLine
 10
401.8387732690417
 20
180.1302091476602
 30
0.0
 11
373.8387732690417
 21
180.1302091476607
 31
0.0
  0
LINE
  5
15B7
330
1F
100
AcDbEntity
  8
0
100
AcDbLine
 10
373.8387732690417
 20
180.1302091476602
 30
0.0
 11
401.8387732690417
 21
180.1302091476602
 31
0.0
  0
CIRCLE
  5
15B8
102
{ACAD_REACTORS
330
1647
102
}
330
1F
100
AcDbEntity
  8
0
370
    30
100
AcDbCircle
 10
391.1215807022864
 20
187.8400174957198
 30
0.0
 40
2.43
  0
LINE
  5
15B9
330
1F
100
AcDbEntity
  8
0
370
    30
100
AcDbLine
 10
389.3716402193064
 20
189.5260211451905
 30
0.0
 11
392.8715211852661
 21
186.1540138462493
 31
0.0
  0
LINE
  5
15BA
102
{ACAD_REACTORS
330
1647
102
}
330
1F
100
AcDbEntity
  8
0
100
AcDbLine
 10
386.3387732690418
 20
184.6302091476598
 30
0.0
 11
386.3387732690417
 21
199.6302091476598
 31
0.0
  0
LINE
  5
15BB
330
1F
100
AcDbEntity
  8
0
100
AcDbLine
 10
373.8387732690415
 20
181.6802091476606
 30
0.0
 11
373.8387732690417
 21
199.63020914766
 31
0.0
  0
LINE
  5
15BC
330
1F
100
AcDbEntity
  8
0
100
AcDbLine
 10
373.8387732690417
 20
199.1302091476602
 30
0.0
 11
373.8387732690415
 21
180.38020914766
 31
0.0
  0
LINE
  5
15C0
330
1F
100
AcDbEntity
  8
0
100
AcDbLine
 10
373.8387732690417
 20
180.1302091476602
 30
0.0
 11
373.8387732690415
 21
180.38020914766
 31
0.0
  0
CIRCLE
  5
15E6
102
{ACAD_REACTORS
330
1647
102
}
330
1F
100
AcDbEntity
  8
0
370
    30
100
AcDbCircle
 10
397.4215807022864
 20
187.8400174957198
 30
0.0
 40
2.43
  0
LINE
  5
15E7
330
1F
100
AcDbEntity
  8
0
370
    30
100
AcDbLine
 10
395.6716402193063
 20
189.5260211451905
 30
0.0
 11
399.171521185266
 21
186.1540138462493
 31
0.0
  0
LINE
  5
15E8
330
1F
100
AcDbEntity
  8
0
100
AcDbLine
 10
401.8387732690417
 20
180.1302091476602
 30
0.0
 11
401.8387732690418
 21
184.6302091476598
 31
0.0
  0
LINE
  5
15E9
330
1F
100
AcDbEntity
  8
0
100
AcDbLine
 10
401.8387732690417
 20
180.1302091476602
 30
0.0
 11
401.8387732690418
 21
184.6302091476598
 31
0.0
  0
CIRCLE
  5
15EA
102
{ACAD_REACTORS
330
1647
102
}
330
1F
100
AcDbEntity
  8
0
370
    30
100
AcDbCircle
 10
397.4215807022864
 20
195.9400174957199
 30
0.0
 40
2.43
  0
LINE
  5
15EB
330
1F
100
AcDbEntity
  8
0
370
    30
100
AcDbLine
 10
395.6716402193063
 20
197.6260211451905
 30
0.0
 11
399.171521185266
 21
194.2540138462493
 31
0.0
  0
LINE
  5
1607
330
1F
100
AcDbEntity
  8
0
100
AcDbLine
 10
386.3387732690418
 20
152.259358081634
 30
0.0
 11
373.8387732690418
 21
152.2593580816341
 31
0.0
  0
LINE
  5
1608
330
1F
100
AcDbEntity
  8
0
100
AcDbLine
 10
401.8387732690417
 20
132.7593580816343
 30
0.0
 11
373.8387732690417
 21
132.7593580816348
 31
0.0
  0
LINE
  5
1609
330
1F
100
AcDbEntity
  8
0
100
AcDbLine
 10
373.8387732690417
 20
132.7593580816343
 30
0.0
 11
401.8387732690417
 21
132.7593580816343
 31
0.0
  0
LINE
  5
160A
330
1F
100
AcDbEntity
  8
0
100
AcDbLine
 10
373.8387732690415
 20
134.3093580816347
 30
0.0
 11
373.8387732690417
 21
152.2593580816342
 31
0.0
  0
LINE
  5
160B
330
1F
100
AcDbEntity
  8
0
100
AcDbLine
 10
373.8387732690417
 20
151.7593580816343
 30
0.0
 11
373.8387732690415
 21
133.0093580816341
 31
0.0
  0
LINE
  5
160C
330
1F
100
AcDbEntity
  8
0
100
AcDbLine
 10
373.8387732690417
 20
132.7593580816343
 30
0.0
 11
373.8387732690415
 21
133.0093580816341
 31
0.0
  0
LINE
  5
160D
102
{ACAD_REACTORS
330
164A
102
}
330
1F
100
AcDbEntity
  8
0
100
AcDbLine
 10
386.3387732690418
 20
137.2593580816339
 30
0.0
 11
386.3387732690417
 21
152.2593580816339
 31
0.0
  0
LINE
  5
160E
330
1F
100
AcDbEntity
  8
0
100
AcDbLine
 10
401.8387732690417
 20
132.7593580816343
 30
0.0
 11
401.8387732690418
 21
137.2593580816339
 31
0.0
  0
LINE
  5
160F
330
1F
100
AcDbEntity
  8
0
100
AcDbLine
 10
401.8387732690417
 20
132.7593580816343
 30
0.0
 11
401.8387732690418
 21
137.2593580816339
 31
0.0
  0
CIRCLE
  5
1610
102
{ACAD_REACTORS
330
164A
102
}
330
1F
100
AcDbEntity
  8
0
370
    30
100
AcDbCircle
 10
397.4215807022864
 20
148.569166429694
 30
0.0
 40
2.43
  0
CIRCLE
  5
1611
102
{ACAD_REACTORS
330
164A
102
}
330
1F
100
AcDbEntity
  8
0
370
    30
100
AcDbCircle
 10
397.4215807022864
 20
140.4691664296939
 30
0.0
 40
2.43
  0
LINE
  5
1612
102
{ACAD_REACTORS
330
164A
102
}
330
1F
100
AcDbEntity
  8
0
100
AcDbLine
 10
386.3387732690417
 20
137.2593580816339
 30
0.0
 11
401.8387732690418
 21
137.2593580816339
 31
0.0
  0
CIRCLE
  5
1613
102
{ACAD_REACTORS
330
164A
102
}
330
1F
100
AcDbEntity
  8
0
370
    30
100
AcDbCircle
 10
391.1215807022864
 20
140.4691664296939
 30
0.0
 40
2.43
  0
LINE
  5
1614
330
1F
100
AcDbEntity
  8
0
370
    30
100
AcDbLine
 10
389.3716402193064
 20
150.2551700791646
 30
0.0
 11
392.8715211852661
 21
146.8831627802234
 31
0.0
  0
CIRCLE
  5
1615
102
{ACAD_REACTORS
330
164A
102
}
330
1F
100
AcDbEntity
  8
0
370
    30
100
AcDbCircle
 10
391.1215807022864
 20
148.569166429694
 30
0.0
 40
2.43
  0
LINE
  5
1616
330
1F
100
AcDbEntity
  8
0
370
    30
100
AcDbLine
 10
389.3716402193064
 20
142.1551700791646
 30
0.0
 11
392.8715211852661
 21
138.7831627802234
 31
0.0
  0
LINE
  5
1617
330
1F
100
AcDbEntity
  8
0
370
    30
100
AcDbLine
 10
395.6716402193063
 20
142.1551700791646
 30
0.0
 11
399.171521185266
 21
138.7831627802234
 31
0.0
  0
LINE
  5
1618
330
1F
100
AcDbEntity
  8
0
370
    30
100
AcDbLine
 10
395.6716402193063
 20
150.2551700791646
 30
0.0
 11
399.171521185266
 21
146.8831627802234
 31
0.0
  0
LINE
  5
161A
330
1F
100
AcDbEntity
  8
0
370
    30
100
AcDbLine
 10
392.5980630083097
 20
194.0100174957198
 30
0.0
 11
395.9450983962631
 21
194.0100174957198
 31
0.0
  0
LINE
  5
161B
330
1F
100
AcDbEntity
  8
0
370
    30
100
AcDbLine
 10
392.5980630083097
 20
185.9100174957198
 30
0.0
 11
395.945098396263
 21
185.9100174957198
 31
0.0
  0
LINE
  5
161C
330
1F
100
AcDbEntity
  8
0
370
    30
100
AcDbLine
 10
398.8980630083097
 20
185.9100174957198
 30
0.0
 11
408.8104071832187
 21
185.9100174957198
 31
0.0
  0
LINE
  5
161D
330
1F
100
AcDbEntity
  8
0
370
    30
100
AcDbLine
 10
398.8980630083096
 20
194.0100174957198
 30
0.0
 11
408.8104071832187
 21
194.0100174957198
 31
0.0
  0
LINE
  5
1626
330
1F
100
AcDbEntity
  8
0
370
    30
100
AcDbLine
 10
398.8980630083096
 20
146.6391664296939
 30
0.0
 11
408.8104071832187
 21
146.6391664296939
 31
0.0
  0
LINE
  5
1627
330
1F
100
AcDbEntity
  8
0
370
    30
100
AcDbLine
 10
398.8980630083097
 20
138.5391664296939
 30
0.0
 11
408.8104071832187
 21
138.5391664296939
 31
0.0
  0
LINE
  5
162A
330
1F
100
AcDbEntity
  8
0
370
    30
100
AcDbLine
 10
389.1915807022865
 20
147.0926841236706
 30
0.0
 11
389.1915807022865
 21
141.9456487357173
 31
0.0
  0
LINE
  5
163A
330
1F
100
AcDbEntity
  8
0
100
AcDbLine
 10
401.8387732690417
 20
199.6302091476598
 30
0.0
 11
401.8387732690417
 21
200.1302091476598
 31
0.0
  0
LINE
  5
163B
330
1F
100
AcDbEntity
  8
0
100
AcDbLine
 10
373.8387732690417
 20
199.63020914766
 30
0.0
 11
373.8387732690417
 21
200.1302091476601
 31
0.0
  0
LINE
  5
163C
330
1F
100
AcDbEntity
  8
0
100
AcDbLine
 10
401.8387732690417
 20
152.2593580816339
 30
0.0
 11
401.8387732690417
 21
152.7593580816339
 31
0.0
  0
LINE
  5
163D
330
1F
100
AcDbEntity
  8
0
100
AcDbLine
 10
373.8387732690417
 20
152.2593580816342
 30
0.0
 11
373.8387732690417
 21
152.7593580816342
 31
0.0
  0
LINE
  5
163E
330
1F
100
AcDbEntity
  8
0
100
AcDbLine
 10
373.8387732690417
 20
200.1302091476601
 30
0.0
 11
401.8387732690417
 21
200.1302091476598
 31
0.0
  0
LINE
  5
163F
330
1F
100
AcDbEntity
  8
0
100
AcDbLine
 10
373.8387732690417
 20
152.7593580816342
 30
0.0
 11
401.8387732690417
 21
152.7593580816339
 31
0.0
  0
LINE
  5
1640
102
{ACAD_REACTORS
330
1647
102
}
330
1F
100
AcDbEntity
  8
0
100
AcDbLine
 10
386.3387732690417
 20
199.6302091476598
 30
0.0
 11
401.8387732690417
 21
199.6302091476598
 31
0.0
  0
LINE
  5
1641
102
{ACAD_REACTORS
330
164A
102
}
330
1F
100
AcDbEntity
  8
0
100
AcDbLine
 10
386.3387732690418
 20
152.259358081634
 30
0.0
 11
401.8387732690417
 21
152.259358081634
 31
0.0
  0
LINE
  5
1645
102
{ACAD_REACTORS
330
1647
102
}
330
1F
100
AcDbEntity
  8
0
100
AcDbLine
 10
401.8387732690418
 20
184.6302091476598
 30
0.0
 11
401.8387732690417
 21
199.6302091476598
 31
0.0
  0
HATCH
  5
1647
330
1F
100
AcDbEntity
  8
Hellblau
100
AcDbHatch
 10
0.0
 20
0.0
 30
0.0
210
0.0
220
0.0
230
1.0
  2
SOLID
 70
     1
 71
     1
 91
        5
 92
       16
 93
        1
 72
     2
 10
397.4215807022864
 20
195.9400174957199
 40
2.43
 50
0.0
 51
360.0
 73
     1
 97
        1
330
15EA
 92
       16
 93
        1
 72
     2
 10
391.1215807022864
 20
195.9400174957199
 40
2.43
 50
0.0
 51
360.0
 73
     1
 97
        1
330
15B2
 92
       16
 93
        1
 72
     2
 10
391.1215807022864
 20
187.8400174957198
 40
2.43
 50
0.0
 51
360.0
 73
     1
 97
        1
330
15B8
 92
       16
 93
        1
 72
     2
 10
397.4215807022864
 20
187.8400174957198
 40
2.43
 50
0.0
 51
360.0
 73
     1
 97
        1
330
15E6
 92
        1
 93
        4
 72
     1
 10
386.3387732690417
 20
184.6302091476598
 11
401.8387732690418
 21
184.6302091476598
 72
     1
 10
401.8387732690418
 20
184.6302091476598
 11
401.8387732690417
 21
199.6302091476598
 72
     1
 10
401.8387732690417
 20
199.6302091476598
 11
386.3387732690417
 21
199.6302091476598
 72
     1
 10
386.3387732690417
 20
199.6302091476598
 11
386.3387732690418
 21
184.6302091476598
 97
        4
330
15B5
330
1645
330
1640
330
15BA
 75
     0
 76
     1
 98
        1
 10
0.0
 20
0.0
450
        0
451
        0
460
0.0
461
0.0
452
        0
462
0.0
453
        0
470

  0
LINE
  5
1648
102
{ACAD_REACTORS
330
164A
102
}
330
1F
100
AcDbEntity
  8
0
100
AcDbLine
 10
401.8387732690418
 20
137.2593580816339
 30
0.0
 11
401.8387732690417
 21
152.2593580816339
 31
0.0
  0
HATCH
  5
164A
330
1F
100
AcDbEntity
  8
Hellblau
100
AcDbHatch
 10
0.0
 20
0.0
 30
0.0
210
0.0
220
0.0
230
1.0
  2
SOLID
 70
     1
 71
     1
 91
        5
 92
       16
 93
        1
 72
     2
 10
391.1215807022864
 20
140.4691664296939
 40
2.43
 50
0.0
 51
360.0
 73
     1
 97
        1
330
1613
 92
       16
 93
        1
 72
     2
 10
391.1215807022864
 20
148.569166429694
 40
2.43
 50
0.0
 51
360.0
 73
     1
 97
        1
330
1615
 92
       16
 93
        1
 72
     2
 10
397.4215807022864
 20
148.569166429694
 40
2.43
 50
0.0
 51
360.0
 73
     1
 97
        1
330
1610
 92
       16
 93
        1
 72
     2
 10
397.4215807022864
 20
140.4691664296939
 40
2.43
 50
0.0
 51
360.0
 73
     1
 97
        1
330
1611
 92
        1
 93
        4
 72
     1
 10
386.3387732690418
 20
152.259358081634
 11
401.8387732690417
 21
152.259358081634
 72
     1
 10
401.8387732690417
 20
152.2593580816339
 11
401.8387732690418
 21
137.2593580816339
 72
     1
 10
401.8387732690418
 20
137.2593580816339
 11
386.3387732690417
 21
137.2593580816339
 72
     1
 10
386.3387732690418
 20
137.2593580816339
 11
386.3387732690417
 21
152.2593580816339
 97
        4
330
1641
330
1648
330
1612
330
160D
 75
     0
 76
     1
 98
        1
 10
0.0
 20
0.0
450
        0
451
        0
460
0.0
461
0.0
452
        0
462
0.0
453
        0
470

  0
HATCH
  5
1687
330
1F
100
AcDbEntity
  8
Hellblau
100
AcDbHatch
 10
0.0
 20
0.0
 30
0.0
210
0.0
220
0.0
230
1.0
  2
SOLID
 70
     1
 71
     0
 91
        1
 92
        1
 93
        4
 72
     1
 10
496.827673141215
 20
303.9898648921168
 11
496.827673141215
 21
318.9898648921169
 72
     1
 10
496.827673141215
 20
318.9898648921169
 11
500.327673141215
 21
318.9898648921169
 72
     1
 10
500.327673141215
 20
318.9898648921169
 11
500.327673141215
 21
303.9898648921169
 72
     1
 10
500.327673141215
 20
303.9898648921169
 11
496.827673141215
 21
303.9898648921169
 97
        0
 75
     0
 76
     1
 98
        1
 10
0.0
 20
0.0
450
        0
451
        0
460
0.0
461
0.0
452
        0
462
0.0
453
        0
470

  0
LINE
  5
16D9
330
1F
100
AcDbEntity
  8
0
100
AcDbLine
 10
542.4520737308429
 20
299.4898671149591
 30
0.0
 11
514.4520737308429
 21
299.4898671149591
 31
0.0
  0
LINE
  5
16DB
330
1F
100
AcDbEntity
  8
0
100
AcDbLine
 10
514.4520737308429
 20
299.4898671149591
 30
0.0
 11
514.4520737308429
 21
319.4898671149587
 31
0.0
  0
LINE
  5
16DC
330
1F
100
AcDbEntity
  8
0
100
AcDbLine
 10
514.4520737308429
 20
319.4898671149587
 30
0.0
 11
542.4520737308427
 21
319.4898671149589
 31
0.0
  0
LINE
  5
170B
330
1F
100
AcDbEntity
  8
0
100
AcDbLine
 10
542.4520737308431
 20
299.4898671149591
 30
0.0
 11
542.4520737308429
 21
319.4898671149589
 31
0.0
  0
DIMENSION
  5
17FE
330
1F
100
AcDbEntity
  8
3
100
AcDbDimension
  2
*D6
 10
435.0776731412145
 20
290.4544911753419
 30
0.0
 11
442.7860064745478
 21
290.4544911753419
 31
0.0
 70
   160
  1
M<>
 71
     5
 42
4.0
  3
DIN
100
AcDbAlignedDimension
 13
431.0776731412145
 23
310.4898648921169
 33
0.0
 14
435.0776731412145
 24
310.4898648921169
 34
0.0
100
AcDbRotatedDimension
  0
DIMENSION
  5
1840
330
1F
100
AcDbEntity
  8
3
100
AcDbDimension
  2
*D7
 10
496.8276731412148
 20
287.0550550862919
 30
0.0
 11
455.0359934336774
 21
287.0550550862919
 31
0.0
 70
   160
 71
     5
 42
74.99999999999994
  3
DIN
100
AcDbAlignedDimension
 13
421.8276731412149
 23
299.4898671149588
 33
0.0
 14
496.8276731412148
 24
299.4898671149591
 34
0.0
100
AcDbRotatedDimension
  0
DIMENSION
  5
18A7
330
1F
100
AcDbEntity
  8
3
100
AcDbDimension
  2
*D8
 10
485.5776731412145
 20
336.9950853658957
 30
0.0
 11
459.2831088117543
 21
336.9950853658957
 31
0.0
 70
   160
 71
     5
 42
52.5
  3
DIN
100
AcDbAlignedDimension
 13
433.0776731412145
 23
310.4898648921169
 33
0.0
 14
485.5776731412145
 24
310.4898648921169
 34
0.0
100
AcDbRotatedDimension
  0
DIMENSION
  5
18B4
330
1F
100
AcDbEntity
  8
3
100
AcDbDimension
  2
*D9
 10
482.3776731412147
 20
332.5450728409257
 30
0.0
 11
459.0710278274528
 21
332.5450728409257
 31
0.0
 70
   160
 71
     5
 42
46.09999999999963
  3
DIN
100
AcDbAlignedDimension
 13
436.277673141215
 23
320.6898671149588
 33
0.0
 14
482.3776731412147
 24
320.689867114959
 34
0.0
100
AcDbRotatedDimension
  0
DIMENSION
  5
18C1
330
1F
100
AcDbEntity
  8
3
100
AcDbDimension
  2
*D10
 10
403.3651437396941
 20
290.9565585621429
 30
0.0
 11
389.3651437396942
 21
292.8315585621429
 31
0.0
 70
    32
 71
     5
 42
28.0
  3
DIN
100
AcDbAlignedDimension
 13
375.3651437396942
 23
299.4898671149585
 33
0.0
 14
403.3651437396941
 24
299.4898671149585
 34
0.0
100
AcDbRotatedDimension
  0
DIMENSION
  5
19D5
330
1F
100
AcDbEntity
  8
3
100
AcDbDimension
  2
*D11
 10
503.3119083214075
 20
321.989864892117
 30
0.0
 11
503.3119083214074
 21
328.8648648921171
 31
0.0
 70
   160
  1
20,5
 71
     5
 42
22.49999777715789
  3
DIN
100
AcDbAlignedDimension
 13
496.8276731412148
 23
299.4898671149591
 33
0.0
 14
496.5276731412147
 24
321.989864892117
 34
0.0
 50
90.0
100
AcDbRotatedDimension
  0
HATCH
  5
19EF
330
1F
100
AcDbEntity
  8
Hellblau
100
AcDbHatch
 10
0.0
 20
0.0
 30
0.0
210
0.0
220
0.0
230
1.0
  2
SOLID
 70
     1
 71
     0
 91
        1
 92
        1
 93
        4
 72
     1
 10
496.8276731412145
 20
251.4449726615528
 11
496.8276731412148
 21
266.9449726615528
 72
     1
 10
496.8276731412148
 20
266.9449726615528
 11
500.3276731412149
 21
266.9449726615528
 72
     1
 10
500.3276731412149
 20
266.9449726615528
 11
500.3276731412149
 21
251.4449726615528
 72
     1
 10
500.3276731412149
 20
251.4449726615528
 11
496.8276731412148
 21
251.4449726615528
 97
        0
 75
     0
 76
     1
 98
        1
 10
0.0
 20
0.0
450
        0
451
        0
460
0.0
461
0.0
452
        1
462
1.0
453
        2
463
0.0
 63
     5
421
      255
463
1.0
 63
    51
421
 16777113
470
LINEAR
1001
ACAD
1010
0.0
1020
0.0
1030
0.0
  0
HATCH
  5
1A13
330
1F
100
AcDbEntity
  8
Hellblau
100
AcDbHatch
 10
0.0
 20
0.0
 30
0.0
210
0.0
220
0.0
230
1.0
  2
SOLID
 70
     1
 71
     0
 91
        5
 92
       16
 93
        1
 72
     2
 10
398.9479511729388
 20
315.2996754630182
 40
2.43
 50
0.0
 51
360.0
 73
     1
 97
        0
 92
       16
 93
        1
 72
     2
 10
392.6479511729389
 20
315.2996754630182
 40
2.43
 50
0.0
 51
360.0
 73
     1
 97
        0
 92
       16
 93
        1
 72
     2
 10
392.6479511729389
 20
307.1996754630181
 40
2.43
 50
0.0
 51
360.0
 73
     1
 97
        0
 92
       16
 93
        1
 72
     2
 10
398.9479511729388
 20
307.1996754630181
 40
2.43
 50
0.0
 51
360.0
 73
     1
 97
        0
 92
        1
 93
        4
 72
     1
 10
387.8651437396942
 20
303.9898671149581
 11
403.3651437396942
 21
303.9898671149581
 72
     1
 10
403.3651437396942
 20
303.9898671149581
 11
403.3651437396941
 21
318.9898671149581
 72
     1
 10
403.3651437396941
 20
318.9898671149581
 11
387.8651437396942
 21
318.9898671149581
 72
     1
 10
387.8651437396942
 20
318.9898671149581
 11
387.8651437396943
 21
303.9898671149581
 97
        0
 75
     0
 76
     1
 98
        1
 10
1.526370470652466
 20
119.3596579672983
450
        0
451
        0
460
0.0
461
0.0
452
        0
462
0.0
453
        0
470

  0
LINE
  5
1A5E
330
1F
100
AcDbEntity
  8
0
100
AcDbLine
 10
375.3651437396942
 20
299.4898671149585
 30
0.0
 11
403.3651437396941
 21
299.4898671149585
 31
0.0
  0
LINE
  5
1A5F
330
1F
100
AcDbEntity
  8
0
100
AcDbLine
 10
403.3651437396941
 20
299.4898671149585
 30
0.0
 11
375.3651437396942
 21
299.489867114959
 31
0.0
  0
LINE
  5
1A60
330
1F
100
AcDbEntity
  8
1
100
AcDbLine
 10
382.414410948054
 20
312.4898648921169
 30
0.0
 11
382.414410948054
 21
308.4898648921169
 31
0.0
  0
LINE
  5
1A61
330
1F
100
AcDbEntity
  8
1
100
AcDbLine
 10
383.4140087689919
 20
308.7898648921166
 30
0.0
 11
385.1140087689925
 21
310.4898648921164
 31
0.0
  0
LINE
  5
1A62
330
1F
100
AcDbEntity
  8
0
100
AcDbLine
 10
379.5651437460894
 20
305.9898671149583
 30
0.0
 11
379.5651437460884
 21
315.7405197495668
 31
0.0
  0
LINE
  5
1A63
330
1F
100
AcDbEntity
  8
0
100
AcDbLine
 10
379.5651437460894
 20
301.9898671149583
 30
0.0
 11
379.5651437460882
 21
315.3405197495668
 31
0.0
  0
LINE
  5
1A64
330
1F
100
AcDbEntity
  8
0
100
AcDbLine
 10
381.5651437460884
 20
301.9898671149583
 30
0.0
 11
381.5651437460884
 21
317.4761694409058
 31
0.0
  0
LINE
  5
1A65
330
1F
100
AcDbEntity
  8
0
100
AcDbLine
 10
375.3651437396942
 20
318.4898671149586
 30
0.0
 11
375.365143739694
 21
299.7398671149583
 31
0.0
  0
LINE
  5
1A66
330
1F
100
AcDbEntity
  8
0
100
AcDbLine
 10
375.365143739694
 20
301.039867114959
 30
0.0
 11
375.3651437396942
 21
318.9898671149584
 31
0.0
  0
LINE
  5
1A67
330
1F
100
AcDbEntity
  8
1
100
AcDbLine
 10
383.4140087689924
 20
308.7898648921168
 30
0.0
 11
375.3651437396942
 21
308.7898648921166
 31
0.0
  0
LINE
  5
1A68
330
1F
100
AcDbEntity
  8
1
100
AcDbLine
 10
375.7591445475006
 20
308.4898648921166
 30
0.0
 11
375.3651437396942
 21
308.0958640843103
 31
0.0
  0
LINE
  5
1A69
330
1F
100
AcDbEntity
  8
1
100
AcDbLine
 10
382.4144109480543
 20
308.4898648921169
 30
0.0
 11
375.7591445475006
 21
308.4898648921166
 31
0.0
  0
LINE
  5
1A6A
330
1F
100
AcDbEntity
  8
0
100
AcDbLine
 10
379.5651437460891
 20
305.9898671149583
 30
0.0
 11
381.5651437460884
 21
305.9898671149583
 31
0.0
  0
LINE
  5
1A6B
330
1F
100
AcDbEntity
  8
0
100
AcDbLine
 10
379.5651437460891
 20
301.9898671149583
 30
0.0
 11
381.5651437460884
 21
301.9898671149583
 31
0.0
  0
LINE
  5
1A6C
330
1F
100
AcDbEntity
  8
0
100
AcDbLine
 10
375.3651437396942
 20
299.4898671149585
 30
0.0
 11
375.365143739694
 21
299.7398671149583
 31
0.0
  0
LINE
  5
1A6D
330
1F
100
AcDbEntity
  8
1
100
AcDbLine
 10
375.365143739694
 20
310.4898648921166
 30
0.0
 11
374.7202420806965
 21
310.4898648921166
 31
0.0
  0
LINE
  5
1A6E
330
1F
100
AcDbEntity
  8
1
100
AcDbLine
 10
383.4140087689922
 20
312.1898648921169
 30
0.0
 11
375.3651437396942
 21
312.1898648921169
 31
0.0
  0
LINE
  5
1A6F
330
1F
100
AcDbEntity
  8
1
100
AcDbLine
 10
383.4140087689919
 20
312.1898648921169
 30
0.0
 11
385.1140087689925
 21
310.4898648921164
 31
0.0
  0
LINE
  5
1A70
330
1F
100
AcDbEntity
  8
1
100
AcDbLine
 10
375.7591445475006
 20
312.4898648921169
 30
0.0
 11
375.3651437396942
 21
312.8838656999233
 31
0.0
  0
LINE
  5
1A71
330
1F
100
AcDbEntity
  8
1
100
AcDbLine
 10
382.4144109480543
 20
312.4898648921169
 30
0.0
 11
375.7591445475006
 21
312.4898648921169
 31
0.0
  0
LINE
  5
1A72
330
1F
100
AcDbEntity
  8
1
100
AcDbLine
 10
379.5651437460884
 20
320.4905197495668
 30
0.0
 11
379.5651437460884
 21
315.7405197495668
 31
0.0
  0
LINE
  5
1A73
330
1F
100
AcDbEntity
  8
1
100
AcDbLine
 10
381.5651437460884
 20
320.8261694409058
 30
0.0
 11
381.5651437460884
 21
317.8261694409058
 31
0.0
  0
ARC
  5
1A74
330
1F
100
AcDbEntity
  8
0
100
AcDbCircle
 10
373.4630867378877
 20
320.9905197495668
 30
0.0
 40
0.5
100
AcDbArc
 50
180.0
 51
270.0
  0
LINE
  5
1A75
330
1F
100
AcDbEntity
  8
0
100
AcDbLine
 10
379.5651437460884
 20
320.4905197495668
 30
0.0
 11
373.4630867378877
 21
320.4905197495668
 31
0.0
  0
ARC
  5
1A76
330
1F
100
AcDbEntity
  8
0
100
AcDbCircle
 10
379.5651437460884
 20
321.1261694409058
 30
0.0
 40
2.0
100
AcDbArc
 50
0.0
 51
90.0
  0
LINE
  5
1A77
330
1F
100
AcDbEntity
  8
0
100
AcDbLine
 10
375.2630867378877
 20
323.126169440906
 30
0.0
 11
379.5651437460884
 21
323.1261694409058
 31
0.0
  0
ARC
  5
1A78
330
1F
100
AcDbEntity
  8
0
100
AcDbCircle
 10
375.2630867378877
 20
320.8261694409061
 30
0.0
 40
2.299999999999999
100
AcDbArc
 50
90.0
 51
180.0
  0
LINE
  5
1A79
330
1F
100
AcDbEntity
  8
0
100
AcDbLine
 10
372.9630867378877
 20
319.9905197495668
 30
0.0
 11
372.9630867378877
 21
320.8261694409061
 31
0.0
  0
ARC
  5
1A7A
330
1F
100
AcDbEntity
  8
0
100
AcDbCircle
 10
373.4630867378877
 20
319.9905197495668
 30
0.0
 40
0.5
100
AcDbArc
 50
180.0
 51
270.0
  0
LINE
  5
1A7B
330
1F
100
AcDbEntity
  8
0
100
AcDbLine
 10
379.4651437460885
 20
319.4905197495668
 30
0.0
 11
373.4630867378877
 21
319.4905197495668
 31
0.0
  0
ARC
  5
1A7C
330
1F
100
AcDbEntity
  8
0
100
AcDbCircle
 10
379.5651437460884
 20
320.1261694409058
 30
0.0
 40
2.0
100
AcDbArc
 50
0.0
 51
90.0
  0
LINE
  5
1A7D
330
1F
100
AcDbEntity
  8
0
100
AcDbLine
 10
375.2630867378877
 20
322.1261694409061
 30
0.0
 11
379.5651437460884
 21
322.1261694409058
 31
0.0
  0
ARC
  5
1A7E
330
1F
100
AcDbEntity
  8
0
100
AcDbCircle
 10
375.2630867378877
 20
319.8261694409061
 30
0.0
 40
2.299999999999999
100
AcDbArc
 50
90.0
 51
180.0
  0
LINE
  5
1A7F
330
1F
100
AcDbEntity
  8
0
100
AcDbLine
 10
372.9630867378877
 20
318.9905197495668
 30
0.0
 11
372.9630867378877
 21
319.8261694409061
 31
0.0
  0
ARC
  5
1A80
330
1F
100
AcDbEntity
  8
0
100
AcDbCircle
 10
373.4630867378877
 20
318.9905197495668
 30
0.0
 40
0.5
100
AcDbArc
 50
180.0
 51
270.0
  0
LINE
  5
1A81
330
1F
100
AcDbEntity
  8
0
100
AcDbLine
 10
379.4651437460885
 20
318.4905197495668
 30
0.0
 11
373.4630867378877
 21
318.4905197495668
 31
0.0
  0
ARC
  5
1A82
330
1F
100
AcDbEntity
  8
0
100
AcDbCircle
 10
379.5651437460884
 20
319.1261694409058
 30
0.0
 40
2.0
100
AcDbArc
 50
0.0
 51
90.0
  0
LINE
  5
1A83
330
1F
100
AcDbEntity
  8
0
100
AcDbLine
 10
375.2630867378877
 20
321.126169440906
 30
0.0
 11
379.5651437460884
 21
321.1261694409058
 31
0.0
  0
ARC
  5
1A84
330
1F
100
AcDbEntity
  8
0
100
AcDbCircle
 10
375.2630867378877
 20
318.8261694409061
 30
0.0
 40
2.299999999999999
100
AcDbArc
 50
90.0
 51
180.0
  0
LINE
  5
1A85
330
1F
100
AcDbEntity
  8
0
100
AcDbLine
 10
372.9630867378877
 20
317.9905197495668
 30
0.0
 11
372.9630867378877
 21
318.8261694409061
 31
0.0
  0
ARC
  5
1A86
330
1F
100
AcDbEntity
  8
0
100
AcDbCircle
 10
373.4630867378877
 20
317.9905197495668
 30
0.0
 40
0.5
100
AcDbArc
 50
180.0
 51
270.0
  0
LINE
  5
1A87
330
1F
100
AcDbEntity
  8
0
100
AcDbLine
 10
379.4651437460885
 20
317.4905197495668
 30
0.0
 11
373.4630867378877
 21
317.4905197495668
 31
0.0
  0
ARC
  5
1A88
330
1F
100
AcDbEntity
  8
0
100
AcDbCircle
 10
375.2630867378877
 20
317.8261694409061
 30
0.0
 40
2.299999999999999
100
AcDbArc
 50
90.0
 51
180.0
  0
ARC
  5
1A89
330
1F
100
AcDbEntity
  8
0
100
AcDbCircle
 10
379.5651437460884
 20
318.1261694409058
 30
0.0
 40
2.0
100
AcDbArc
 50
0.0
 51
90.0
  0
LINE
  5
1A8A
330
1F
100
AcDbEntity
  8
0
100
AcDbLine
 10
375.2630867378877
 20
320.1261694409061
 30
0.0
 11
379.5651437460884
 21
320.1261694409058
 31
0.0
  0
LINE
  5
1A8B
330
1F
100
AcDbEntity
  8
0
100
AcDbLine
 10
403.3651437396941
 20
299.4898671149585
 30
0.0
 11
403.3651437396941
 21
318.9898671149581
 31
0.0
  0
LINE
  5
1A8C
330
1F
100
AcDbEntity
  8
0
100
AcDbLine
 10
403.3651437396941
 20
299.4898671149585
 30
0.0
 11
403.3651437396941
 21
318.9898671149581
 31
0.0
  0
LINE
  5
1A8D
330
1F
100
AcDbEntity
  8
0
100
AcDbLine
 10
403.3651437396941
 20
318.9898671149581
 30
0.0
 11
375.3651437396943
 21
318.9898671149583
 31
0.0
  0
INSERT
  5
1A8E
330
1F
100
AcDbEntity
  8
0
100
AcDbBlockReference
  2
A$C3EE10CAA
 10
403.2651437396942
 20
318.9898671149581
 30
0.0
  0
LINE
  5
1A8F
330
1F
100
AcDbEntity
  8
0
100
AcDbLine
 10
387.8651437396943
 20
303.9898671149581
 30
0.0
 11
387.8651437396942
 21
318.9898671149581
 31
0.0
  0
LINE
  5
1A90
330
1F
100
AcDbEntity
  8
0
100
AcDbLine
 10
387.8651437396942
 20
303.9898671149581
 30
0.0
 11
403.3651437396942
 21
303.9898671149581
 31
0.0
  0
CIRCLE
  5
1A91
330
1F
100
AcDbEntity
  8
0
100
AcDbCircle
 10
392.6479511729389
 20
315.2996754630182
 30
0.0
 40
2.43
  0
CIRCLE
  5
1A92
330
1F
100
AcDbEntity
  8
0
100
AcDbCircle
 10
398.9479511729388
 20
315.2996754630182
 30
0.0
 40
2.43
  0
CIRCLE
  5
1A93
330
1F
100
AcDbEntity
  8
0
100
AcDbCircle
 10
398.9479511729388
 20
307.1996754630181
 30
0.0
 40
2.43
  0
CIRCLE
  5
1A94
330
1F
100
AcDbEntity
  8
0
100
AcDbCircle
 10
392.6479511729389
 20
307.1996754630181
 30
0.0
 40
2.43
  0
LINE
  5
1A95
330
1F
100
AcDbEntity
  8
0
100
AcDbLine
 10
390.8980106899588
 20
308.8856791124888
 30
0.0
 11
394.3978916559186
 21
305.5136718135476
 31
0.0
  0
LINE
  5
1A96
330
1F
100
AcDbEntity
  8
0
100
AcDbLine
 10
397.1980106899588
 20
308.8856791124888
 30
0.0
 11
400.6978916559185
 21
305.5136718135476
 31
0.0
  0
LINE
  5
1A97
330
1F
100
AcDbEntity
  8
0
100
AcDbLine
 10
390.8980106899588
 20
316.9856791124888
 30
0.0
 11
394.3978916559186
 21
313.6136718135476
 31
0.0
  0
LINE
  5
1A98
330
1F
100
AcDbEntity
  8
0
100
AcDbLine
 10
397.1980106899588
 20
316.9856791124888
 30
0.0
 11
400.6978916559185
 21
313.6136718135476
 31
0.0
  0
LINE
  5
1AE7
330
1F
100
AcDbEntity
  8
0
100
AcDbLine
 10
421.8276731412148
 20
266.9449726615528
 30
0.0
 11
496.8276731412149
 21
266.9449726615528
 31
0.0
  0
LINE
  5
1AE8
330
1F
100
AcDbEntity
  8
0
100
AcDbLine
 10
482.5776731412144
 20
238.9449726615529
 30
0.0
 11
496.8276731412144
 21
238.9449726615529
 31
0.0
  0
INSERT
  5
1AE9
330
1F
100
AcDbEntity
  8
0
100
AcDbBlockReference
  2
A$C15A01CB4
 10
496.0276731412148
 20
266.8449726615528
 30
0.0
  0
LINE
  5
1AEA
330
1F
100
AcDbEntity
  8
0
100
AcDbLine
 10
482.5776731412144
 20
238.9449726615529
 30
0.0
 11
496.8276731412144
 21
238.9449726615529
 31
0.0
  0
LINE
  5
1AEB
330
1F
100
AcDbEntity
  8
0
100
AcDbLine
 10
421.8276731412148
 20
266.9449726615528
 30
0.0
 11
496.8276731412149
 21
266.9449726615528
 31
0.0
  0
LINE
  5
1AEC
330
1F
100
AcDbEntity
  8
0
100
AcDbLine
 10
436.2776731412147
 20
245.4449726615528
 30
0.0
 11
456.5276731412159
 21
245.4449726615528
 31
0.0
  0
LINE
  5
1AED
330
1F
100
AcDbEntity
  8
0
100
AcDbLine
 10
436.2776731412147
 20
244.9449726615529
 30
0.0
 11
456.5276731412159
 21
244.9449726615528
 31
0.0
  0
LINE
  5
1AEE
330
1F
100
AcDbEntity
  8
0
100
AcDbLine
 10
436.2776731412146
 20
252.1449726615529
 30
0.0
 11
456.5276731412159
 21
252.1449726615528
 31
0.0
  0
LINE
  5
1AEF
330
1F
100
AcDbEntity
  8
0
100
AcDbLine
 10
436.0776731412147
 20
252.3449726615529
 30
0.0
 11
456.5276731412157
 21
252.3449726615529
 31
0.0
  0
LINE
  5
1AF0
330
1F
100
AcDbEntity
  8
0
100
AcDbLine
 10
436.0776731412147
 20
252.3449726615529
 30
0.0
 11
456.5276731412157
 21
252.3449726615529
 31
0.0
  0
LINE
  5
1AF1
330
1F
100
AcDbEntity
  8
0
100
AcDbLine
 10
436.2776731412149
 20
236.4449726615528
 30
0.0
 11
456.5276731412157
 21
236.4449726615528
 31
0.0
  0
LINE
  5
1AF2
330
1F
100
AcDbEntity
  8
0
100
AcDbLine
 10
436.2776731412146
 20
252.1449726615529
 30
0.0
 11
456.5276731412157
 21
252.1449726615528
 31
0.0
  0
LINE
  5
1AF3
330
1F
100
AcDbEntity
  8
0
100
AcDbLine
 10
436.2776731412147
 20
244.9449726615529
 30
0.0
 11
456.5276731412157
 21
244.9449726615529
 31
0.0
  0
LINE
  5
1AF4
330
1F
100
AcDbEntity
  8
0
100
AcDbLine
 10
436.2776731412147
 20
245.4449726615528
 30
0.0
 11
456.5276731412157
 21
245.4449726615528
 31
0.0
  0
LINE
  5
1AF5
330
1F
100
AcDbEntity
  8
0
100
AcDbLine
 10
436.2776731412145
 20
252.1449726615529
 30
0.0
 11
436.2776731412149
 21
236.4449726615529
 31
0.0
  0
LINE
  5
1AF6
330
1F
100
AcDbEntity
  8
0
100
AcDbLine
 10
436.0776731412147
 20
252.3449726615529
 30
0.0
 11
436.0776731412144
 21
238.9449726615529
 31
0.0
  0
LINE
  5
1AF7
330
1F
100
AcDbEntity
  8
0
100
AcDbLine
 10
421.8276731412148
 20
266.9449726615528
 30
0.0
 11
421.8276731412144
 21
238.9449726615531
 31
0.0
  0
LINE
  5
1AF8
330
1F
100
AcDbEntity
  8
0
100
AcDbLine
 10
421.8276731412148
 20
266.9449726615528
 30
0.0
 11
421.8276731412144
 21
238.9449726615531
 31
0.0
  0
LINE
  5
1AF9
330
1F
100
AcDbEntity
  8
0
100
AcDbLine
 10
436.0776731412147
 20
252.3449726615529
 30
0.0
 11
436.0776731412144
 21
238.9449726615529
 31
0.0
  0
LINE
  5
1AFA
330
1F
100
AcDbEntity
  8
0
100
AcDbLine
 10
436.2776731412145
 20
252.1449726615529
 30
0.0
 11
436.2776731412149
 21
236.4449726615529
 31
0.0
  0
LINE
  5
1AFB
330
1F
100
AcDbEntity
  8
0
100
AcDbLine
 10
421.8276731412145
 20
238.9449726615529
 30
0.0
 11
436.0776731412144
 21
238.9449726615529
 31
0.0
  0
LINE
  5
1AFC
330
1F
100
AcDbEntity
  8
0
100
AcDbLine
 10
421.8276731412145
 20
238.9449726615529
 30
0.0
 11
436.0776731412144
 21
238.9449726615529
 31
0.0
  0
LINE
  5
1AFD
330
1F
100
AcDbEntity
  8
0
100
AcDbLine
 10
482.3776731412146
 20
252.1449726615529
 30
0.0
 11
482.3776731412146
 21
236.4449726615529
 31
0.0
  0
LINE
  5
1AFE
330
1F
100
AcDbEntity
  8
0
100
AcDbLine
 10
482.5776731412147
 20
252.3449726615529
 30
0.0
 11
482.5776731412144
 21
238.9449726615529
 31
0.0
  0
LINE
  5
1AFF
330
1F
100
AcDbEntity
  8
0
100
AcDbLine
 10
482.5776731412147
 20
252.3449726615529
 30
0.0
 11
482.5776731412144
 21
238.9449726615529
 31
0.0
  0
LINE
  5
1B00
330
1F
100
AcDbEntity
  8
0
100
AcDbLine
 10
482.3776731412146
 20
252.1449726615529
 30
0.0
 11
482.3776731412146
 21
236.4449726615529
 31
0.0
  0
LINE
  5
1B01
330
1F
100
AcDbEntity
  8
0
100
AcDbLine
 10
482.3776731412146
 20
236.4449726615529
 30
0.0
 11
462.5276731412155
 21
236.4449726615528
 31
0.0
  0
LINE
  5
1B02
330
1F
100
AcDbEntity
  8
0
100
AcDbLine
 10
462.5276731412155
 20
245.4449726615528
 30
0.0
 11
482.3776731412146
 21
245.4449726615528
 31
0.0
  0
LINE
  5
1B03
330
1F
100
AcDbEntity
  8
0
100
AcDbLine
 10
462.5276731412155
 20
244.9449726615528
 30
0.0
 11
482.3776731412145
 21
244.9449726615528
 31
0.0
  0
LINE
  5
1B04
330
1F
100
AcDbEntity
  8
0
100
AcDbLine
 10
462.5276731412155
 20
252.3449726615528
 30
0.0
 11
482.5776731412147
 21
252.3449726615529
 31
0.0
  0
LINE
  5
1B05
330
1F
100
AcDbEntity
  8
0
100
AcDbLine
 10
482.3776731412146
 20
252.1449726615529
 30
0.0
 11
462.5276731412155
 21
252.1449726615529
 31
0.0
  0
LINE
  5
1B06
330
1F
100
AcDbEntity
  8
0
100
AcDbLine
 10
496.8276731412148
 20
266.9449726615528
 30
0.0
 11
496.8276731412144
 21
238.9449726615526
 31
0.0
  0
LINE
  5
1B07
330
1F
100
AcDbEntity
  8
0
100
AcDbLine
 10
496.8276731412148
 20
266.9449726615528
 30
0.0
 11
496.8276731412144
 21
238.9449726615526
 31
0.0
  0
ARC
  5
1B86
330
1F
100
AcDbEntity
  8
0
100
AcDbCircle
 10
477.4308087737157
 20
313.381164000346
 30
0.0
 40
0.5
100
AcDbArc
 50
152.1392722377538
 51
207.8607277622462
  0
ARC
  5
1B87
330
1F
100
AcDbEntity
  8
0
100
AcDbCircle
 10
474.2996972935157
 20
313.3811640003464
 30
0.0
 40
0.5
100
AcDbArc
 50
332.1392722377538
 51
27.8607277622462
  0
CIRCLE
  5
1B88
330
1F
100
AcDbEntity
  8
0
100
AcDbCircle
 10
475.8652530336156
 20
313.3811640003466
 30
0.0
 40
3.5
  0
ARC
  5
1B89
330
1F
100
AcDbEntity
  8
0
100
AcDbCircle
 10
441.2472939898722
 20
313.3811640003466
 30
0.0
 40
0.5
100
AcDbArc
 50
332.1392722377538
 51
27.8607277622462
  0
ARC
  5
1B8A
330
1F
100
AcDbEntity
  8
0
100
AcDbCircle
 10
444.3784054700721
 20
313.3811640003462
 30
0.0
 40
0.5
100
AcDbArc
 50
152.1392722377538
 51
207.8607277622462
  0
CIRCLE
  5
1B8B
330
1F
100
AcDbEntity
  8
0
100
AcDbCircle
 10
442.812849729972
 20
313.3811640003469
 30
0.0
 40
3.5
  0
LINE
  5
1B8C
330
1F
100
AcDbEntity
  8
0
100
AcDbLine
 10
479.6445111345307
 20
313.3856415647251
 30
0.0
 11
479.6445111345307
 21
310.3856415647251
 31
0.0
  0
LINE
  5
1B8D
330
1F
100
AcDbEntity
  8
0
100
AcDbLine
 10
446.6445111345307
 20
313.3856415647251
 30
0.0
 11
446.6445111345307
 21
310.3856415647251
 31
0.0
  0
LINE
  5
1B8E
330
1F
100
AcDbEntity
  8
0
100
AcDbLine
 10
439.0445111345307
 20
313.3856415647251
 30
0.0
 11
439.0445111345307
 21
310.3856415647251
 31
0.0
  0
LINE
  5
1B8F
330
1F
100
AcDbEntity
  8
0
100
AcDbLine
 10
472.0445111345307
 20
313.3856415647251
 30
0.0
 11
472.0445111345307
 21
310.3856415647251
 31
0.0
  0
INSERT
  5
1B90
330
1F
100
AcDbEntity
  8
0
100
AcDbBlockReference
  2
*U15
 10
485.5776731412143
 20
310.4898648921169
 30
0.0
 41
-1.0
1001
GENIUS_GEFPARTINS_13
1002
{
1011
485.5776731412143
1021
310.4898648921169
1031
0.0
1013
-1.0
1023
-0.0000000000000002
1033
0.0
1013
-1.0
1023
0.0
1033
0.0
1013
0.0
1023
1.0
1033
0.0
1010
0.0
1020
0.0
1030
0.0
1002
}
1001
GEVIT
1002
{
1000
-BEHI8.00000001
1000
-GRP00
1000
-BAML2
1000
-BASK1
1000
-NT0
1000
-DOC
1005
1B0A
1000
-MYREF
1005
1B90
1002
}
1001
GEVPT
1002
{
1000
-V$PV_GENSYSTEM"GEF\VAL\DI\0401\DI1616_D.dxf"
1000
-GPGEF_CDIST=1.5
1000
-GPGEF_DIMTXT=2.5
1000
-GPGEF_DRAG=1
1000
-GPGEF_DRAGSEL=0
1000
-GPGEF_FLIPX=1
1000
-GPGEF_FLIPY=1
1000
-GPGEF_OANG=70
1000
-GPGEF_PROCALC=1
1000
-GPGEF_SNK_ADD=0
1000
-GPGEF_STANG=210
1000
-GPGEFDMODE=0
1000
-GPGEFEXCHANGE=0
1000
-GPGEVPROMPTX=Länge:
1000
-GPGEVSURERR=0
1000
-GPNND=4
1000
-GPPRE=M
1000
-GPVCC_TABLE=$PV_GENSYSTEM"gef\val\di\0401\di1616.val"
1002
}
1001
GEVID954573509
1002
{
1002
}
1001
GENIUS_GENOREF_13
1005
0
1005
0
1005
0
1005
0
1001
VCC
1002
{
1000
-ID15
1000
-IE15
1000
-IK15
1000
-BRANCH
1000
-V$PV_GENSYSTEM"GEF\VAL\DI\0401\DI1616_D.dxf"
1002
}
  0
INSERT
  5
1B91
330
1F
100
AcDbEntity
  8
0
100
AcDbBlockReference
  2
*U15
 10
433.0776731412144
 20
310.4898648921169
 30
0.0
1001
GENIUS_GEFPARTINS_13
1002
{
1011
433.0776731412144
1021
310.4898648921169
1031
0.0
1013
1.0
1023
-0.0000000000000002
1033
0.0
1013
1.0
1023
0.0
1033
0.0
1013
0.0
1023
1.0
1033
0.0
1010
0.0
1020
0.0
1030
0.0
1002
}
1001
VCC
1002
{
1000
-ID15
1000
-IE15
1000
-IK15
1000
-BRANCH
1000
-V$PV_GENSYSTEM"GEF\VAL\DI\0401\DI1616_D.dxf"
1002
}
1001
GEVIT
1002
{
1000
-BEHI8.00000001
1000
-GRP00
1000
-BAML2
1000
-BASK1
1000
-NT0
1000
-DOC
1005
1B0A
1000
-MYREF
1005
1B91
1002
}
1001
GEVPT
1002
{
1000
-V$PV_GENSYSTEM"GEF\VAL\DI\0401\DI1616_D.dxf"
1000
-GPGEF_CDIST=1.5
1000
-GPGEF_DIMTXT=2.5
1000
-GPGEF_DRAG=1
1000
-GPGEF_DRAGSEL=0
1000
-GPGEF_FLIPX=1
1000
-GPGEF_FLIPY=1
1000
-GPGEF_OANG=70
1000
-GPGEF_PROCALC=1
1000
-GPGEF_SNK_ADD=0
1000
-GPGEF_STANG=210
1000
-GPGEFDMODE=0
1000
-GPGEFEXCHANGE=0
1000
-GPGEVPROMPTX=Länge:
1000
-GPGEVSURERR=0
1000
-GPNND=4
1000
-GPPRE=M
1000
-GPVCC_TABLE=$PV_GENSYSTEM"gef\val\di\0401\di1616.val"
1002
}
1001
GEVID954573509
1002
{
1002
}
1001
GENIUS_GENOREF_13
1005
0
1005
0
1005
0
1005
0
  0
ARC
  5
1B92
330
1F
100
AcDbEntity
  8
0
100
AcDbCircle
 10
442.8445111345308
 20
310.3856415647251
 30
0.0
 40
3.799999999999999
100
AcDbArc
 50
180.0
 51
0.0
  0
LINE
  5
1B93
330
1F
100
AcDbEntity
  8
0
100
AcDbLine
 10
421.8276731412148
 20
299.4898671149588
 30
0.0
 11
459.3291640593598
 21
299.4898671149588
 31
0.0
  0
ARC
  5
1B94
330
1F
100
AcDbEntity
  8
0
100
AcDbCircle
 10
440.9314743644666
 20
311.499788637489
 30
0.0
 40
0.1
100
AcDbArc
 50
152.1392722377538
 51
297.8607277622462
  0
ARC
  5
1B95
330
1F
100
AcDbEntity
  8
0
100
AcDbCircle
 10
444.6942250941536
 20
311.4997886361653
 30
0.0
 40
0.1
100
AcDbArc
 50
242.1392722377538
 51
27.8607277622462
  0
ARC
  5
1B96
330
1F
100
AcDbEntity
  8
0
100
AcDbCircle
 10
442.8128497299718
 20
311.8156082602466
 30
0.0
 40
0.5
100
AcDbArc
 50
62.13927223775382
 51
117.8607277622462
  0
LINE
  5
1B97
330
1F
100
AcDbEntity
  8
0
100
AcDbLine
 10
444.7826337097061
 20
311.5465210306695
 30
0.0
 11
443.9363623923099
 21
313.1475020278253
 31
0.0
  0
LINE
  5
1B98
330
1F
100
AcDbEntity
  8
0
100
AcDbLine
 10
443.0465117024927
 20
312.2576513380093
 30
0.0
 11
444.6474926996494
 21
311.4113800206128
 31
0.0
  0
LINE
  5
1B99
330
1F
100
AcDbEntity
  8
0
100
AcDbLine
 10
440.9782067589707
 20
311.4113800219368
 30
0.0
 11
442.579187757451
 21
312.257651338009
 31
0.0
  0
LINE
  5
1B9A
330
1F
100
AcDbEntity
  8
0
100
AcDbLine
 10
441.6893370676344
 20
313.147502027826
 30
0.0
 11
440.843065748914
 21
311.5465210319933
 31
0.0
  0
LINE
  5
1B9B
330
1F
100
AcDbEntity
  8
0
100
AcDbLine
 10
440.7442253794762
 20
310.5579046611192
 30
0.0
 11
440.7442253794762
 21
310.3856415647251
 31
0.0
  0
LINE
  5
1B9C
330
1F
100
AcDbEntity
  8
0
100
AcDbLine
 10
444.9447968895852
 20
310.605411614305
 30
0.0
 11
444.9447968895852
 21
310.3856415647251
 31
0.0
  0
ARC
  5
1B9D
330
1F
100
AcDbEntity
  8
0
100
AcDbCircle
 10
442.8445111345308
 20
310.3856415647251
 30
0.0
 40
2.100285755054528
100
AcDbArc
 50
180.0
 51
0.0
  0
ARC
  5
1B9E
330
1F
100
AcDbEntity
  8
0
100
AcDbCircle
 10
475.8652530336154
 20
311.8156082602463
 30
0.0
 40
0.5
100
AcDbArc
 50
62.13927223775382
 51
117.8607277622462
  0
LINE
  5
1B9F
330
1F
100
AcDbEntity
  8
0
100
AcDbLine
 10
477.8350370133497
 20
311.5465210306693
 30
0.0
 11
476.9887656959534
 21
313.1475020278251
 31
0.0
  0
LINE
  5
1BA0
330
1F
100
AcDbEntity
  8
0
100
AcDbLine
 10
476.0989150061362
 20
312.257651338009
 30
0.0
 11
477.699896003293
 21
311.4113800206126
 31
0.0
  0
ARC
  5
1BA1
330
1F
100
AcDbEntity
  8
0
100
AcDbCircle
 10
477.7466283977973
 20
311.499788636165
 30
0.0
 40
0.1
100
AcDbArc
 50
242.1392722377538
 51
27.8607277622462
  0
LINE
  5
1BA2
330
1F
100
AcDbEntity
  8
0
100
AcDbLine
 10
474.741740371278
 20
313.1475020278258
 30
0.0
 11
473.8954690525575
 21
311.5465210319931
 31
0.0
  0
ARC
  5
1BA3
330
1F
100
AcDbEntity
  8
0
100
AcDbCircle
 10
473.9838776681103
 20
311.4997886374888
 30
0.0
 40
0.1
100
AcDbArc
 50
152.1392722377538
 51
297.8607277622462
  0
LINE
  5
1BA4
330
1F
100
AcDbEntity
  8
0
100
AcDbLine
 10
474.0306100626143
 20
311.4113800219366
 30
0.0
 11
475.6315910610945
 21
312.2576513380088
 31
0.0
  0
LINE
  5
1BA5
330
1F
100
AcDbEntity
  8
0
100
AcDbLine
 10
477.9447968895852
 20
310.565938014551
 30
0.0
 11
477.9447968895853
 21
310.3856415647251
 31
0.0
  0
LINE
  5
1BA6
330
1F
100
AcDbEntity
  8
0
100
AcDbLine
 10
473.7442253794762
 20
310.5970588136886
 30
0.0
 11
473.7442253794762
 21
310.3856415647251
 31
0.0
  0
ARC
  5
1BA7
330
1F
100
AcDbEntity
  8
0
100
AcDbCircle
 10
475.8445111345308
 20
310.3856415647251
 30
0.0
 40
2.100285755054528
100
AcDbArc
 50
180.0
 51
0.0
  0
ARC
  5
1BA8
330
1F
100
AcDbEntity
  8
0
100
AcDbCircle
 10
475.8445111345308
 20
310.3856415647251
 30
0.0
 40
3.799999999999999
100
AcDbArc
 50
180.0
 51
0.0
  0
LINE
  5
1BA9
330
1F
100
AcDbEntity
  8
0
100
AcDbLine
 10
496.8276731412148
 20
299.4898671149591
 30
0.0
 11
459.3291640593598
 21
299.4898671149588
 31
0.0
  0
ARC
  5
1BAA
330
1F
100
AcDbEntity
  8
0
100
AcDbCircle
 10
442.8445111345308
 20
313.3856415647251
 30
0.0
 40
3.799999999999999
100
AcDbArc
 50
0.0
 51
180.0
  0
ARC
  5
1BAB
330
1F
100
AcDbEntity
  8
0
100
AcDbCircle
 10
444.694225094153
 20
315.2625393645278
 30
0.0
 40
0.1
100
AcDbArc
 50
332.1392722377538
 51
117.8607277622462
  0
ARC
  5
1BAC
330
1F
100
AcDbEntity
  8
0
100
AcDbCircle
 10
440.9314743657906
 20
315.2625393645283
 30
0.0
 40
0.1
100
AcDbArc
 50
62.13927223775382
 51
207.8607277622462
  0
ARC
  5
1BAD
330
1F
100
AcDbEntity
  8
0
100
AcDbCircle
 10
442.8128497299723
 20
314.9467197404463
 30
0.0
 40
0.5
100
AcDbArc
 50
242.1392722377538
 51
297.8607277622462
  0
LINE
  5
1BAE
330
1F
100
AcDbEntity
  8
0
100
AcDbLine
 10
442.5791877574514
 20
314.504676662684
 30
0.0
 11
440.9782067602947
 21
315.3509479800807
 31
0.0
  0
LINE
  5
1BAF
330
1F
100
AcDbEntity
  8
0
100
AcDbLine
 10
444.6474926996492
 20
315.3509479800803
 30
0.0
 11
443.0465117024933
 21
314.504676662684
 31
0.0
  0
LINE
  5
1BB0
330
1F
100
AcDbEntity
  8
0
100
AcDbLine
 10
443.9363623923096
 20
313.6148259728673
 30
0.0
 11
444.7826337097056
 21
315.2158069700238
 31
0.0
  0
LINE
  5
1BB1
330
1F
100
AcDbEntity
  8
0
100
AcDbLine
 10
440.8430657502379
 20
315.2158069700242
 30
0.0
 11
441.6893370676347
 21
313.6148259728677
 31
0.0
  0
LINE
  5
1BB2
330
1F
100
AcDbEntity
  8
0
100
AcDbLine
 10
421.8276731412148
 20
318.9898648921169
 30
0.0
 11
435.9776731412148
 21
318.9898648921169
 31
0.0
  0
LINE
  5
1BB3
330
1F
100
AcDbEntity
  8
7A
100
AcDbLine
 10
459.38753972815
 20
313.8459218209677
 30
0.0
 11
459.38753972815
 21
313.8459218209677
 31
0.0
  0
LINE
  5
1BB4
330
1F
100
AcDbEntity
  8
0
100
AcDbLine
 10
477.6998960032927
 20
315.35094798008
 30
0.0
 11
476.0989150061369
 21
314.5046766626838
 31
0.0
  0
LINE
  5
1BB5
330
1F
100
AcDbEntity
  8
0
100
AcDbLine
 10
476.9887656959532
 20
313.614825972867
 30
0.0
 11
477.8350370133493
 21
315.2158069700235
 31
0.0
  0
ARC
  5
1BB6
330
1F
100
AcDbEntity
  8
0
100
AcDbCircle
 10
477.7466283977966
 20
315.2625393645276
 30
0.0
 40
0.1
100
AcDbArc
 50
332.1392722377538
 51
117.8607277622462
  0
ARC
  5
1BB7
330
1F
100
AcDbEntity
  8
0
100
AcDbCircle
 10
475.8652530336158
 20
314.946719740446
 30
0.0
 40
0.5
100
AcDbArc
 50
242.1392722377538
 51
297.8607277622462
  0
LINE
  5
1BB8
330
1F
100
AcDbEntity
  8
0
100
AcDbLine
 10
473.8954690538816
 20
315.215806970024
 30
0.0
 11
474.7417403712782
 21
313.6148259728675
 31
0.0
  0
ARC
  5
1BB9
330
1F
100
AcDbEntity
  8
0
100
AcDbCircle
 10
473.9838776694342
 20
315.262539364528
 30
0.0
 40
0.1
100
AcDbArc
 50
62.13927223775382
 51
207.8607277622462
  0
LINE
  5
1BBA
330
1F
100
AcDbEntity
  8
0
100
AcDbLine
 10
475.631591061095
 20
314.5046766626838
 30
0.0
 11
474.0306100639383
 21
315.3509479800805
 31
0.0
  0
ARC
  5
1BBB
330
1F
100
AcDbEntity
  8
0
100
AcDbCircle
 10
475.8445111345308
 20
313.3856415647251
 30
0.0
 40
3.799999999999999
100
AcDbArc
 50
0.0
 51
180.0
  0
LINE
  5
1BBC
330
1F
100
AcDbEntity
  8
0
100
AcDbLine
 10
482.6776731412144
 20
318.9898648921169
 30
0.0
 11
496.8276731412148
 21
318.9898648921169
 31
0.0
  0
LINE
  5
1BBD
330
1F
100
AcDbEntity
  8
0
100
AcDbLine
 10
421.8276731412148
 20
299.4898671149588
 30
0.0
 11
421.8276731412148
 21
318.9898648921169
 31
0.0
  0
LINE
  5
1BBE
330
1F
100
AcDbEntity
  8
0
100
AcDbLine
 10
496.8276731412148
 20
299.4898671149591
 30
0.0
 11
496.8276731412148
 21
318.9898648921169
 31
0.0
  0
LINE
  5
1BBF
330
1F
100
AcDbEntity
  8
0
100
AcDbLine
 10
482.3776731412145
 20
305.889867114959
 30
0.0
 11
482.3776731412145
 21
320.6898671149589
 31
0.0
  0
LINE
  5
1BC0
330
1F
100
AcDbEntity
  8
0
100
AcDbLine
 10
436.2776731412148
 20
305.8898671149588
 30
0.0
 11
436.2776731412149
 21
320.6898671149588
 31
0.0
  0
LINE
  5
1BC1
330
1F
100
AcDbEntity
  8
0
100
AcDbLine
 10
436.2776731412149
 20
320.6898671149588
 30
0.0
 11
459.3291640593598
 21
320.6898671149588
 31
0.0
  0
LINE
  5
1BC2
330
1F
100
AcDbEntity
  8
0
100
AcDbLine
 10
482.3776731412146
 20
320.689867114959
 30
0.0
 11
459.3291640593597
 21
320.6898671149588
 31
0.0
  0
LINE
  5
1BC3
330
1F
100
AcDbEntity
  8
0
100
AcDbLine
 10
482.6776731412145
 20
302.989867114959
 30
0.0
 11
482.6776731412144
 21
318.9898648921169
 31
0.0
  0
LINE
  5
1BC4
330
1F
100
AcDbEntity
  8
0
100
AcDbLine
 10
435.9776731412148
 20
301.489867114959
 30
0.0
 11
435.977673141215
 21
318.9898648921169
 31
0.0
  0
LINE
  5
1BC5
330
1F
100
AcDbEntity
  8
0
100
AcDbLine
 10
435.977673141215
 20
302.9898671149588
 30
0.0
 11
445.3445111345309
 21
302.9898671149587
 31
0.0
  0
LINE
  5
1BC6
330
1F
100
AcDbEntity
  8
0
100
AcDbLine
 10
482.6776731412144
 20
302.9898671149589
 30
0.0
 11
473.3445111345307
 21
302.9898671149588
 31
0.0
  0
LINE
  5
1BC7
330
1F
100
AcDbEntity
  8
0
100
AcDbLine
 10
436.2776731412148
 20
305.8898671149588
 30
0.0
 11
447.3445111345308
 21
305.8898671149587
 31
0.0
  0
LINE
  5
1BC8
330
1F
100
AcDbEntity
  8
0
100
AcDbLine
 10
482.3776731412146
 20
305.889867114959
 30
0.0
 11
471.3445111345307
 21
305.8898671149589
 31
0.0
  0
LINE
  5
1BC9
330
1F
100
AcDbEntity
  8
0
100
AcDbLine
 10
436.2776731412149
 20
317.2898671149588
 30
0.0
 11
459.3291640593598
 21
317.2898671149588
 31
0.0
  0
LINE
  5
1BCA
330
1F
100
AcDbEntity
  8
0
100
AcDbLine
 10
482.3776731412145
 20
317.2898671149591
 30
0.0
 11
459.3291640593597
 21
317.2898671149588
 31
0.0
  0
LINE
  5
1BCE
330
1F
100
AcDbEntity
  8
0
100
AcDbLine
 10
482.6776731412144
 20
302.9898671149589
 30
0.0
 11
482.6776731412144
 21
301.4898671149589
 31
0.0
  0
LINE
  5
1BCF
330
1F
100
AcDbEntity
  8
0
100
AcDbLine
 10
482.6776731412144
 20
301.4898671149589
 30
0.0
 11
435.9776731412148
 21
301.489867114959
 31
0.0
  0
INSERT
  5
1BD5
330
1F
100
AcDbEntity
  8
0
 62
     7
100
AcDbBlockReference
  2
A$C563F488A
 10
496.5276731412147
 20
318.9898648921169
 30
0.0
  0
LINE
  5
1BD6
330
1F
100
AcDbEntity
  8
0
100
AcDbLine
 10
447.3445111345307
 20
314.5898671149587
 30
0.0
 11
447.3445111345308
 21
304.9898671149587
 31
0.0
  0
LINE
  5
1BD7
330
1F
100
AcDbEntity
  8
0
100
AcDbLine
 10
471.3445111345309
 20
314.5898671149589
 30
0.0
 11
471.3445111345307
 21
304.9898671149588
 31
0.0
  0
LINE
  5
1BD8
330
1F
100
AcDbEntity
  8
0
100
AcDbLine
 10
469.3445111345309
 20
316.589867114959
 30
0.0
 11
449.3445111345307
 21
316.5898671149587
 31
0.0
  0
ARC
  5
1BD9
330
1F
100
AcDbEntity
  8
0
100
AcDbCircle
 10
449.3445111345307
 20
314.5898671149587
 30
0.0
 40
2.0
100
AcDbArc
 50
90.0
 51
180.0
  0
ARC
  5
1BDA
330
1F
100
AcDbEntity
  8
0
100
AcDbCircle
 10
469.3445111345309
 20
314.5898671149589
 30
0.0
 40
2.0
100
AcDbArc
 50
0.0
 51
90.0
  0
ARC
  5
1BDB
330
1F
100
AcDbEntity
  8
0
100
AcDbCircle
 10
473.3445111345307
 20
304.9898671149588
 30
0.0
 40
2.0
100
AcDbArc
 50
180.0
 51
270.0
  0
ARC
  5
1BDC
330
1F
100
AcDbEntity
  8
0
100
AcDbCircle
 10
445.3445111345309
 20
304.9898671149587
 30
0.0
 40
2.0
100
AcDbArc
 50
270.0
 51
0.0
  0
LINE
  5
1BE9
330
1F
100
AcDbEntity
  8
0
100
AcDbLine
 10
456.5276731412154
 20
321.1898648921166
 30
0.0
 11
462.5276731412155
 21
321.1898648921165
 31
0.0
  0
DIMENSION
  5
1BEA
330
1F
100
AcDbEntity
  8
3
100
AcDbDimension
  2
*D17
 10
462.5276731412154
 20
328.9426817954603
 30
0.0
 11
459.5276731412154
 21
330.8176817954603
 31
0.0
 70
    32
 71
     5
 42
6.0
  3
DIN
100
AcDbAlignedDimension
 13
456.5276731412153
 23
325.9898648921169
 33
0.0
 14
462.5276731412154
 24
325.9898648921169
 34
0.0
100
AcDbRotatedDimension
  0
INSERT
  5
1C51
330
1F
100
AcDbEntity
  8
0
100
AcDbBlockReference
  2
A$C3EE10CAA
 10
514.5520737308397
 20
318.9898671149745
 30
0.0
 41
-1.0
 50
359.9999999999695
  0
INSERT
  5
1C84
330
1F
100
AcDbEntity
  8
0
100
AcDbBlockReference
  2
A$C50921526
 10
401.8387732690417
 20
180.1302091476602
 30
0.0
  0
INSERT
  5
1C8B
330
1F
100
AcDbEntity
  8
0
100
AcDbBlockReference
  2
A$C7F285EBB
 10
401.8387732690417
 20
132.7593580816343
 30
0.0
  0
VIEWPORT
  5
2E
330
1B
100
AcDbEntity
 67
     1
  8
0
100
AcDbViewport
 10
176.2890676073503
 20
148.501632403571
 30
0.0
 40
679.9648146771153
 41
300.3638612259345
 68
     1
 69
     1
 12
176.2890676073503
 22
148.501632403571
 13
0.0
 23
0.0
 14
10.0
 24
10.0
 15
10.0
 25
10.0
 16
0.0
 26
0.0
 36
1.0
 17
0.0
 27
0.0
 37
0.0
 42
50.0
 43
0.0
 44
0.0
 45
300.3638612259345
 50
0.0
 51
0.0
 72
   100
 90
    32800
  1

281
     0
 71
     1
 74
     0
110
0.0
120
0.0
130
0.0
111
1.0
121
0.0
131
0.0
112
0.0
122
1.0
132
0.0
 79
     0
146
0.0
170
     0
  0
INSERT
  5
75
330
1B
100
AcDbEntity
 67
     1
  8
Title Block
100
AcDbBlockReference
 66
     1
  2
DIN A4 title block
 10
0.0
 20
0.0
 30
0.0
  0
ATTRIB
  5
77
330
75
100
AcDbEntity
 67
     1
  8
RAHMEN05
100
AcDbText
 10
132.4403694335066
 20
29.70155583655916
 30
0.0
 40
5.0
  1
Standardtüröffner
  7
ISO Proportional
 72
     4
 11
160.5913536854751
 21
32.21450001038333
 31
0.0
100
AcDbAttribute
  2
BENENNUNG
 70
     0
  0
ATTRIB
  5
78
330
75
100
AcDbEntity
 67
     1
  8
RAHMEN05
100
AcDbText
 10
139.2535696603037
 20
12.82473610229667
 30
0.0
 40
5.0
  1
A7000-FA
  7
ISO Proportional
 72
     4
 11
154.2535696603037
 21
15.32473610229667
 31
0.0
100
AcDbAttribute
  2
ZEICHNUNGSNUMMER
 70
     0
  0
ATTRIB
  5
79
330
75
100
AcDbEntity
 67
     1
  8
RAHMEN025
100
AcDbText
 10
99.71813410214245
 20
31.45603256725529
 30
0.0
 40
2.5
  1
KDL
  7
ISO Proportional
100
AcDbAttribute
  2
NAME
 70
     0
  0
ATTRIB
  5
7A
330
75
100
AcDbEntity
 67
     1
  8
RAHMEN025
100
AcDbText
 10
83.45502135033781
 20
31.45603256725529
 30
0.0
 40
2.5
  1
24.09.07
  7
ISO Proportional
100
AcDbAttribute
  2
GEPRÜFT
 70
     0
  0
ATTRIB
  5
7B
330
75
100
AcDbEntity
 67
     1
  8
RAHMEN025
100
AcDbText
 10
83.45502135033781
 20
35.70603256725529
 30
0.0
 40
2.5
  1
24.09.07
  7
ISO Proportional
100
AcDbAttribute
  2
BEARBEIT.
 70
     0
  0
ATTRIB
  5
7C
330
75
100
AcDbEntity
 67
     1
  8
RAHMEN025
100
AcDbText
 10
99.71813410214245
 20
35.70603256725529
 30
0.0
 40
2.5
  1
KDL
  7
ISO Proportional
100
AcDbAttribute
  2
NAME
 70
     0
  0
ATTRIB
  5
7D
330
75
100
AcDbEntity
 67
     1
  8
RAHMEN025
100
AcDbText
 10
133.3916231867287
 20
55.81250000000001
 30
0.0
 40
2.5
  1
1:1
  7
ISO Proportional
100
AcDbAttribute
  2
MAßSTAB
 70
     0
  0
SEQEND
  5
76
330
75
100
AcDbEntity
 67
     1
  8
0
  0
VIEWPORT
  5
89
330
1B
100
AcDbEntity
 67
     1
  8
Viewport
100
AcDbViewport
 10
111.4000000000001
 20
176.125
 30
0.0
 40
187.1999999999997
 41
231.75
 68
     2
 69
     2
 12
452.0881713499106
 22
236.6567793284495
 13
0.0
 23
0.0
 14
10.0
 24
10.0
 15
10.0
 25
10.0
 16
0.0
 26
0.0
 36
1.0
 17
0.0
 27
0.0
 37
0.0
 42
50.0
 43
0.0
 44
0.0
 45
235.5993951774521
 50
0.0
 51
0.0
 72
   100
 90
    32832
  1

281
     0
 71
     1
 74
     0
110
0.0
120
0.0
130
0.0
111
1.0
121
0.0
131
0.0
112
0.0
122
1.0
132
0.0
 79
     0
146
0.0
170
     0
  0
ENDSEC
  0
SECTION
  2
OBJECTS
  0
DICTIONARY
  5
C
330
0
100
AcDbDictionary
281
     1
  3
ACAD_COLOR
350
17B0
  3
ACAD_GROUP
350
D
  3
ACAD_LAYOUT
350
1A
  3
ACAD_MATERIAL
350
1786
  3
ACAD_MLEADERSTYLE
350
17D5
  3
ACAD_MLINESTYLE
350
17
  3
ACAD_PLOTSETTINGS
350
19
  3
ACAD_PLOTSTYLENAME
350
E
  3
ACAD_SCALELIST
350
17B3
  3
ACAD_TABLESTYLE
350
17B1
  3
ACAD_VISUALSTYLE
350
179F
  3
ACDB_RECOMPOSE_DATA
350
19A1
  3
AcDbVariableDictionary
350
1643
  0
DICTIONARY
  5
1CF5
330
8
100
AcDbDictionary
280
     1
281
     1
  0
DICTIONARY
  5
17E7
330
2
100
AcDbDictionary
280
     1
281
     1
  3
ACAD_LAYERSTATES
360
17E8
  0
DICTIONARY
  5
1977
330
10
100
AcDbDictionary
280
     1
281
     1
  3
ADSK_XREC_LAYER_RECONCILED
360
1978
  0
DICTIONARY
  5
1979
330
33
100
AcDbDictionary
280
     1
281
     1
  3
ADSK_XREC_LAYER_RECONCILED
360
197A
  0
DICTIONARY
  5
197B
330
36
100
AcDbDictionary
280
     1
281
     1
  3
ADSK_XREC_LAYER_RECONCILED
360
197C
  0
DICTIONARY
  5
197D
330
5C
100
AcDbDictionary
280
     1
281
     1
  3
ADSK_XREC_LAYER_RECONCILED
360
197E
  0
DICTIONARY
  5
197F
330
72
100
AcDbDictionary
280
     1
281
     1
  3
ADSK_XREC_LAYER_RECONCILED
360
1980
  0
DICTIONARY
  5
1981
330
85
100
AcDbDictionary
280
     1
281
     1
  3
ADSK_XREC_LAYER_RECONCILED
360
1982
  0
DICTIONARY
  5
1983
330
86
100
AcDbDictionary
280
     1
281
     1
  3
ADSK_XREC_LAYER_RECONCILED
360
1984
  0
DICTIONARY
  5
1985
330
148
100
AcDbDictionary
280
     1
281
     1
  3
ADSK_XREC_LAYER_RECONCILED
360
1986
  0
DICTIONARY
  5
1987
330
149
100
AcDbDictionary
280
     1
281
     1
  3
ADSK_XREC_LAYER_RECONCILED
360
1988
  0
DICTIONARY
  5
1989
330
14A
100
AcDbDictionary
280
     1
281
     1
  3
ADSK_XREC_LAYER_RECONCILED
360
198A
  0
DICTIONARY
  5
198B
330
14B
100
AcDbDictionary
280
     1
281
     1
  3
ADSK_XREC_LAYER_RECONCILED
360
198C
  0
DICTIONARY
  5
198D
330
14C
100
AcDbDictionary
280
     1
281
     1
  3
ADSK_XREC_LAYER_RECONCILED
360
198E
  0
DICTIONARY
  5
198F
330
14D
100
AcDbDictionary
280
     1
281
     1
  3
ADSK_XREC_LAYER_RECONCILED
360
1990
  0
DICTIONARY
  5
1991
330
14F
100
AcDbDictionary
280
     1
281
     1
  3
ADSK_XREC_LAYER_RECONCILED
360
1992
  0
DICTIONARY
  5
1993
330
150
100
AcDbDictionary
280
     1
281
     1
  3
ADSK_XREC_LAYER_RECONCILED
360
1994
  0
DICTIONARY
  5
1995
330
1678
100
AcDbDictionary
280
     1
281
     1
  3
ADSK_XREC_LAYER_RECONCILED
360
1996
  0
DICTIONARY
  5
164B
330
1F
100
AcDbDictionary
280
     1
281
     1
  3
ACAD_SORTENTS
360
164C
  0
DICTIONARY
  5
1C80
330
1C7E
100
AcDbDictionary
280
     1
281
     1
  3
ACAD_SORTENTS
360
1C81
  0
DICTIONARY
  5
1C87
330
1C85
100
AcDbDictionary
280
     1
281
     1
  3
ACAD_SORTENTS
360
1C88
  0
DICTIONARY
  5
17B0
102
{ACAD_REACTORS
330
C
102
}
330
C
100
AcDbDictionary
281
     1
  0
DICTIONARY
  5
D
102
{ACAD_REACTORS
330
C
102
}
330
C
100
AcDbDictionary
281
     1
  0
DICTIONARY
  5
1A
102
{ACAD_REACTORS
330
C
102
}
330
C
100
AcDbDictionary
281
     1
  3
DIN A4 Title Block
350
1E
  3
Model
350
22
  0
DICTIONARY
  5
1786
102
{ACAD_REACTORS
330
C
102
}
330
C
100
AcDbDictionary
281
     1
  3
ByBlock
350
178F
  3
ByLayer
350
1787
  3
Global
350
1797
  0
DICTIONARY
  5
17D5
102
{ACAD_REACTORS
330
C
102
}
330
C
100
AcDbDictionary
281
     1
  3
Standard
350
17D6
  0
DICTIONARY
  5
17
102
{ACAD_REACTORS
330
C
102
}
330
C
100
AcDbDictionary
281
     1
  3
Standard
350
18
  0
DICTIONARY
  5
19
102
{ACAD_REACTORS
330
C
102
}
330
C
100
AcDbDictionary
281
     1
  3
DIN A4 title block - no output device
350
7E
  0
ACDBDICTIONARYWDFLT
  5
E
102
{ACAD_REACTORS
330
C
102
}
330
C
100
AcDbDictionary
281
     1
  3
Normal
350
F
100
AcDbDictionaryWithDefault
340
F
  0
DICTIONARY
  5
17B3
102
{ACAD_REACTORS
330
C
102
}
330
C
100
AcDbDictionary
281
     1
  3
A0
350
17B4
  3
A1
350
17B5
  3
A2
350
17B6
  3
A3
350
17B7
  3
A4
350
17B8
  3
A5
350
17B9
  3
A6
350
17BA
  3
A7
350
17BB
  3
A8
350
17BC
  3
A9
350
17BD
  3
B0
350
17BE
  3
B1
350
17BF
  3
B2
350
17C0
  3
B3
350
17C1
  3
B4
350
17C2
  3
B5
350
17C3
  3
B6
350
17C4
  3
B7
350
17C5
  3
B8
350
17C6
  3
B9
350
17C7
  3
C0
350
17C8
  3
C1
350
17C9
  3
C2
350
17CA
  3
C3
350
17CB
  3
C4
350
17CC
  3
C5
350
17CD
  3
C6
350
17CE
  3
C7
350
17CF
  3
C8
350
17D0
  3
C9
350
17D1
  3
D0
350
17D2
  3
D1
350
17D3
  3
D2
350
17D4
  0
DICTIONARY
  5
17B1
102
{ACAD_REACTORS
330
C
102
}
330
C
100
AcDbDictionary
281
     1
  3
Standard
350
17B2
  0
DICTIONARY
  5
179F
102
{ACAD_REACTORS
330
C
102
}
330
C
100
AcDbDictionary
281
     1
  3
2dWireframe
350
17A5
  3
3D Hidden
350
17A7
  3
3dWireframe
350
17A6
  3
Basic
350
17A4
  3
Brighten
350
17AB
  3
ColorChange
350
17AF
  3
Conceptual
350
17A8
  3
Dim
350
17AA
  3
Facepattern
350
17AE
  3
Flat
350
17A0
  3
FlatWithEdges
350
17A1
  3
Gouraud
350
17A2
  3
GouraudWithEdges
350
17A3
  3
Linepattern
350
17AD
  3
Realistic
350
17A9
  3
Thicken
350
17AC
  0
XRECORD
  5
19A1
102
{ACAD_REACTORS
330
C
102
}
330
C
100
AcDbXrecord
280
     1
 90
        1
330
17B2
  0
DICTIONARY
  5
1643
102
{ACAD_REACTORS
330
C
102
}
330
C
100
AcDbDictionary
281
     1
  3
CANNOSCALE
350
19A5
  3
CMLEADERSTYLE
350
19A3
  3
CTABLESTYLE
350
19A2
  3
LIGHTINGUNITS
350
19A6
  3
MSLTSCALE
350
19A4
  3
SORTENTS
350
1644
  0
DICTIONARY
  5
17E8
102
{ACAD_REACTORS
330
17E7
102
}
330
17E7
100
AcDbDictionary
281
     1
  0
XRECORD
  5
1978
102
{ACAD_REACTORS
330
1977
102
}
330
1977
100
AcDbXrecord
280
     1
290
     1
  0
XRECORD
  5
197A
102
{ACAD_REACTORS
330
1979
102
}
330
1979
100
AcDbXrecord
280
     1
290
     1
  0
XRECORD
  5
197C
102
{ACAD_REACTORS
330
197B
102
}
330
197B
100
AcDbXrecord
280
     1
290
     1
  0
XRECORD
  5
197E
102
{ACAD_REACTORS
330
197D
102
}
330
197D
100
AcDbXrecord
280
     1
290
     1
  0
XRECORD
  5
1980
102
{ACAD_REACTORS
330
197F
102
}
330
197F
100
AcDbXrecord
280
     1
290
     1
  0
XRECORD
  5
1982
102
{ACAD_REACTORS
330
1981
102
}
330
1981
100
AcDbXrecord
280
     1
290
     1
  0
XRECORD
  5
1984
102
{ACAD_REACTORS
330
1983
102
}
330
1983
100
AcDbXrecord
280
     1
290
     1
  0
XRECORD
  5
1986
102
{ACAD_REACTORS
330
1985
102
}
330
1985
100
AcDbXrecord
280
     1
290
     1
  0
XRECORD
  5
1988
102
{ACAD_REACTORS
330
1987
102
}
330
1987
100
AcDbXrecord
280
     1
290
     1
  0
XRECORD
  5
198A
102
{ACAD_REACTORS
330
1989
102
}
330
1989
100
AcDbXrecord
280
     1
290
     1
  0
XRECORD
  5
198C
102
{ACAD_REACTORS
330
198B
102
}
330
198B
100
AcDbXrecord
280
     1
290
     1
  0
XRECORD
  5
198E
102
{ACAD_REACTORS
330
198D
102
}
330
198D
100
AcDbXrecord
280
     1
290
     1
  0
XRECORD
  5
1990
102
{ACAD_REACTORS
330
198F
102
}
330
198F
100
AcDbXrecord
280
     1
290
     1
  0
XRECORD
  5
1992
102
{ACAD_REACTORS
330
1991
102
}
330
1991
100
AcDbXrecord
280
     1
290
     1
  0
XRECORD
  5
1994
102
{ACAD_REACTORS
330
1993
102
}
330
1993
100
AcDbXrecord
280
     1
290
     1
  0
XRECORD
  5
1996
102
{ACAD_REACTORS
330
1995
102
}
330
1995
100
AcDbXrecord
280
     1
290
     1
  0
SORTENTSTABLE
  5
164C
102
{ACAD_REACTORS
330
164B
102
}
330
164B
100
AcDbSortentsTable
330
1F
331
1616
  5
161A
331
1500
  5
151C
331
15B7
  5
15BA
331
DE2
  5
DE4
331
1626
  5
1630
331
1520
  5
1523
331
1419
  5
142F
331
19EF
  5
1416
331
15E7
  5
15EA
331
163E
  5
1641
331
14D1
  5
14D4
331
1528
  5
152B
331
1530
  5
1533
331
14D9
  5
14DC
331
1538
  5
153B
331
14E1
  5
14EF
331
1607
  5
160A
331
160F
  5
1612
331
1617
  5
161B
331
15B8
  5
15BB
331
1509
  5
151D
331
DE3
  5
DE6
331
15C0
  5
15E8
331
1627
  5
1631
331
1521
  5
1524
331
163F
  5
1645
331
1529
  5
152C
331
14D2
  5
14D5
331
15E8
  5
15EB
331
1531
  5
1534
331
14DA
  5
14DD
331
1647
  5
DDF
331
1539
  5
153C
331
14E2
  5
1500
331
1608
  5
160B
331
1610
  5
1613
331
15B1
  5
15B5
331
1618
  5
161C
331
15B9
  5
15BC
331
DE4
  5
DE7
331
1687
  5
16D9
331
1522
  5
1525
331
18B4
  5
18C1
331
14D3
  5
14D6
331
152A
  5
152D
331
15E9
  5
1607
331
1640
  5
1647
331
1532
  5
1535
331
14DB
  5
14DE
331
1648
  5
1684
331
153A
  5
153D
331
14E3
  5
1509
331
1609
  5
160C
331
1611
  5
1614
331
15B2
  5
15B6
331
15BA
  5
15C0
331
151B
  5
151E
331
1523
  5
1526
331
17FE
  5
182A
331
14D4
  5
14D7
331
152B
  5
152E
331
15EA
  5
1608
331
1641
  5
1648
331
1533
  5
1536
331
14DC
  5
14DF
331
153B
  5
15B1
331
160A
  5
160D
331
1612
  5
1615
331
13B5
  5
13F4
331
161A
  5
161D
331
15BB
  5
15E6
331
16D9
  5
16DB
331
151C
  5
151F
331
162A
  5
1633
331
1524
  5
1527
331
163A
  5
163D
331
14D5
  5
14D8
331
152C
  5
152F
331
15EB
  5
1609
331
1534
  5
1537
331
14DD
  5
14E0
331
164A
  5
DDD
331
153C
  5
15B2
331
160B
  5
160E
331
1613
  5
1616
331
15B4
  5
15B7
331
161B
  5
1626
331
15BC
  5
15E7
331
151D
  5
1520
331
18A7
  5
18B4
331
1525
  5
1528
331
163B
  5
163E
331
1840
  5
18A7
331
152D
  5
1530
331
14D6
  5
14D9
331
14DE
  5
14E1
331
1535
  5
1538
331
153D
  5
15B4
331
160C
  5
160F
331
1614
  5
1617
331
19D5
  5
19EE
331
161C
  5
1627
331
15B5
  5
15B8
331
16DB
  5
16DC
331
170B
  5
17FE
331
151E
  5
1521
331
1417
  5
141A
331
1526
  5
1529
331
163C
  5
163F
331
14D7
  5
14DA
331
152E
  5
1531
331
1536
  5
1539
331
14DF
  5
14E2
331
160D
  5
1610
331
14EF
  5
151B
331
1615
  5
1618
331
15B6
  5
15B9
331
DE1
  5
DE3
331
161D
  5
162A
331
16DC
  5
170B
331
151F
  5
1522
331
1418
  5
141B
331
15E6
  5
15E9
331
1527
  5
152A
331
163D
  5
1640
331
18C1
  5
19D5
331
14D0
  5
14D3
331
14D8
  5
14DB
331
152F
  5
1532
331
1645
  5
164A
331
1537
  5
153A
331
14E0
  5
14E3
331
160E
  5
1611
  0
SORTENTSTABLE
  5
1C81
102
{ACAD_REACTORS
330
1C80
102
}
330
1C80
100
AcDbSortentsTable
330
1C7E
  0
SORTENTSTABLE
  5
1C88
102
{ACAD_REACTORS
330
1C87
102
}
330
1C87
100
AcDbSortentsTable
330
1C85
  0
LAYOUT
  5
1E
102
{ACAD_XDICTIONARY
360
17EC
102
}
102
{ACAD_REACTORS
330
1A
102
}
330
1A
100
AcDbPlotSettings
  1

  2
Adobe PDF
  4
A4
  6

 40
3.174999952316284
 41
3.174999952316284
 42
3.175003051757812
 43
3.17498779296875
 44
209.9098358154297
 45
297.0318298339844
 46
0.0
 47
1.399999999999999
 48
0.0
 49
0.0
140
0.0
141
0.0
142
1.0
143
1.031729596046116
 70
   756
 72
     1
 73
     0
 74
     1
  7
aclt.ctb
 75
     0
147
0.9692462093093837
 76
     0
 77
     2
 78
   300
148
0.0156219351694063
149
0.0054067899206984
100
AcDbLayout
  1
DIN A4 Title Block
 70
     1
 71
     1
 10
-5.877474836766263
 20
-13.10186532834567
 11
215.797284243984
 21
300.3712748991296
 12
0.0
 22
0.0
 32
0.0
 14
0.0
 24
0.0
 34
0.0
 15
210.0
 25
297.0
 35
0.0
146
0.0
 13
0.0
 23
0.0
 33
0.0
 16
1.0
 26
0.0
 36
0.0
 17
0.0
 27
1.0
 37
0.0
 76
     0
330
1B
331
2E
  0
LAYOUT
  5
22
102
{ACAD_REACTORS
330
1A
102
}
330
1A
100
AcDbPlotSettings
  1

  2
none_device
  4
Letter_(8.50_x_11.00_Inches)
  6

 40
6.349999904632568
 41
6.349999904632568
 42
6.350006103515625
 43
6.350006103515625
 44
215.8999938964844
 45
279.3999938964844
 46
0.0
 47
0.0
 48
0.0
 49
0.0
140
0.0
141
0.0
142
1.0
143
88.35030885501533
 70
 11920
 72
     0
 73
     1
 74
     0
  7

 75
     0
147
0.0113185795608369
 76
     0
 77
     2
 78
   300
148
45.96799130115901
149
624.965926703681
100
AcDbLayout
  1
Model
 70
     1
 71
     0
 10
0.0
 20
0.0
 11
12.0
 21
9.0
 12
0.0
 22
0.0
 32
0.0
 14
0.0
 24
0.0
 34
0.0
 15
0.0
 25
0.0
 35
0.0
146
0.0
 13
0.0
 23
0.0
 33
0.0
 16
1.0
 26
0.0
 36
0.0
 17
0.0
 27
1.0
 37
0.0
 76
     0
330
1F
331
1784
  0
MATERIAL
  5
178F
102
{ACAD_XDICTIONARY
360
1790
102
}
102
{ACAD_REACTORS
330
1786
102
}
330
1786
100
AcDbMaterial
  1
ByBlock
 72
     0
 43
0.0008202099737533
 43
0.0
 43
0.0
 43
0.0
 43
0.0
 43
0.0008202099737533
 43
0.0
 43
0.0
 43
0.0
 43
0.0
 43
1.0
 43
0.0
 43
0.0
 43
0.0
 43
0.0
 43
1.0
 77
     0
 47
0.0008202099737533
 47
0.0
 47
0.0
 47
0.0
 47
0.0
 47
0.0008202099737533
 47
0.0
 47
0.0
 47
0.0
 47
0.0
 47
1.0
 47
0.0
 47
0.0
 47
0.0
 47
0.0
 47
1.0
171
     0
 49
0.0008202099737533
 49
0.0
 49
0.0
 49
0.0
 49
0.0
 49
0.0008202099737533
 49
0.0
 49
0.0
 49
0.0
 49
0.0
 49
1.0
 49
0.0
 49
0.0
 49
0.0
 49
0.0
 49
1.0
175
     0
142
0.0008202099737533
142
0.0
142
0.0
142
0.0
142
0.0
142
0.0008202099737533
142
0.0
142
0.0
142
0.0
142
0.0
142
1.0
142
0.0
142
0.0
142
0.0
142
0.0
142
1.0
179
     0
144
0.0008202099737533
144
0.0
144
0.0
144
0.0
144
0.0
144
0.0008202099737533
144
0.0
144
0.0
144
0.0
144
0.0
144
1.0
144
0.0
144
0.0
144
0.0
144
0.0
144
1.0
147
0.0008202099737533
147
0.0
147
0.0
147
0.0
147
0.0
147
0.0008202099737533
147
0.0
147
0.0
147
0.0
147
0.0
147
1.0
147
0.0
147
0.0
147
0.0
147
0.0
147
1.0
  0
MATERIAL
  5
1787
102
{ACAD_XDICTIONARY
360
1788
102
}
102
{ACAD_REACTORS
330
1786
102
}
330
1786
100
AcDbMaterial
  1
ByLayer
 72
     0
 43
0.0008202099737533
 43
0.0
 43
0.0
 43
0.0
 43
0.0
 43
0.0008202099737533
 43
0.0
 43
0.0
 43
0.0
 43
0.0
 43
1.0
 43
0.0
 43
0.0
 43
0.0
 43
0.0
 43
1.0
 77
     0
 47
0.0008202099737533
 47
0.0
 47
0.0
 47
0.0
 47
0.0
 47
0.0008202099737533
 47
0.0
 47
0.0
 47
0.0
 47
0.0
 47
1.0
 47
0.0
 47
0.0
 47
0.0
 47
0.0
 47
1.0
171
     0
 49
0.0008202099737533
 49
0.0
 49
0.0
 49
0.0
 49
0.0
 49
0.0008202099737533
 49
0.0
 49
0.0
 49
0.0
 49
0.0
 49
1.0
 49
0.0
 49
0.0
 49
0.0
 49
0.0
 49
1.0
175
     0
142
0.0008202099737533
142
0.0
142
0.0
142
0.0
142
0.0
142
0.0008202099737533
142
0.0
142
0.0
142
0.0
142
0.0
142
1.0
142
0.0
142
0.0
142
0.0
142
0.0
142
1.0
179
     0
144
0.0008202099737533
144
0.0
144
0.0
144
0.0
144
0.0
144
0.0008202099737533
144
0.0
144
0.0
144
0.0
144
0.0
144
1.0
144
0.0
144
0.0
144
0.0
144
0.0
144
1.0
147
0.0008202099737533
147
0.0
147
0.0
147
0.0
147
0.0
147
0.0008202099737533
147
0.0
147
0.0
147
0.0
147
0.0
147
1.0
147
0.0
147
0.0
147
0.0
147
0.0
147
1.0
  0
MATERIAL
  5
1797
102
{ACAD_XDICTIONARY
360
1798
102
}
102
{ACAD_REACTORS
330
1786
102
}
330
1786
100
AcDbMaterial
  1
Global
 72
     0
 43
0.0008202099737533
 43
0.0
 43
0.0
 43
0.0
 43
0.0
 43
0.0008202099737533
 43
0.0
 43
0.0
 43
0.0
 43
0.0
 43
1.0
 43
0.0
 43
0.0
 43
0.0
 43
0.0
 43
1.0
 77
     0
 47
0.0008202099737533
 47
0.0
 47
0.0
 47
0.0
 47
0.0
 47
0.0008202099737533
 47
0.0
 47
0.0
 47
0.0
 47
0.0
 47
1.0
 47
0.0
 47
0.0
 47
0.0
 47
0.0
 47
1.0
171
     0
 49
0.0008202099737533
 49
0.0
 49
0.0
 49
0.0
 49
0.0
 49
0.0008202099737533
 49
0.0
 49
0.0
 49
0.0
 49
0.0
 49
1.0
 49
0.0
 49
0.0
 49
0.0
 49
0.0
 49
1.0
175
     0
142
0.0008202099737533
142
0.0
142
0.0
142
0.0
142
0.0
142
0.0008202099737533
142
0.0
142
0.0
142
0.0
142
0.0
142
1.0
142
0.0
142
0.0
142
0.0
142
0.0
142
1.0
179
     0
144
0.0008202099737533
144
0.0
144
0.0
144
0.0
144
0.0
144
0.0008202099737533
144
0.0
144
0.0
144
0.0
144
0.0
144
1.0
144
0.0
144
0.0
144
0.0
144
0.0
144
1.0
147
0.0008202099737533
147
0.0
147
0.0
147
0.0
147
0.0
147
0.0008202099737533
147
0.0
147
0.0
147
0.0
147
0.0
147
1.0
147
0.0
147
0.0
147
0.0
147
0.0
147
1.0
  0
MLEADERSTYLE
  5
17D6
102
{ACAD_REACTORS
330
17D5
102
}
330
17D5
100
AcDbMLeaderStyle
170
     2
171
     1
172
     0
 90
        2
 40
0.0
 41
0.0
173
     1
 91
-1056964608
340
14
 92
       -2
290
     1
 42
2.0
291
     1
 43
0.36
  3
Standard
 44
4.0
300

342
11
174
     1
178
     6
175
     1
176
     0
 93
-1056964608
 45
4.0
292
     0
297
     0
 46
4.0
 94
-1056964608
 47
1.0
 49
1.0
140
1.0
293
     1
141
0.0
294
     1
177
     0
142
1.0
295
     0
296
     0
143
0.125
1001
ACAD_MLEADERVER
1070
     2
  0
MLINESTYLE
  5
18
102
{ACAD_REACTORS
330
17
102
}
330
17
100
AcDbMlineStyle
  2
STANDARD
 70
     0
  3

 62
   256
 51
90.0
 52
90.0
 71
     2
 49
0.5
 62
   256
  6
BYLAYER
 49
-0.5
 62
   256
  6
BYLAYER
  0
PLOTSETTINGS
  5
7E
102
{ACAD_REACTORS
330
19
102
}
330
19
100
AcDbPlotSettings
  1
DIN A4 title block - no output device
  2
None
  4
ISO_A4_(210.00_x_297.00_MM)
  6

 40
7.549999999999999
 41
20.05
 42
7.549999999999999
 43
20.05
 44
210.0
 45
297.0
 46
-7.559999999999999
 47
-20.06
 48
0.0
 49
0.0
140
0.0
141
0.0
142
1.0
143
1.0
 70
   692
 72
     1
 73
     0
 74
     1
  7

 75
    16
147
1.0
 76
     0
 77
     2
 78
   300
148
0.0128164049386896
149
0.0090630292066862
  0
ACDBPLACEHOLDER
  5
F
102
{ACAD_REACTORS
330
E
102
}
330
E
  0
SCALE
  5
17B4
102
{ACAD_REACTORS
330
17B3
102
}
330
17B3
100
AcDbScale
 70
     0
300
1:1
140
1.0
141
1.0
290
     1
  0
SCALE
  5
17B5
102
{ACAD_REACTORS
330
17B3
102
}
330
17B3
100
AcDbScale
 70
     0
300
1:2
140
1.0
141
2.0
290
     0
  0
SCALE
  5
17B6
102
{ACAD_REACTORS
330
17B3
102
}
330
17B3
100
AcDbScale
 70
     0
300
1:4
140
1.0
141
4.0
290
     0
  0
SCALE
  5
17B7
102
{ACAD_REACTORS
330
17B3
102
}
330
17B3
100
AcDbScale
 70
     0
300
1:5
140
1.0
141
5.0
290
     0
  0
SCALE
  5
17B8
102
{ACAD_REACTORS
330
17B3
102
}
330
17B3
100
AcDbScale
 70
     0
300
1:8
140
1.0
141
8.0
290
     0
  0
SCALE
  5
17B9
102
{ACAD_REACTORS
330
17B3
102
}
330
17B3
100
AcDbScale
 70
     0
300
1:10
140
1.0
141
10.0
290
     0
  0
SCALE
  5
17BA
102
{ACAD_REACTORS
330
17B3
102
}
330
17B3
100
AcDbScale
 70
     0
300
1:16
140
1.0
141
16.0
290
     0
  0
SCALE
  5
17BB
102
{ACAD_REACTORS
330
17B3
102
}
330
17B3
100
AcDbScale
 70
     0
300
1:20
140
1.0
141
20.0
290
     0
  0
SCALE
  5
17BC
102
{ACAD_REACTORS
330
17B3
102
}
330
17B3
100
AcDbScale
 70
     0
300
1:30
140
1.0
141
30.0
290
     0
  0
SCALE
  5
17BD
102
{ACAD_REACTORS
330
17B3
102
}
330
17B3
100
AcDbScale
 70
     0
300
1:40
140
1.0
141
40.0
290
     0
  0
SCALE
  5
17BE
102
{ACAD_REACTORS
330
17B3
102
}
330
17B3
100
AcDbScale
 70
     0
300
1:50
140
1.0
141
50.0
290
     0
  0
SCALE
  5
17BF
102
{ACAD_REACTORS
330
17B3
102
}
330
17B3
100
AcDbScale
 70
     0
300
1:100
140
1.0
141
100.0
290
     0
  0
SCALE
  5
17C0
102
{ACAD_REACTORS
330
17B3
102
}
330
17B3
100
AcDbScale
 70
     0
300
2:1
140
2.0
141
1.0
290
     0
  0
SCALE
  5
17C1
102
{ACAD_REACTORS
330
17B3
102
}
330
17B3
100
AcDbScale
 70
     0
300
4:1
140
4.0
141
1.0
290
     0
  0
SCALE
  5
17C2
102
{ACAD_REACTORS
330
17B3
102
}
330
17B3
100
AcDbScale
 70
     0
300
8:1
140
8.0
141
1.0
290
     0
  0
SCALE
  5
17C3
102
{ACAD_REACTORS
330
17B3
102
}
330
17B3
100
AcDbScale
 70
     0
300
10:1
140
10.0
141
1.0
290
     0
  0
SCALE
  5
17C4
102
{ACAD_REACTORS
330
17B3
102
}
330
17B3
100
AcDbScale
 70
     0
300
100:1
140
100.0
141
1.0
290
     0
  0
SCALE
  5
17C5
102
{ACAD_REACTORS
330
17B3
102
}
330
17B3
100
AcDbScale
 70
     0
300
1/128" = 1'-0"
140
0.0078125
141
12.0
290
     0
  0
SCALE
  5
17C6
102
{ACAD_REACTORS
330
17B3
102
}
330
17B3
100
AcDbScale
 70
     0
300
1/64" = 1'-0"
140
0.015625
141
12.0
290
     0
  0
SCALE
  5
17C7
102
{ACAD_REACTORS
330
17B3
102
}
330
17B3
100
AcDbScale
 70
     0
300
1/32" = 1'-0"
140
0.03125
141
12.0
290
     0
  0
SCALE
  5
17C8
102
{ACAD_REACTORS
330
17B3
102
}
330
17B3
100
AcDbScale
 70
     0
300
1/16" = 1'-0"
140
0.0625
141
12.0
290
     0
  0
SCALE
  5
17C9
102
{ACAD_REACTORS
330
17B3
102
}
330
17B3
100
AcDbScale
 70
     0
300
3/32" = 1'-0"
140
0.09375
141
12.0
290
     0
  0
SCALE
  5
17CA
102
{ACAD_REACTORS
330
17B3
102
}
330
17B3
100
AcDbScale
 70
     0
300
1/8" = 1'-0"
140
0.125
141
12.0
290
     0
  0
SCALE
  5
17CB
102
{ACAD_REACTORS
330
17B3
102
}
330
17B3
100
AcDbScale
 70
     0
300
3/16" = 1'-0"
140
0.1875
141
12.0
290
     0
  0
SCALE
  5
17CC
102
{ACAD_REACTORS
330
17B3
102
}
330
17B3
100
AcDbScale
 70
     0
300
1/4" = 1'-0"
140
0.25
141
12.0
290
     0
  0
SCALE
  5
17CD
102
{ACAD_REACTORS
330
17B3
102
}
330
17B3
100
AcDbScale
 70
     0
300
3/8" = 1'-0"
140
0.375
141
12.0
290
     0
  0
SCALE
  5
17CE
102
{ACAD_REACTORS
330
17B3
102
}
330
17B3
100
AcDbScale
 70
     0
300
1/2" = 1'-0"
140
0.5
141
12.0
290
     0
  0
SCALE
  5
17CF
102
{ACAD_REACTORS
330
17B3
102
}
330
17B3
100
AcDbScale
 70
     0
300
3/4" = 1'-0"
140
0.75
141
12.0
290
     0
  0
SCALE
  5
17D0
102
{ACAD_REACTORS
330
17B3
102
}
330
17B3
100
AcDbScale
 70
     0
300
1" = 1'-0"
140
1.0
141
12.0
290
     0
  0
SCALE
  5
17D1
102
{ACAD_REACTORS
330
17B3
102
}
330
17B3
100
AcDbScale
 70
     0
300
1-1/2" = 1'-0"
140
1.5
141
12.0
290
     0
  0
SCALE
  5
17D2
102
{ACAD_REACTORS
330
17B3
102
}
330
17B3
100
AcDbScale
 70
     0
300
3" = 1'-0"
140
3.0
141
12.0
290
     0
  0
SCALE
  5
17D3
102
{ACAD_REACTORS
330
17B3
102
}
330
17B3
100
AcDbScale
 70
     0
300
6" = 1'-0"
140
6.0
141
12.0
290
     0
  0
SCALE
  5
17D4
102
{ACAD_REACTORS
330
17B3
102
}
330
17B3
100
AcDbScale
 70
     0
300
1'-0" = 1'-0"
140
12.0
141
12.0
290
     0
  0
TABLESTYLE
  5
17B2
102
{ACAD_XDICTIONARY
360
199F
102
}
102
{ACAD_REACTORS
330
17B1
102
}
330
17B1
100
AcDbTableStyle
  3
Standard
 70
     0
 71
     0
 40
1.5
 41
1.5
280
     0
281
     0
  7
Standard
140
4.5
170
     2
 62
     0
 63
     7
283
     0
274
    -2
284
     1
 64
     0
275
    -2
285
     1
 65
     0
276
    -2
286
     1
 66
     0
277
    -2
287
     1
 67
     0
278
    -2
288
     1
 68
     0
279
    -2
289
     1
 69
     0
  7
Standard
140
6.0
170
     5
 62
     0
 63
     7
283
     0
274
    -2
284
     1
 64
     0
275
    -2
285
     1
 65
     0
276
    -2
286
     1
 66
     0
277
    -2
287
     1
 67
     0
278
    -2
288
     1
 68
     0
279
    -2
289
     1
 69
     0
  7
Standard
140
4.5
170
     5
 62
     0
 63
     7
283
     0
274
    -2
284
     1
 64
     0
275
    -2
285
     1
 65
     0
276
    -2
286
     1
 66
     0
277
    -2
287
     1
 67
     0
278
    -2
288
     1
 68
     0
279
    -2
289
     1
 69
     0
  0
VISUALSTYLE
  5
17A5
102
{ACAD_REACTORS
330
179F
102
}
330
179F
100
AcDbVisualStyle
  2
2dWireframe
 70
     4
 71
     0
 72
     2
 73
     0
 90
        0
 40
-0.6
 41
-30.0
 62
     5
 63
     7
421
 16777215
 74
     1
 91
        4
 64
     7
 65
   257
 75
     1
175
     1
 42
1.0
 92
        0
 66
   257
 43
1.0
 76
     1
 77
     6
 78
     2
 67
     7
 79
     5
170
     0
171
     0
290
     0
174
     0
 93
        1
 44
0.0
173
     0
291
     0
 45
0.0
1001
ACAD
1000
AcDbSavedByObjectVersion
1070
     0
  0
VISUALSTYLE
  5
17A7
102
{ACAD_REACTORS
330
179F
102
}
330
179F
100
AcDbVisualStyle
  2
3D Hidden
 70
     6
 71
     1
 72
     2
 73
     2
 90
        0
 40
-0.6
 41
-30.0
 62
     5
 63
     7
421
 16777215
 74
     2
 91
        2
 64
     7
 65
   257
 75
     2
175
     1
 42
40.0
 92
        0
 66
   257
 43
1.0
 76
     1
 77
     6
 78
     2
 67
     7
 79
     3
170
     0
171
     0
290
     0
174
     0
 93
        1
 44
0.0
173
     0
291
     0
 45
0.0
1001
ACAD
1000
AcDbSavedByObjectVersion
1070
     0
  0
VISUALSTYLE
  5
17A6
102
{ACAD_REACTORS
330
179F
102
}
330
179F
100
AcDbVisualStyle
  2
3dWireframe
 70
     5
 71
     0
 72
     2
 73
     0
 90
        0
 40
-0.6
 41
-30.0
 62
     5
 63
     7
421
 16777215
 74
     1
 91
        4
 64
     7
 65
   257
 75
     1
175
     1
 42
1.0
 92
        0
 66
   257
 43
1.0
 76
     1
 77
     6
 78
     2
 67
     7
 79
     5
170
     0
171
     0
290
     0
174
     0
 93
        1
 44
0.0
173
     0
291
     0
 45
0.0
1001
ACAD
1000
AcDbSavedByObjectVersion
1070
     0
  0
VISUALSTYLE
  5
17A4
102
{ACAD_REACTORS
330
179F
102
}
330
179F
100
AcDbVisualStyle
  2
Basic
 70
     7
 71
     1
 72
     0
 73
     1
 90
        0
 40
-0.6
 41
-30.0
 62
     5
 63
     7
421
 16777215
 74
     0
 91
        4
 64
     7
 65
   257
 75
     1
175
     1
 42
1.0
 92
        8
 66
     7
 43
1.0
 76
     1
 77
     6
 78
     2
 67
     7
 79
     5
170
     0
171
     0
290
     0
174
     0
 93
        1
 44
0.0
173
     0
291
     1
 45
0.0
1001
ACAD
1000
AcDbSavedByObjectVersion
1070
     0
  0
VISUALSTYLE
  5
17AB
102
{ACAD_REACTORS
330
179F
102
}
330
179F
100
AcDbVisualStyle
  2
Brighten
 70
    12
 71
     2
 72
     2
 73
     0
 90
        0
 40
-0.6
 41
-30.0
 62
     5
 63
     7
421
 16777215
 74
     1
 91
        4
 64
     7
 65
   257
 75
     1
175
     1
 42
1.0
 92
        8
 66
     7
 43
1.0
 76
     1
 77
     6
 78
     2
 67
     7
 79
     5
170
     0
171
     0
290
     0
174
     0
 93
        1
 44
50.0
173
     0
291
     1
 45
0.0
1001
ACAD
1000
AcDbSavedByObjectVersion
1070
     0
  0
VISUALSTYLE
  5
17AF
102
{ACAD_REACTORS
330
179F
102
}
330
179F
100
AcDbVisualStyle
  2
ColorChange
 70
    16
 71
     2
 72
     2
 73
     3
 90
        0
 40
-0.6
 41
-30.0
 62
     5
 63
     8
421
  8421504
 74
     1
 91
        4
 64
     7
 65
   257
 75
     1
175
     1
 42
1.0
 92
        8
 66
     8
424
  8421504
 43
1.0
 76
     1
 77
     6
 78
     2
 67
     7
 79
     5
170
     0
171
     0
290
     0
174
     0
 93
        1
 44
0.0
173
     0
291
     1
 45
0.0
1001
ACAD
1000
AcDbSavedByObjectVersion
1070
     0
  0
VISUALSTYLE
  5
17A8
102
{ACAD_REACTORS
330
179F
102
}
330
179F
100
AcDbVisualStyle
  2
Conceptual
 70
     9
 71
     3
 72
     2
 73
     0
 90
        0
 40
-0.6
 41
-30.0
 62
     5
 63
     7
421
 16777215
 74
     2
 91
        2
 64
     7
 65
   257
 75
     1
175
     1
 42
40.0
 92
        8
 66
     7
 43
1.0
 76
     1
 77
     6
 78
     2
 67
     7
 79
     3
170
     0
171
     0
290
     0
174
     0
 93
        1
 44
0.0
173
     0
291
     0
 45
0.0
1001
ACAD
1000
AcDbSavedByObjectVersion
1070
     0
  0
VISUALSTYLE
  5
17AA
102
{ACAD_REACTORS
330
179F
102
}
330
179F
100
AcDbVisualStyle
  2
Dim
 70
    11
 71
     2
 72
     2
 73
     0
 90
        0
 40
-0.6
 41
-30.0
 62
     5
 63
     7
421
 16777215
 74
     1
 91
        4
 64
     7
 65
   257
 75
     1
175
     1
 42
1.0
 92
        8
 66
     7
 43
1.0
 76
     1
 77
     6
 78
     2
 67
     7
 79
     5
170
     0
171
     0
290
     0
174
     0
 93
        1
 44
-50.0
173
     0
291
     1
 45
0.0
1001
ACAD
1000
AcDbSavedByObjectVersion
1070
     0
  0
VISUALSTYLE
  5
17AE
102
{ACAD_REACTORS
330
179F
102
}
330
179F
100
AcDbVisualStyle
  2
Facepattern
 70
    15
 71
     2
 72
     2
 73
     0
 90
        0
 40
-0.6
 41
-30.0
 62
     5
 63
     7
421
 16777215
 74
     1
 91
        4
 64
     7
 65
   257
 75
     1
175
     1
 42
1.0
 92
        8
 66
     7
 43
1.0
 76
     1
 77
     6
 78
     2
 67
     7
 79
     5
170
     0
171
     0
290
     0
174
     0
 93
        1
 44
0.0
173
     0
291
     1
 45
0.0
1001
ACAD
1000
AcDbSavedByObjectVersion
1070
     0
  0
VISUALSTYLE
  5
17A0
102
{ACAD_REACTORS
330
179F
102
}
330
179F
100
AcDbVisualStyle
  2
Flat
 70
     0
 71
     2
 72
     1
 73
     1
 90
        2
 40
-0.6
 41
30.0
 62
     5
 63
     7
421
 16777215
 74
     0
 91
        4
 64
     7
 65
   257
 75
     1
175
     1
 42
1.0
 92
        8
 66
     7
 43
1.0
 76
     1
 77
     6
 78
     2
 67
     7
 79
     5
170
     0
171
     0
290
     0
174
     0
 93
       13
 44
0.0
173
     0
291
     1
 45
0.0
1001
ACAD
1000
AcDbSavedByObjectVersion
1070
     0
  0
VISUALSTYLE
  5
17A1
102
{ACAD_REACTORS
330
179F
102
}
330
179F
100
AcDbVisualStyle
  2
FlatWithEdges
 70
     1
 71
     2
 72
     1
 73
     1
 90
        2
 40
-0.6
 41
30.0
 62
     5
 63
     7
421
 16777215
 74
     1
 91
        4
 64
     7
 65
   257
 75
     1
175
     1
 42
1.0
 92
        0
 66
   257
 43
1.0
 76
     1
 77
     6
 78
     2
 67
     7
 79
     5
170
     0
171
     0
290
     0
174
     0
 93
       13
 44
0.0
173
     0
291
     1
 45
0.0
1001
ACAD
1000
AcDbSavedByObjectVersion
1070
     0
  0
VISUALSTYLE
  5
17A2
102
{ACAD_REACTORS
330
179F
102
}
330
179F
100
AcDbVisualStyle
  2
Gouraud
 70
     2
 71
     2
 72
     2
 73
     1
 90
        2
 40
-0.6
 41
30.0
 62
     5
 63
     7
421
 16777215
 74
     0
 91
        4
 64
     7
 65
   257
 75
     1
175
     1
 42
1.0
 92
        0
 66
     7
 43
1.0
 76
     1
 77
     6
 78
     2
 67
     7
 79
     5
170
     0
171
     0
290
     0
174
     0
 93
       13
 44
0.0
173
     0
291
     1
 45
0.0
1001
ACAD
1000
AcDbSavedByObjectVersion
1070
     0
  0
VISUALSTYLE
  5
17A3
102
{ACAD_REACTORS
330
179F
102
}
330
179F
100
AcDbVisualStyle
  2
GouraudWithEdges
 70
     3
 71
     2
 72
     2
 73
     1
 90
        2
 40
-0.6
 41
30.0
 62
     5
 63
     7
421
 16777215
 74
     1
 91
        4
 64
     7
 65
   257
 75
     1
175
     1
 42
1.0
 92
        0
 66
   257
 43
1.0
 76
     1
 77
     6
 78
     2
 67
     7
 79
     5
170
     0
171
     0
290
     0
174
     0
 93
       13
 44
0.0
173
     0
291
     1
 45
0.0
1001
ACAD
1000
AcDbSavedByObjectVersion
1070
     0
  0
VISUALSTYLE
  5
17AD
102
{ACAD_REACTORS
330
179F
102
}
330
179F
100
AcDbVisualStyle
  2
Linepattern
 70
    14
 71
     2
 72
     2
 73
     0
 90
        0
 40
-0.6
 41
-30.0
 62
     5
 63
     7
421
 16777215
 74
     1
 91
        4
 64
     7
 65
   257
 75
     7
175
     7
 42
1.0
 92
        8
 66
     7
 43
1.0
 76
     1
 77
     6
 78
     2
 67
     7
 79
     5
170
     0
171
     0
290
     0
174
     0
 93
        1
 44
0.0
173
     0
291
     1
 45
0.0
1001
ACAD
1000
AcDbSavedByObjectVersion
1070
     0
  0
VISUALSTYLE
  5
17A9
102
{ACAD_REACTORS
330
179F
102
}
330
179F
100
AcDbVisualStyle
  2
Realistic
 70
     8
 71
     2
 72
     2
 73
     0
 90
        0
 40
-0.6
 41
-30.0
 62
     5
 63
     7
421
 16777215
 74
     1
 91
        0
 64
     7
 65
   257
 75
     1
175
     1
 42
1.0
 92
        8
 66
     8
424
  7895160
 43
1.0
 76
     1
 77
     6
 78
     2
 67
     7
 79
     5
170
     0
171
     0
290
     0
174
     0
 93
       13
 44
0.0
173
     0
291
     0
 45
0.0
1001
ACAD
1000
AcDbSavedByObjectVersion
1070
     0
  0
VISUALSTYLE
  5
17AC
102
{ACAD_REACTORS
330
179F
102
}
330
179F
100
AcDbVisualStyle
  2
Thicken
 70
    13
 71
     2
 72
     2
 73
     0
 90
        0
 40
-0.6
 41
-30.0
 62
     5
 63
     7
421
 16777215
 74
     1
 91
        4
 64
     7
 65
   257
 75
     1
175
     1
 42
1.0
 92
       12
 66
     7
 43
1.0
 76
     1
 77
     6
 78
     2
 67
     7
 79
     5
170
     0
171
     0
290
     0
174
     0
 93
        1
 44
0.0
173
     0
291
     1
 45
0.0
1001
ACAD
1000
AcDbSavedByObjectVersion
1070
     0
  0
DICTIONARYVAR
  5
19A5
102
{ACAD_REACTORS
330
1643
102
}
330
1643
100
DictionaryVariables
280
     0
  1
1:1
  0
DICTIONARYVAR
  5
19A3
102
{ACAD_REACTORS
330
1643
102
}
330
1643
100
DictionaryVariables
280
     0
  1
STANDARD
  0
DICTIONARYVAR
  5
19A2
102
{ACAD_REACTORS
330
1643
102
}
330
1643
100
DictionaryVariables
280
     0
  1
STANDARD
  0
DICTIONARYVAR
  5
19A6
102
{ACAD_REACTORS
330
1643
102
}
330
1643
100
DictionaryVariables
280
     0
  1
0
  0
DICTIONARYVAR
  5
19A4
102
{ACAD_REACTORS
330
1643
102
}
330
1643
100
DictionaryVariables
280
     0
  1
0
  0
DICTIONARYVAR
  5
1644
102
{ACAD_REACTORS
330
1643
102
}
330
1643
100
DictionaryVariables
280
     0
  1
127
  0
DICTIONARY
  5
17EC
330
1E
100
AcDbDictionary
280
     1
281
     1
  3
ADSK_XREC_LAYOUTTHUMBNAIL
360
17ED
  0
DICTIONARY
  5
1790
330
178F
100
AcDbDictionary
280
     1
281
     1
  3
ACAD_XREC_ROUNDTRIP
360
1D09
  3
BUMPTILE
360
1792
  3
DIFFUSETILE
360
1791
  3
OPACITYTILE
360
1795
  3
REFLECTIONTILE
360
1794
  3
REFRACTIONTILE
360
1796
  3
SPECULARTILE
360
1793
  0
DICTIONARY
  5
1788
330
1787
100
AcDbDictionary
280
     1
281
     1
  3
ACAD_XREC_ROUNDTRIP
360
1D08
  3
BUMPTILE
360
178A
  3
DIFFUSETILE
360
1789
  3
OPACITYTILE
360
178D
  3
REFLECTIONTILE
360
178C
  3
REFRACTIONTILE
360
178E
  3
SPECULARTILE
360
178B
  0
DICTIONARY
  5
1798
330
1797
100
AcDbDictionary
280
     1
281
     1
  3
ACAD_XREC_ROUNDTRIP
360
1D0A
  3
BUMPTILE
360
179A
  3
DIFFUSETILE
360
1799
  3
OPACITYTILE
360
179D
  3
REFLECTIONTILE
360
179C
  3
REFRACTIONTILE
360
179E
  3
SPECULARTILE
360
179B
  0
DICTIONARY
  5
199F
330
17B2
100
AcDbDictionary
280
     1
281
     1
  3
ACAD_ROUNDTRIP_2008_TABLESTYLE_CELLSTYLEMAP
360
1D07
  3
ACAD_XREC_ROUNDTRIP
360
1D0B
  0
XRECORD
  5
17ED
102
{ACAD_REACTORS
330
17EC
102
}
330
17EC
100
AcDbXrecord
280
     1
310
28000000620000008C0000000100080000000000B0360000000000000000000000010000000000000000000000000000FFFFFF000000000000000000000000000000000000000000000000000000000000000000330000006600000099000000CC000000FF00000000330000333300006633000099330000CC330000FF3300
310
0000660000336600006666000099660000CC660000FF66000000990000339900006699000099990000CC990000FF99000000CC000033CC000066CC000099CC0000CCCC0000FFCC000000FF000033FF000066FF000099FF0000CCFF0000FFFF000000003300330033006600330099003300CC003300FF003300003333003333
310
33006633330099333300CC333300FF33330000663300336633006666330099663300CC663300FF66330000993300339933006699330099993300CC993300FF99330000CC330033CC330066CC330099CC3300CCCC3300FFCC330000FF330033FF330066FF330099FF3300CCFF3300FFFF330000006600330066006600660099
310
006600CC006600FF00660000336600333366006633660099336600CC336600FF33660000666600336666006666660099666600CC666600FF66660000996600339966006699660099996600CC996600FF99660000CC660033CC660066CC660099CC6600CCCC6600FFCC660000FF660033FF660066FF660099FF6600CCFF6600
310
FFFF660000009900330099006600990099009900CC009900FF00990000339900333399006633990099339900CC339900FF33990000669900336699006666990099669900CC669900FF66990000999900339999006699990099999900CC999900FF99990000CC990033CC990066CC990099CC9900CCCC9900FFCC990000FF99
310
0033FF990066FF990099FF9900CCFF9900FFFF99000000CC003300CC006600CC009900CC00CC00CC00FF00CC000033CC003333CC006633CC009933CC00CC33CC00FF33CC000066CC003366CC006666CC009966CC00CC66CC00FF66CC000099CC003399CC006699CC009999CC00CC99CC00FF99CC0000CCCC0033CCCC0066CC
310
CC0099CCCC00CCCCCC00FFCCCC0000FFCC0033FFCC0066FFCC0099FFCC00CCFFCC00FFFFCC000000FF003300FF006600FF009900FF00CC00FF00FF00FF000033FF003333FF006633FF009933FF00CC33FF00FF33FF000066FF003366FF006666FF009966FF00CC66FF00FF66FF000099FF003399FF006699FF009999FF00CC
310
99FF00FF99FF0000CCFF0033CCFF0066CCFF0099CCFF00CCCCFF00FFCCFF0000FFFF0033FFFF0066FFFF0099FFFF00CCFFFF00FFFFFF00000000000D0D0D001A1A1A00282828003535350043434300505050005D5D5D006B6B6B00787878008686860093939300A1A1A100AEAEAE00BBBBBB00C9C9C900D6D6D600E4E4E400
310
F1F1F100FFFFFF0000000000000000000000000000000000000000000000000000000000000000000000000000000000EFEFEFEFEFEFEFEFEFEFEFEFEFEFEFEFEFEFEFEFEFEFEFEFEFEFEFEFEFEFEFEFEFEFEFEFEFEFEFEFEFEFEFEFEFEFEFEFEFEFEFEFEFEFEFEFEFEFEFEFEFEFEFEFEFEFEFEFEFEFEFEFEFEFEFEFEFEFEF
310
EFEFEFEFEFEFEFEFEFEFEFEFEFEFEFEFEFEFEF0000EFEFEFEFEFEFEFEFEFEFEFEFEFEFEFEFEFEFEFEFEFEFEFEFEFEFEFEFEFEFEFEFEFEFEFEFEFEFEFEFEFEFEFEFEFEFEFEFEFEFEFEFEFEFEFEFEFEFEFEFEFEFEFEFEFEFEFEFEFEFEFEFEFEFEFEFEFEFEFEFEFEFEFEFEFEFEFEFEFEFEFEFEFEFEFEFEFEF0000EFEFEFEFEFEF
310
EFEFEFEFEFEFEFEFEFEFEFEFEFEFEFEFEFEFEFEFEFEFEFEFEFEFEFEFEFEFEFEFEFEFEFEFEFEFEFEFEFEFEFEFEFEFEFEFEFEFEFEFEFEFEFEFEFEFEFEFEFEFEFEFEFEFEFEFEFEFEFEFEFEFEFEFEFEFEFEFEFEFEFEFEFEFEFEFEFEFEFEF0000EFEFEFF5F5F5F5F5F5F5F5F5F5F5F5F5F5F5F5F5F5F5F5F5F5F5F5F5F5F5F5F5F5
310
F5F5F5F5F5F5F5F5F5F5F5F5F5F5F5F5F5F5F5F5F5F5F5F5F5F5F5F5F5F5F5F5F5F5F5F5F5F5F5F5F5F5F5F5F5F5F5F5F5F5F5F5F5F5F5F5F5F5F5F5F5F5F5F5F50000EFF5F5F5F5F5F5F5F5F5F5F5F5F5F5F5F5F5F5F5F5F5F5F5F5F5F5F5F5F5F5F5F5F5F5F5F5F5F5F5F5F5F5F5F5F5F5F5F5F5F5F5F5F5F5F5F5F5F5F5
310
F5F5F5F5F5F5F5F5F5F5F5F5F5F5F5F5F5F5F5F5F5F5F5F5F5F5F5F5F5F5F5F5F5F5F5F5F5F50000EFF5E2E2E2E2E2E2E2E2E2E2E2E2E2E2E2E2E2E2E2E2E2E2E2E2E2E2E2E2E2E2E2E2E2E2E2E2E2E2E2E2E2E2E2E2E2E2E2E2E2E2E2E2E2E2E2E2E2E2E2E2E2E2E2E2E2E2E2E2E2E2E2E2E2E2E2E2E2E2E2E2E2E2E2E2E2
310
E2E2E2E2E2E2E2E2E2E2F50000EFF5E2F5F5F5F5F5F5F5F5F5F5F5F5F5F5F5F5F5F5F5F5F5F5F5F5F5F5F5F5F5F5F5F5F5F5F5F5F5F5F5F5F5F5F5F5F5F5F5F5F5F5F5F5F5F5F5F5F5F5F5F5F5F5F5F5F5F5F5F5F5F5F5F5F5F5F5F5F5F5F5F5F5F5F5F5F5F5F5F5F5F5F5F5F5E2F50000EFF5E2F5E2E2E2E2E2E2E2E2E2E2
310
E2E2E2E2E2E2E2E2E2E2E2E2E2E2E2E2E2E2E2E2E2E2E2E2E2E2E2E2E2E2E2E2E2E2E2E2E2E2E2E2E2E2E2E2E2E2E2E2E2E2E2E2E2E2E2E2E2E2E2E2E2E2E2E2E2E2E2E2E2E2E2E2E2E2E2E2E2E2E2E2E2F5E2F50000EFF5E2F5E2E2E2E2E2E2E20F0F0FF50F0F0F0F0F0F0F0F0F0FF50F0F0F0F0FF50F0F0FF50F0F0F0F0F
310
0F0F0F0F0F0F0F0F0F0F0F0F0FF50F0F0F0F0F0F0F0F0F0F0F0F0F0F0F0F0F0F0FF50F0F0F0F0F0F0F0F0F0F0F0F0F0F0F0F0F0F0FE2F5E2F50000EFF5E2F5E2E2E2E2E2E2E2F5F5F5F5E2E2F5F5F5F5F5F5F5E2F5F5F5F5F5F5F5F5F5F5F5F5F5F5F5F5F5E2E2E2E2E2E2E2E2E2E2E2E2F5F5F5F5F5F5F5F5F5E2E2E2E2E2
310
E2E2E2E2E2E2F5F5F5F5F5F5F5F5F5F5E2E2E2E2E2E2E2E2E20FE2F5E2F50000EFF5E2F5E2E2E2E2E2E2E2F5F5F5F5F5F5F5F5F5F5F5F5F5F5F5F5F5F5F5F5F5F5F5F5F5F5F5F5F5F5F5F5F5F5F5F5F5F5F5F5F5F5F5F5F5F5F5F5F5F5F5F5F5F5F5F5F5F5F5F5F5F5F5F5F5F5F5F5F5F5F5F5F5F5F5F5F5F5F5F5F5F5F5E2
310
F5E2F50000EFF5E2F5E2E2E2E2E2E2E20FE2E2F5E2E2E2E2E2E2E2E2E2E2F5E2E2E2E2E2F5E2E2E2F5E2E2E2E2E2E2E2E2E2E2E2E2E2E2E2E2E2E2F5E2E2E2E2E2E2E2E2E2E2E2E2E2E2E2E2E2E2E2E2E2E2E2E2E2E2E2E2E2E2E2E2F5F5F5F5F5F5F5E2F5E2F50000EFF5E2F5E2E2E2E2E2E2E2F5F5F5F5F5F5F5F5F5F5F5
310
F5F5F5F5F5F5F5F5F5F5F5F5F5F5E2E2E2E2E2E2E2E2E2E2E2E2E2E2E2E2E2E2F5E2E2E2E2E2E2E2E2E2C3E2C3C3C3C3C3C3C3E2C3E2C3C3E2E2E2E2E2E2E2E2E2F5F5F5F5F5F5F5E2F5E2F50000EFF5E2F5E2E2E2E2E2E2E20FE2E2F5E2E2E2E2E2E2E2E2E2E2F5E2E2E2E2E2F5E2E2E2F5E2E2E2E2E2E2E2E2E2E2E2E2E2
310
E2E2E2E2E2F5E2E2E2E2E2E2E2E2E2E2C3C3C3C3C3C3C3C3C3C3C3C3C3E2E2E2E2E2E2E2E2E2F5E2E2E2E2E20FE2F5E2F50000EFF5E2F5E2E2E2E2E2E2E2F5F5F5F5F5F5F5F5F5F5F5F5F5F5F5F5F5F5F5F5F5F5F5F5F5E2E2E2E2E2E2E2E2E2E2E2E2E2E2E2E2E2E2F5E2E2E2E2E2E2E2E2E2E2C3C3C3C3C3C3C3C3E2C3C3
310
C3E2E2E2E2E2E2E2E2E2E2F5F5F5F5F5E20FE2F5E2F50000EFF5E2F5E2E2E2E2E2E2E20FE2E2F5E2E2E2E2E2E2E2E2E2E2F5E2E2E2E2E2F5E2E2E2F5E2E2E2E2E2E2E2E2E2E2E2E2E2E2E2E2E2E2F5E2E2E2E2E2E2E2E2E2E2E2E2E2E2E2E2E2E2E2E2E2E2E2E2E2E2E2E2E2E2E2E2F5F5F5F5F5E20FE2F5E2F52E78EFF5E2
310
F5E2E2E2E2E2E2E20F0F0FF50F0F0F0F0F0F0F0F0F0FF50F0F0F0F0FF50F0F0FF50F0F0FF50F0F0F0F0F0FF50F0F0F0F0F0F0FF50F0F0F0F0F0F0F0F0F0F0F0F0F0F0F0F0F0F0F0F0F0F0F0F0F0F0F0F0F0F0F0FF50F0F0F0F0F0FE2F5E2F50000EFF5E2F5E2E2E2E2E2E2E20FE2E2F5E2E2E2E2E2E2E2E2E2E2F5E2E2E2E2
310
E2F5E2E2E2F5E2E2E2F5E2E2E2E2E2E2F5E2E2E2E2E2E2E2F5E2E2E2E2E2E2E2E2E2E2E2E2E2E2E2E2E2E2E2E2E2E2E2E2E2E2E2E2E2E2E2E2E2E2E2E2E2E20FE2F5E2F57206EFF5E2F5E2E2E2E2E2E2E2F5F5F5F5F5F5F5F5F5F5F5F5F5F5F5F5F5F5F5F5F5F5F5F5F5F5F5F5F5F5F5F5F5F5F5F5F5F5F5F5F5F5F5F5E2E2
310
E2E2E2E2E2E2E2E2E2E2E2E2E2E2E2E2E2E2E2E2E2E2E2E2E2E2E2E2E2E2E2E2E2E2E2E20FE2F5E2F50000EFF5E2F5E2E2E2E2E2E2E20FE2E2F5E2E2E2E2E2E2E2E2E2E2F5E2E2E2E2E2F5E2E2E2F5F5F5F5F5E2E2E2E2E2E2F5E2E2E2E2E2E2E2F5E2E2E2E2E2E2E2C3C3E2C3C3C3C3C3C3C3C3C3C3C3C3E2C3E2C3C3C3C3
310
C3C3E2E2E2E2E2E2E20FE2F5E2F50000EFF5E2F5E2E2E2E2E2E2E2F5F5F5F5F5F5F5F5F5F5F5F5F5F5F5F5F5F5F5F5F5F5F5F5F5F5F5F5F5F5F5F5F5F5F5F5F5F5F5F5F5F5F5F5E2E2E2E2E2E2C3C3C3E2C3C3C3C3C3C3C3C3C3C3C3C3E2C3C3C3C3C3C3C3C3E2E2E2E2E2E2E20FE2F5E2F52E78EFF5E2F5E2E2E2E2E2E2E2
310
0FE2E2F5E2E2E2E2E2E2E2E2E2E2F5E2E2E2E2E2F5E2E2E2F5F5F5F5F5F5F5F5F5F5F5F5F5F5F5E2E2E2E2F5E2E2E2E2E2E2C3C3C3C3C3C3C3C3C3C3C3C3C3C3C3C3C3C3C3C3C3C3C3C3C3C3E2E2E2E2E2E20FE2F5E2F50000EFF5E2F5E2E2E2E2E2E2E2F5F5F5F5F5F5F5F5F5F5F5F5F5F5F5F5F5F5F5F5F5F5F5F5F5F5F5
310
F5F5F5F5F5F5F5F5F5F5F5F5F5F5F5F5F5E2E2E2E2E2E2E2E2E2E2E2E2E2E2E2E2E2E2E2E2E2E2E2E2E2E2E2E2E2E2E2E2E2E2E2E2E2E20FE2F5E2F50000EFF5E2F5E2E2E2E2E2E2E2F5F5F5F5F5F5F5F5F5F5F5F5F5F5F5F5F5F5F5F5F5F5F5F5F5F5F5F5F5F5F5F5F5F5F5F5F5F5F5F5F5F5F5F5E2E2E2E2E2E2E2E2E2E2
310
E2E2E2E2E2E2E2E2E2E2E2E2E2E2E2E2E2E2E2E2E2E2E2E2E2E2E2E20FE2F5E2F50000EFF5E2F5E2E2E2E2E2E2E20FE2E2F5E2E2E2E2E2E2E2E2E2E2F5E2E2E2E2E2F5E2E2E2F5E2E2E2F5E2F5F5F5F5F5F5E2F5F5F5F5E2E2F5E2E2E2E2E2E2E2E2E2E2E2E2E2E2E2E2E2E2E2E2E2E2E2E2E2E2E2E2E2E2E2E2E2E2E2E2E2
310
E20FE2F5E2F50000EFF5E2F5E2E2E2E2E2E2E20F0F0FF50F0F0F0F0F0F0F0F0F0FF50F0F0F0F0FF50F0F0FF50F0F0FF50FF5F5F5F5F5F50FF5F5F5F50F0FF50F0F0F0F0F0F0F0F0F0F0F0F0F0F0F0F0F0F0F0F0F0F0F0F0F0F0F0F0F0F0F0F0F0F0F0F0F0F0FE2F5E2F50000EFF5E2F5E2E2E2E2E2E2E20FE2E2E2E2E2E2E2
310
E2E2E2E2E2E2E2E2E2E2E2E2E2E2E2E2F5E2E2E2E2E2E2E2E2E2E2F5E2E2E2E2E2E2E2F5F5F5F5F5F5F5F5F5F5F5F5F5F5F5F5F5F5E2E2E2E2E2E2E2E2E2E2E2E2E2E2E2E2E2E2E2E2E20FE2F5E2F50000EFF5E2F5E2E2E2E2E2E2E20FE2E2E2E2E2E2E2E2E2E2E2E2E2E2E2E2E2E2E2E2E2E2E2F5E2E2E2E2E2E2E2E2E2E2
310
F5E2E2E2E2E2E2E2F5F5F5F5F5F5F5F5F5E2F5F5E2E2F5E2F5F5E2E2E2E2E2E2E2E2E2E2E2E2E2E2E2E2E2E2E2E2E20FE2F5E2F50000EFF5E2F5E2E2E2E2E2E2E20FE2E2E2E2E2E2E2E2E2E2E2E2E2E2E2E2E2E2E2E2E2E2E2F5E2E2E2E2E2E2E2E2E2E2F5E2E2E2E2E2E2E2F5F5F5F5F5F5F5F5F5F5F5F5F5F5F5F5E2E2E2
310
E2E2E2E2E2E2E2E2E2E2E2E2E2E2E2E2E2E2E2E20FE2F5E2F50000EFF5E2F5E2E2E2E2E2E2E20FE2E2E2E2E2E2E2E2E2E2E2E2E2E2E2E2E2E2E2E2E2E2E2F5E2E2E2E2E2E2E2E2E2E2F5E2E2E2E2E2E2E2F5F5F5F5F5F5F5F5F5F5F5F5F5F5F5F5E2E2E2E2E2E2E2E2E2E2E2E2E2E2E2E2E2E2E2E2E2E2E20FE2F5E2F50000
310
EFF5E2F5E2E2E2E2E2E2E20FE2E2E2E2E2E2E2E2E2E2E2E2E2E2E2E2E2E2E2E2E2E2E2F5E2E2E2E2E2E2E2E2E2E2F5E2E2E2E2E2E2E2F5F5F5F5F5F5F5F5F5F5F5F5F5F5F5F5F5F5F5F5F5F5F5F5F5F5F5F5F5F5F5F5F5F5F5F5F5F5F5F5E2F5E2F50000EFF5E2F5E2E2E2E2E2E2E20FF5F5F5F5F5F5F5F5F5F5F5F5F5F5E2
310
E2E2E2E2E2E2E2E2F5F5F5F5F5F5F5F5E2E2E2F5F5F5F5F5F5F5E2F5F5F5F5F5F5F5E2F5F5E2E2E2E2E2E2E2E2E2E2E2E2E2F5F5F5F5F5F5F5E2E2E2E2E2E2E2E2E20FE2F5E2F50000EFF5E2F5E2E2E2E2E2E2E20FF5F5F5F5F5F5F5F5F5F5F5F5F5F5E2E2E2E2E2E2E2E2E2F5F5F5F5F5F5F5F5E2E2E2F5F5F5F5F5F5F5E2
310
F5F5F5F5F5F5F5E2F5F5E2E2E2E2E2E2E2E2E2E2E2E2E2F5F5F5F5F5F5F5E2E2E2E2E2E2E2E2E20FE2F5E2F50000EFF5E2F5E2E2E2E2E2E2E2F5F5F5F5F5F5F5F5F5F5F5F5F5F5F5F5F5F5F5F5F5F5F5F5F5F5F5F5F5F5F5F5F5F5F5F5F5F5F5F5F5F5F5F5F5F5F5F5F5F5F5F5F5F5F5F5F5F5F5F5F5F5F5F5F5F5F5F5F5F5
310
F5F5F5F5F5F5F5F5F5F5F5F5F5E2F5E2F50000EFF5E2F5E2E2E2E2E2E2E2F5E2E2E2E2E2E2E2E2E2E2E2E2E2E2E2E2E2E2E2E2E2E2E2E2E2E2E2E2E2E2E2E2E2E2E2E2E2E2E2E2E2E2E2E2E2E2E2E2E2E2E2E2E2E2E2E2E2E2E2E2E2E2E2E2E2E2E2E2E2E2E2E2E2E2E2E2E2E2E2E2E2F5E2F5E2F50000EFF5E2F5E2E2E2E2
310
E2E2E2F5E2E2E2E2E2E2E2E2E2E2E2E2E2E2E2E2E2E2E2E2E2E2E2E2E2E2E2E2E2E2E2E2E2E2E2E2E2E2E2E2E2E2E2E2E2E2E2E2E2E2E2E2E2E2E2E2E2E2E2E2E2E2E2E2E2E2E2E2E2E2E2E2E2E2E2E2E2E2E2E2E2F5E2F5E2F50000EFF5E2F5E2E2E2E2E2E2E2F5E2E2E2E2E2E2E2E2E2E2E2E2E2E2E2E2E2E2E2E2E2E2E2
310
E2E2E2E2E2E2E2E2E2E2E2E2E2E2E2E2E2E2E2E2E2E2E2E2E2E2E2E2E2E2E2E2E2E2E2E2E2E2E2E2E2E2E2E2E2E2E2E2E2E2E2E2E2E2E2E2E2E2F5E2F5E2F52E78EFF5E2F5E2E2E2E2E2E2E2F5E2E2E2E2E2E2E2E2E2E2E2E2E2E2E2E2E2E2E2E2E2E2E2E2E2E2E2E2E2E2E2E2E2E2E2E2E2E2E2E2E2E2E2E2E2E2E2E2E2E2
310
E2E2E2E2E2E2E2E2E2E2E2E2E2E2E2E2E2E2E2E2E2E2E2E2E2E2E2E2E2E2E2F5E2F5E2F50000EFF5E2F5E2E2E2E2E2E2E2F5E2E2E2E2E2E2E2E2E2E2E2E2E2E2E2E2E2E2E2E2E2E2E2E2E2E2E2E2E2E2E2E2E2E2E2E2E2E2E2E2E2E2E2E2E2E2E2E2E2E2E2E2E2E2E2E2E2E2E2E2E2E2E2E2E2E2E2E2E2E2E2E2E2E2E2E2E2
310
E2E2E2E2F5E2F5E2F57206EFF5E2F5E2E2E2E2E2E2E2F5E2E2E2E2E2E2F5F5F5F5F5F5F5F5F5F5F5F5F5E2E2E2E2E2E2E2E2F5F5F5F5F5F5F5F5F5F5F5F5F5F5F5F5F5F5F5F5F5F5F5F5F5F5F5F5F5E2E2E2E2E2E2E2E2E2E2E2E2E2E2E2E2E2E2E2E2E2E2E2E2E2F5E2F5E2F50000EFF5E2F5E2E2E2E2E2E2E2F5E2E2E2E2
310
E2E2F5E2E2E2E2E2E2E2E2E2E2E2F5E2E2E2E2E2E2E2E2F5E2E2F5F5F5F5F5F5F5E2E2F5F5F5F5F5F5F5F5F5F5E2F5F5F5F5E2F5E2E2E2E2E2E2E2E2E2E2E2E2E2E2E2E2E2E2E2E2E2E2E2E2E2F5E2F5E2F50000EFF5E2F5E2E2E2E2E2E2E2F5E2E2E2E2E2E2F5E2E2E2E2F5F5F5F5F5F5F5F5F5F5F5E2E2E2E2E2F5E2E2F5
310
F5F5E2F5F5F5E2E2F5F5F5F5E2F5F5F5F5E2F5F5F5F5E2E2F5E2E2E2E2E2E2E2E2E2E2E2E2E2E2E2E2E2E2E2E2E2E2E2E2E2F5E2F5E2F52E78EFF5E2F5E2E2E2E2E2E2E2F5E2E2E2E2E2E2F5E2E2E2E2F527F5F5F5E2F5F5E2E2E2E2E2E2E2E2F5F5F5F5F5F5E2F5F5F5F5E2F5E2F5F5F5E2E2E2F5E2F5F5F5F5E2E2F5E2E2
310
E2E2E2E2E2E2E2E2E2E2E2E2E2E2E2E2E2E2E2E2E2E2E2F5E2F5E2F50000EFF5E2F5E2E2E2E2E2E2E2F5E2E2E2E2E2E2F5E2E2E2E2F527F5F527F5F5F5E2E2E2E2E2E2E2E2F5F5F5F5F5F5F5F5F5E2F5E2F5E2F5E2F5E2E2E2F5E2F5F5F5F5E2E2F5E2E2E2E2E2E2E2E2E2E2E2E2E2E2E2E2E2E2E2E2E2E2E2E2E2F5E2F5E2
310
F50000EFF5E2F5E2E2E2E2E2E2E2F5E2E2E2E2E2E2F5E2E2E2E2F527F527272727F5E2E2E2E2E2E2E2E2F5F5F5F5F5F5F5F5F5F5F5F5F5F5F5F5F5F5F5F5F5F5F5F5F5F5F5F5F5E2E2E2E2E2E2E2E2E2E2E2E2E2E2E2E2E2E2E2E2E2E2E2E2E2F5E2F5E2F50000EFF5E2F5E2E2E2E2E2E2E2F5E2E2E2E2E2E2F5E2E2E2E2F5
310
27F5F527F5F5F5F5F5F5E2E2E2E2E2F5F5F5F5F5F5F5F5F5E2E2E2F5E2E2E2E2E2E2E2F5E2E2E2E2E2E2E2F5E2E2E2E2E2E2E2E2E2E2E2E2E2E2E2E2E2E2E2E2E2E2E2E2E2F5E2F5E2F50000EFF5E2F5E2E2E2E2E2E2E2F5E2E2E2E2E2E2F5E2E2E2E2F527F5F5F5F5F5F5E2E2E2E2E2E2E2E2F5F5F5F5F5F5F5F5F5E2E2E2
310
F5E2E2E2E2E2E2E2F5E2E2F5F5E2E2E2F5E2E2E2E2E2E2E2E2E2E2E2E2E2E2E2E2E2E2E2E2E2E2E2E2E2F5E2F5E2F50000EFF5E2F5E2E2E2E2E2E2E2F5E2E2E2E2E2E2F5F5F5F5F5F5F5F5F5F5F5F5F5E2E2E2E2E2E2E2E2F5E2F5F5E2F5F5F5E2E2E2E2F5E2E2E2F5E2E2E2F5E2F5F5F5F5E2E2F5E2E2E2E2E2E2E2E2E2E2
310
E2E2E2E2E2E2E2E2E2E2E2E2E2E2E2F5E2F5E2F52E78EFF5E2F5E2E2E2E2E2E2E2F5E2E2E2E2E2E2F5E2E2E2E2E2E2E2E2E2E2E2F5E2E2E2E2E2E2E2E2F5E2E2F5F5F5F5F5E2E2E2E2F5F5F5F5F5F5E2E2F5E2E2F5F5E2E2E2F5E2E2E2E2E2E2E2E2E2E2E2E2E2E2E2E2E2E2E2E2E2E2E2E2E2F5E2F5E2F50000EFF5E2F5E2
310
E2E2E2E2E2E2F5E2E2E2E2E2E2F5F5F5F5F5F5F5F5F5F5F5F5F5E2E2E2E2E2E2E2E2F5E2F5E2F5F5F5F5E2E2E2E2F5F5F5F5F5F5E2E2F5E2E2E2E2E2E2E2F5E2E2E2E2E2E2E2E2E2E2E2E2E2E2E2E2E2E2E2E2E2E2E2E2E2F5E2F5E2F50000EFF5E2F5E2E2E2E2E2E2E2F5E2E2E2E2E2F5F5F5F5F5F5F5F5E2E2E2E2E2E2E2
310
E2E2E2E2E2E2E2F5F5F5F5F5F5F5F5F5F5F5F5F5F5F5F5F5F5F5F5F5F5F5F5F5F5F5F5F5E2E2E2E2E2E2E2E2E2E2E2E2E2E2E2E2E2E2E2E2E2E2E2E2E2F5E2F5E2F50000EFF5E2F5E2E2E2E2E2E2E2F5E2E2E2E2E2E2E2E2E2E2E2E2E2E2E2E2E2E2E2E2E2E2E2E2E2E2E2E2E2E2E2E2E2E2E2E2E2E2E2E2E2E2E2E2E2E2E2
310
E2E2E2E2E2E2E2E2E2E2E2E2E2E2E2E2E2E2E2E2E2E2E2E2E2E2E2E2E2E2E2E2E2E2F5E2F5E2F50000EFF5E2F5E2E2E2E2E2E2E2F5E2E2E2E2E2E2E2E2E2E2E2E2E2E2E2E2E2E2E2E2E2E2E2E2E2E2E2E2E2E2E2E2E2E2E2E2E2E2E2E2E2E2E2E2E2E2E2E2E2E2E2E2E2E2E2E2E2E2E2E2E2E2E2E2E2E2E2E2E2E2E2E2E2E2
310
E2E2E2E2E2E2E2F5E2F5E2F50000EFF5E2F5E2E2E2E2E2E2E2F5E2E2E2E2E2E2E2E2E2E2E2E2E2E2E2E2E2E2E2E2E2E2E2E2E2E2E2E2E2E2E2E2E2E2E2E2E2E2E2E2E2E2E2E2E2E2E2E2E2E2E2E2E2E2E2E2E2E2E2E2E2E2E2E2E2E2E2E2E2E2E2E2E2E2E2E2E2E2E2E2E2F5E2F5E2F50000EFF5E2F5E2E2E2E2E2E2E2F5E2
310
E2E2E2E2E2E2E2E2E2E2E2E2E2E2E2E2E2E2E2E2E2E2E2E2E2E2E2E2E2E2E2E2E2E2E2E2E2E2E2E2E2E2E2E2E2E2E2E2E2E2E2E2E2E2E2E2E2E2E2E2E2E2E2E2E2E2E2E2E2E2E2E2E2E2E2E2E2E2E2E2F5E2F5E2F50000EFF5E2F5E2E2E2E2E2E2E2F5E2E2E2E2E2E2E2E2E2E2E2E2E2E2E2E2E2E2E2E2E2E2E2E2E2E2E2E2
310
E2E2E2E2E2E2E2E2E2E2E2E2E2E2E2E2E2E2E2E2E2E2E2E2E2E2E2E2E2E2E2E2E2E2E2E2E2E2E2E2E2E2E2E2E2E2E2E2E2E2E2E2E2F5E2F5E2F50000EFF5E2F5E2E2E2E2E2E2E2F5E2E2E2E2E2E2E2E2E2E2E2E2E2E2E2E2E2E2E2E2E2E2E2E2E2E2E2E2E2E2E2E2E2E2E2E2E2E2E2E2E2E2E2E2E2E2E2E2E2E2E2E2E2E2E2
310
E2E2E2E2E2E2E2E2E2E2E2E2E2E2E2E2E2E2E2E2E2E2E2E2E2E2F5E2F5E2F50000EFF5E2F5E2E2E2E2E2E2E2F5E2E2E2E2E2E2E2E2E2E2E2E2E2E2E2E2E2E2E2E2E2E2E2E2E2E2E2E2E2E2E2E2E2E2E2E2E2E2E2E2E2E2E2E2E2E2E2E2E2E2E2E2E2E2E2E2E2E2E2E2E2E2E2E2E2E2E2E2E2E2E2E2E2E2E2E2E2E2E2E2E2F5
310
E2F5E2F50000EFF5E2F5E2E2E2E2E2E2E2F5E2E2E2E2E2E2E2E2E2E2E2E2E2E2E2E2E2E2E2E2E2E2E2E2E2E2E2E2E2E2E2E2E2E2E2E2E2E2E2E2E2E2E2E2E2E2E2E2E2E2E2E2E2E2E2E2E2E2E2E2E2E2E2E2E2E2E2E2E2E2E2E2E2E2E2E2E2E2E2E2E2F5E2F5E2F50000EFF5E2F5E2E2E2E2E2E2E2F5E2E2E2E2E2E2F5F5F5
310
F5F5F5F5F5F5F5F5F5F5E2E2E2E2E2E2E2E2F5F5F5F5F5F5F5F5F5F5F5F5F5F5F5F5F5F5F5F5F5F5F5F5F5F5F5F5F5E2E2E2E2E2E2E2E2E2E2E2E2E2E2E2E2E2E2E2E2E2E2E2E2E2F5E2F5E2F50000EFF5E2F5E2E2E2E2E2E2E2F5E2E2E2E2E2E2F5E2E2E2E2E2E2E2E2E2E2E2F5E2E2E2E2E2E2E2E2F5E2E2F5F5E2F5F5F5
310
E2E2E2F5F5F5F5E2F5F5F5F5E2F5F5F5F5F5E2F5E2E2E2E2E2E2E2E2E2E2E2E2E2E2E2E2E2E2E2E2E2E2E2E2E2F5E2F5E2F50000EFF5E2F5E2E2E2E2E2E2E2F5E2E2E2E2E2E2F5E2E2E2E2F5F5F5F5F5F5F5F5E2E2E2E2E2E2E2E2F5E2E2F5F5F5F5F5F5E2E2E2F5F5E2F5F5F5F5F5F5F5F5F5F5F5F5E2F5E2E2E2E2E2E2E2
310
E2E2E2E2E2E2E2E2E2E2E2E2E2E2E2E2E2E2F5E2F5E2F50000EFF5E2F5E2E2E2E2E2E2E2F5E2E2E2E2E2E2F5E2E2E2E2F527F5F5F5F5F5F5F5F5F5E2E2E2E2E2F5E2E2E2F5E2E2E2F5E2E2E2F5E2E2E2F5E2E2E2F5E2E2E2E2E2E2E2F5E2E2E2E2E2E2E2E2E2E2E2E2E2E2E2E2E2E2E2E2E2E2E2E2E2F5E2F5E2F50000EFF5
310
E2F5E2E2E2E2E2E2E2F5E2E2E2E2E2E2F5E2E2E2E2F527F5F5F5F5F5F5E2E2E2E2E2E2E2E2F5E2F5F5F5F5F5F5F5F5F5E2F5E2F5F5F5F5E2E2F5E2F5F5F5F5E2E2F5E2E2E2E2E2E2E2E2E2E2E2E2E2E2E2E2E2E2E2E2E2E2E2E2E2F5E2F5E2F52E78EFF5E2F5E2E2E2E2E2E2E2F5E2E2E2E2E2E2F5E2E2E2E2F52727F527F5
310
27F5E2E2E2E2E2E2E2E2F5E2F5F5F5F5E2F5E2F5F5E2F5E2F5F5E2F5E2E2F5E2F5F5F5F5E2E2F5E2E2E2E2E2E2E2E2E2E2E2E2E2E2E2E2E2E2E2E2E2E2E2E2E2F5E2F5E2F50000EFF5E2F5E2E2E2E2E2E2E2F5E2E2E2E2E2E2F5E2E2E2E2F52727F5F5F5F5F5F5F5F5E2E2E2E2E2F5F5F5F5F5F5F5F5F5F5F5F5F5F5F5F5F5
310
F5F5F5F5F5F5F5F5F5F5F5F5E2E2E2E2E2E2E2E2E2E2E2E2E2E2E2E2E2E2E2E2E2E2E2E2E2F5E2F5E2F52E78EFF5E2F5E2E2E2E2E2E2E2F5E2E2E2E2E2E2F5E2E2E2E2F527F5F5F5F5F5F5E2E2E2E2E2E2E2E2F5E2F5F5F5F5F5F5F5F5E2E2F5E2E2E2E2E2E2E2F5E2E2E2F5E2E2E2F5E2E2E2E2E2E2E2E2E2E2E2E2E2E2E2
310
E2E2E2E2E2E2E2E2E2E2F5E2F5E2F50000EFF5E2F5E2E2E2E2E2E2E2F5E2E2E2E2E2E2F5E2E2E2E2F527F5F527F5F5F5E2E2E2E2E2E2E2E2F5E2E2F5F5F5F5F5F5F5E2E2F5E2E2E2E2E2E2E2F5E2F5F5E2F5E2E2F5E2E2E2E2E2E2E2E2E2E2E2E2E2E2E2E2E2E2E2E2E2E2E2E2E2F5E2F5E2F50000EFF5E2F5E2E2E2E2E2E2
310
E2F5E2E2E2E2E2E2F5F5F5F5F5F5F5F5F5F5F5F5F5E2E2E2E2E2E2E2E2F5E2E2E2E2E2E2E2E2E2E2E2F5E2E2E2F5E2E2E2F5E2F5F5F5F5E2E2F5E2E2E2E2E2E2E2E2E2E2E2E2E2E2E2E2E2E2E2E2E2E2E2E2E2F5E2F5E2F52E78EFF5E2F5E2E2E2E2E2E2E2F5E2E2E2E2E2E2F5F5F5F5F5F5F5F5F5F5F5F5F5E2E2E2E2E2E2
310
E2E2F5E2E2E2F5F5F5F5F5E2E2E2F5E2F5F5F5F5F5E2F5E2F5F5F5F5E2E2F5E2E2E2E2E2E2E2E2E2E2E2E2E2E2E2E2E2E2E2E2E2E2E2E2E2F5E2F5E2F50000EFF5E2F5E2E2E2E2E2E2E2F5E2E2E2E2E2F5E2E2E2E2F5F5F5F5F5F5E2E2E2E2E2E2E2E2E2E2E2F5E2E2F5F5E2F5F5E2E2E2E2F5E2F5E2E2E2E2E2F5E2E2E2E2
310
E2E2E2F5E2E2E2E2E2E2E2E2E2E2E2E2E2E2E2E2E2E2E2E2E2E2E2E2E2F5E2F5E2F50000EFF5E2F5E2E2E2E2E2E2E2F5E2E2E2E2E2F5F5F5F5F5E2E2E2E2E2E2E2E2E2E2E2E2E2E2E2E2E2F5F5F5F5F5F5F5F5F5F5F5F5F5F5F5F5F5F5F5F5F5F5F5F5F5F5F5F5F5E2E2E2E2E2E2E2E2E2E2E2E2E2E2E2E2E2E2E2E2E2E2E2
310
E2E2F5E2F5E2F50000EFF5E2F5E2E2E2E2E2E2E2F5E2E2E2E2E2E2E2E2E2E2E2E2E2E2E2E2E2E2E2E2E2E2E2E2E2E2E2E2E2E2E2E2E2E2E2E2E2E2E2E2E2E2E2E2E2E2E2E2E2E2E2E2E2E2E2E2E2E2E2E2E2E2E2E2E2E2E2E2E2E2E2E2E2E2E2E2E2E2E2E2E2F5E2F5E2F50000EFF5E2F5E2E2E2E2E2E2E2F5E2E2E2E2E2E2
310
E2E2E2E2E2E2E2E2E2E2E2E2E2E2E2E2E2E2E2E2E2E2E2E2E2E2E2E2E2E2E2E2E2E2E2E2E2E2E2E2E2E2E2E2E2E2E2E2E2E2E2E2E2E2E2E2E2E2E2E2E2E2E2E2E2E2E2E2E2E2E2E2E2E2E2F5E2F5E2F50000EFF5E2F5E2E2E2E2E2E2E2F5E2E2E2E2E2E2E2E2E2E2E2E2E2E2E2E2E2E2E2E2E2E2E2E2E2E2E2E2E2E2E2E2E2
310
E2E2E2E2E2E2E2E2E2E2E2E2E2E2E2E2E2E2E2E2E2E2E2E2E2E2E2E2E2E2E2E2E2E2E2E2E2E2E2E2E2E2E2E2E2E2E2E2F5E2F5E2F50000EFF5E2F5E2E2E2E2E2E2E2F5E2E2E2E2E2E2E2E2E2E2E2E2E2E2E2E2E2E2E2E2E2E2E2E2E2E2E2E2E2E2E2E2E2E2E2E2E2E2E2E2E2E2E2E2E2E2E2E2E2E2E2E2E2E2E2E2E2E2E2E2
310
E2E2E2E2E2E2E2E2E2E2E2E2E2E2E2E2E2E2E2E2E2F5E2F5E2F50000EFF5E2F5E2E2E2E2E2E2E2F5E2E2E2E2E2E2E2E2E2E2E2E2E2E2E2E2E2E2E2E2E2E2E2E2E2E2E2E2E2E2E2E2E2E2E2E2E2E2E2E2E2E2E2E2E2E2E2E2E2E2E2E2E2E2E2E2E2E2E2E2E2E2E2E2E2E2E2E2E2E2E2E2E2E2E2E2E2E2E2E2E2F5E2F5E2F500
310
00EFF5E2F5E2E2E2E2E2E2E2F5E2E2E2E2E2E2E2E2E2E2E2E2E2E2E2E2E2E2E2E2E2E2E2E2E2E2E2E2E2E2E2E2E2E2E2E2E2E2E2E2E2E2E2E2E2E2E2E2E2E2E2E2E2E2E2E2E2E2E2E2E2E2E2E2E2E2E2E2E2E2E2E2E2E2E2E2E2E2E2E2E2F5E2F5E2F50000EFF5E2F5E2E2E2E2E2E2E2F5E2E2E2E2E2E2E2E2E2E2E2E2E2E2
310
E2E2E2E2E2E2E2E2E2E2E2E2E2E2E2E2E2E2E2E2E2E2E2E2E2E2E2E2E2E2E2E2E2E2E2E2E2E2E2E2E2E2E2E2E2E2E2E2E2E2E2E2E2E2E2E2E2E2E2E2E2E2E2E2E2E2E2F5E2F5E2F50000EFF5E2F5E2E2E2E2E2E2E2F5E2E2E2E2E2E2E2E2E2E2E2E2E2E2E2E2E2E2E2E2E2E2E2E2E2E2E2E2E2E2E2E2E2E2E2E2E2E2E2E2E2
310
E2E2E2E2E2E2E2E2E2E2E2E2E2E2E2E2E2E2E2E2E2E2E2E2E2E2E2E2E2E2E2E2E2E2E2E2E2E2E2E2F5E2F5E2F50000EFF5E2F5E2E2E2E2E2E2E2F5E2E2E2E2E2E2E2E2E2E2E2E2E2E2E2E2E2E2E2E2E2E2E2E2E2E2E2E2E2E2E2E2E2E2E2E2E2E2E2E2E2E2E2E2E2E2E2E2E2E2E2E2E2E2E2E2E2E2E2E2E2E2E2E2E2E2E2E2
310
E2E2E2E2E2E2E2E2E2E2E2E2E2F5E2F5E2F50000EFF5E2F5E2E2E2E2E2E2E2F5E2E2E2E2E2E2E2E2E2E2E2E2E2E2E2E2E2E2E2E2E2E2E2E2E2E2E2E2E2E2E2E2E2E2E2E2E2E2E2E2E2E2E2E2E2E2E2E2E2E2E2E2E2E2E2E2E2E2E2E2E2E2E2E2E2E2E2E2E2E2E2E2E2E2E2E2E2E2E2E2E2F5E2F5E2F50000EFF5E2F5E2E2E2
310
E2E2E2E2F5E2E2E2E2E2E2E2E2E2E2E2E2E2E2E2E2E2E2E2E2E2E2E2E2E2E2E2E2E2E2E2E2E2E2E2E2E2E2E2E2E2E2E2E2E2E2E2E2E2E2E2E2E2E2E2E2E2E2E2E2E2E2E2E2E2E2E2E2E2E2E2E2E2E2E2E2E2E2E2E2E2F5E2F5E2F50000EFF5E2F5E2E2E2E2E2E2E2F5E2E2E2E2E2E2E2E2E2E2E2E2E2E2E2E2E2E2E2E2E2E2
310
E2E2E2E2E2E2E2E2E2E2E2E2E2E2E2E2E2E2E2E2E2E2E2E2E2E2E2E2E2E2E2E2E2E2E2E2E2E2E2E2E2E2E2E2E2E2E2E2E2E2E2E2E2E2E2E2E2E2E2F5E2F5E2F50000EFF5E2F5E2E2E2E2E2E2E2F5E2E2E2E2E2E2E2E2E2E2E2E2E2E2E2E2E2E2E2E2E2E2E2E2E2E2E2E2E2E2E2E2E2F5F5F5F5F5F5F5F5F5F5F5F5F5F5F5F5
310
F5F5F5F5F5E2E2E2E2E2E2E2E2E2E2E2E2E2E2E2E2E2E2E2E2E2E2E2E2E2E2E2F5E2F5E2F52E78EFF5E2F5E2E2E2E2E2E2E2F5E2E2E2E2E2E2E2E2E2E2E2E2E2E2E2E2E2E2E2E2E2E2E2E2E2E2E2F5F5F5F5F5F5F5E2E2E2E2E2E2E2E2F5F5F5F5E2E2E2E2E2E2E2F5F5F5F5F5F5F5E2E2E2E2E2E2E2E2E2E2E2E2E2E2E2E2
310
E2E2E2E2E2F5E2F5E2F50000EFF5E2F5E2E2E2E2E2E2E2F5E2E2E2E2E2E2E2E2E2E2E2E2E2E2E2E2E2E2E2E2E2E2E2E2E2E2E2F5E2E2E2E2E2F5E2E2E2E2E2E2E2E2F5E2E2F5E2E2E2E2E2E2E2F5F5E2E2E2E2F5E2E2E2E2E2E2E2E2E2E2E2E2E2E2E2E2E2E2E2E2E2F5E2F5E2F52E78EFF5E2F5E2E2E2E2E2E2E2F5E2E2E2
310
E2E2E2E2E2E2E2E2E2E2E2E2E2E2E2E2E2E2E2E2E2E2E2E2F5E2E2E2E2E2F5E2E2E2E2E2E2E2E2F5E2E2F5E2E2E2E2E2E2E2F5F5E2E2E2E2F5E2E2E2E2E2E2E2E2E2E2E2E2E2E2E2E2E2E2E2E2E2F5E2F5E2F50000EFF5E2F5E2E2E2E2E2E2E2F5E2E2E2E2E2E2E2E2E2E2E2E2E2E2E2E2E2E2E2E2E2E2E2E2E2E2E2F5E2E2
310
E22DF5F5F5F5F5F5F5F5F5F5F5E2E2F5F5F5F5F5F5F5F5F5F52DF5E2E2F5E2E2E2E2E2E2E2E2E2E2E2E2E2E2E2E2E2E2E2E2E2F5E2F5E2F50000EFF5E2F5E2E2E2E2E2E2E2F5E2E2E2E2E2E2E2E2E2E2E2E2E2E2E2E2E2E2E2E2E2E2E2E2E2E2E2F5E2E22D2D2DF5E2E2E2E2E2E2E2E2F5E2E2F5E2E2E2E2E2E2E2F5F52D2D
310
E2E2F5E2E2E2E2E2E2E2E2E2E2E2E2E2E2E2E2E2E2E2E2E2F5E2F5E2F52E78EFF5E2F5E2E2E2E2E2E2E2F5E2E2E2E2E2E2E2E2E2E2E2E2E2E2E2E2E2E2E2E2E2E2E2E2E2E2E2F5E2E2E2F5F5F5E2E2E2E2E2E2E2E2F5E2E2F5E2E2E2E2E2E2E2F5F5F5F5E2E2F52727E2E2E2E2E2E2E2E2E2E2E2E2E2E2E2E2E2E2E2F5E2F5
310
E2F50000EFF5E2F5E2E2E2E2E2E2E2F5E2E2E2E2E2E2E2E2E2E2E2E2E2E2E2E2E2E2E2E2E2E2E2E2E2E2E2F5E2E2E22DE2F5F5F5F5F5F5F5F5F5F5E2E2F5F5F5F5F5F5F5F5F5F52DE2E2E2F52727E2E2E2E2E2E2E2E2E2E2E2E2E2E2E2E2E2E2E2F5E2F5E2F50000EFF5E2F5E2E2E2E2E2E2E2F5E2E2E2E2E2E2E2E2E2E2E2
310
E2E2E2E2E2E2E2E2E2E2E2E2E2E2E2E2F5E2E2E2E2E2F5F5F5F5F5F5F5F5F5F5E2E2F5F5F5F5F5F5F5F5F5F5E2E2E2E2F52727E2E2E2E2E2E2E2E2E2E2E2E2E2E2E2E2E2E2E2F5E2F5E2F50000EFF5E2F5E2E2E2E2E2E2E2F5E2E2E2E2E2E2E2E2E2E2E2E2E2E2E2E2E2E2E2E2E2E2E2E2E2E2E2F5E2E2E2E2E2E2E2E2E2E2
310
E2E2E2E2F5E2E2F5E2E2E2E2E2E2E2E2E2E2E2E2E2F52727E2E2E2E2E2E2E2E2E2E2E2E2E2E2E2E2E2E2E2F5E2F5E2F50000EFF5E2F5E2E2E2E2E2E2E2F5E2E2E2E2E2E2E2E2E2E2E2E2E2E2E2E2E2E2E2E2E2E2E2E2E2E2E2F5E2E2E2E2E2E2E2E2E2E2E2E2E2E2F5E2E2F5E2E2E2E2E2E2E2E2E2E2E2E2E2F52727E2E2E2
310
E2E2E2E2E2E2E2E2E2E2E2E2E2E2E2E2F5E2F5E2F50000EFF5E2F5E2E2E2E2E2E2E2F5E2E2E2E2E2E2E2E2E2E2E2E2E2E2E2E2E2E2E2E2E2E2E2E2E2E2E2F5E2E2E2E2E2E2E2E2E2E2E2E2E2E2F5E2E2F5E2E2E2E2E2E2E2E2E2E2E2E2E2F52727E2E2E2E2E2E2E2E2E2E2E2E2E2E2E2E2E2E2E2F5E2F5E2F50000EFF5E2F5
310
E2E2E2E2E2E2E2F5E2E2E2E2E2E2E2E2E2E2E2E2E2E2E2E2E2E2E2E2E2E2E2E2E2E2E2F5E2E2E2E2E2E2E2E2E2E2E2E2E2E2F5E2E2F5E2E2E2E2E2E2E2E2E2E2E2E2E2F52727E2E2E2E2E2E2E2E2E2E2E2E2E2E2E2E2E2E2E2F5E2F5E2F50000EFF5E2F5E2E2E2E2E2E2E2F5E2E2E2E2E2E2E2E2E2E2E2E2E2E2E2E2E2E2E2
310
E2E2E2E2E2E2E2E2F5F5F5F5F5F5F5F5F5F5F5F5F5F5F5F5F5F5F5F5F5F5F5F5F5F5F5F5F5F5F5F5F52727E2E2E2E2E2E2E2E2E2E2E2E2E2E2E2E2E2E2E2F5E2F5E2F50000EFF5E2F5E2E2E2E2E2E2E2F5E2E2E2E2E2E2E2E2E2E2E2E2E2E2E2E2E2E2E2E2E2E2E2E2E2E2E2E2E2E2E2E2E2E2E2E2E2E2E2E2E2E2E2E2E2E2
310
E2E2E2E2E2E2E2E2E2E2E2E2E2E2E2E2E2E2E2E2E2E2E2E2E2E2E2E2E2E2E2E2E2E2E2F5E2F5E2F50000EFF5E2F5E2E2E2E2E2E2E2F5E2E2E2E2E2E2E2E2E2E2E2E2E2E2E2E2E2E2E2E2E2E2E2E2E2E2E2E2E2E2E2E2E2E2E2E2E2E2E2E2E2E2E2E2E2E2E2E2E2E2E2E2E2E2E2E2E2E2E2E2E2E2E2E2E2E2E2E2E2E2E2E2E2
310
E2E2E2E2E2E2E2E2F5E2F5E2F50000EFF5E2F5E2E2E2E2E2E2E2F5E2E2E2E2E2E2E2E2E2E2E2E2E2E2E2E2E2E2E2E2E2E2E2E2E2E2E2E2E2E2E2E2E2E2E2E2E2E2E2E2E2E2E2E2E2E2E2E2E2E2E2E2E2E2E2E2E2E2E2E2E2E2E2E2E2E2E2E2E2E2E2E2E2E2E2E2E2E2E2E2E2F5E2F5E2F50000EFF5E2F5E2E2E2E2E2E2E2F5
310
E2E2E2E2E2E2E2E2E2E2E2E2E2E2E2E2E2E2E2E2E2E2E2E2E2E2E2E2E2E2E2E2E2E2E2E2E2E2E2E2E2E2E2E2E2E2E2E2E2E2E2E2E2E2E2E2E2E2E2E2E2E2E2E2E2E2E2E2E2E2E2E2E2E2E2E2E2E2E2E2E2F5E2F5E2F50000EFF5E2F5E2E2E2E2E2E2E2F5E2E2E2E2E2E2E2E2E2E2E2E2E2E2E2E2E2E2E2E2E2E2E2E2E2E2E2
310
E2E2E2E2E2E2E2E2E2E2E2E2E2E2E2E2E2E2E2E2E2E2E2E2E2E2E2E2E2E2E2E2E2E2E2E2E2E2E2E2E2E2E2E2E2E2E2E2E2E2E2E2E2E2F5E2F5E2F50000EFF5E2F5E2E2E2E2E2E2E2F5E2E2E2E2E2E2E2E2E2E2E2E2E2E2E2E2E2E2E2E2E2E2E2E2E2E2E2E2E2E2E2E2E2E2E2E2E2E2E2E2E2E2E2E2E2E2E2E2E2E2E2E2E2E2
310
E2E2E2E2E2E2E2E2E2E2E2E2E2E2E2E2E2E2E2E2E2E2E2E2E2E2E2F5E2F5E2F50000EFF5E2F5E2E2E2E2E2E2E2F5E2E2E2E2E2E2E2E2E2E2E2E2E2E2E2E2E2E2E2E2E2E2E2E2E2E2E2E2E2E2E2E2E2E2E2E2E2E2E2E2E2E2E2E2E2E2E2E2E2E2E2E2E2E2E2E2E2E2E2E2E2E2E2E2E2E2E2E2E2E2E2E2E2E2E2E2E2E2E2E2E2
310
F5E2F5E2F50000EFF5E2F5E2E2E2E2E2E2E2F5E2E2E2E2E2E2E2E2E2E2E2E2E2E2E2E2E2E2E2E2E2E2E2E2E2E2E2C3E2E2E2E2E2E2E2E2E2E2E2E2E2E2E2E2E2E2E2E2E2E2E2E2E2E2E2E2E2E2E2C3E2E2E2E2E2E2E2E2E2E2E2E2E2E2E2E2E2E2E2E2E2F5E2F5E2F50000EFF5E2F5E2E2E2E2E2E2E2F5E2E2E2E2E2E2E2E2
310
E2E2E2E2E2E2E2E2E2E2E2E2E2E2E2E2E2E2E2C3C3C3C3C3C3C3C3C3C3C3C3C3C3C3C3C3C3C3C3C3C3C3C3C3C3C3C3C3C3C3C3C3E2E2E2E2E2E2E2E2E2E2E2E2E2E2E2E2E2E2E2E2E2F5E2F5E2F50000EFF5E2F5E2E2E2E2E2E2E2F5E2E2E2E2E2E2E2C3C3E2E2E2E2E2E2E2E2E2C3C3E2E2E2E2E2E2E2C3E2C3C3C3C3C3C3
310
C3C3C3E2E2C3C3C3E2E2E2E2E2E2E2E2E2E2E2E2E2E2E2E2C3E2E2E2E2E2E2E2E2E2E2E2E2E2E2E2E2E2E2E2E2E2F5E2F5E2F50000EFF5E2F5E2E2E2E2E2E2E2F5E2E2E2E2E2E2E2C3C3C3C3C3C3C3C3C3C3C3C3C3E2E2E2E2E2E2E2C3E2E2C3C3E2C3C3C3C3C3E2E2E2E2E2E2E2E2E2E2E2E2E2E2E2E2E2E2E2E2E2C3E2E2
310
E2E2E2E2E2E2E2E2E2E2E2E2E2E2E2E2E2E2E2F5E2F5E2F50000EFF5E2F5E2E2E2E2E2E2E2F5E2E2E2E2E2E2E2C3E2E2E2E2C3C3C3E2E2E2E2C3E2E2E2E2E2E2E2C3E2E2E2C3E2C3E2C3C3C3E2E2E2E2E2E2E2E2E2E2E2E2E2E2E2E2E2E2E2E2E2C3E2E2E2E2E2E2E2E2E2E2E2E2E2E2E2E2E2E2E2E2E2F5E2F5E2F50000EF
310
F5E2F5E2E2E2E2E2E2E2F5E2E2E2E2E2E2E2C3E2E2E2E2E2E2E2E2E2E2E2C3E2E2E2E2E2E2E2C3E2E2E2C3E2C3E2E2E2E2E2E2E2E2E2E2E2E2E2E2E2E2E2E2E2E2E2E2E2E2E2C3E2E2E2E2E2E2E2E2E2E2E2E2E2E2E2E2E2E2E2E2E2F5E2F5E2F50000EFF5E2F5E2E2E2E2E2E2E2F5E2E2E2E2E2E2E2F5F5F5F5F5F5F5F5F5
310
F5F5F5F5E2E2E2E2E2E2E2F5F5F5F5F5F5F5F5F5F5F5F5F5F5F5F5F5F5F5F5F5F5F5F5F5F5F5F5F5F5F5F5F5C3C3C3C3E2E2E2F5F5F5F5F5F5F5F5F5F5F5F5F5E2F5E2F5E2F52E78EFF5E2F5E2E2E2E2E2E2E2F5E2E2E2E2E2E2E2F5E2F5E2E2E2E2E2E2E2E2E2F5E2E2E2E2E2E2E2F5E2E2E2C3E2F5F5F5F5F5F5F5F5F5F5
310
F5F5F5F5F5F5F5F5F5F5F5E2E2E2E2E2F5E2E2C3E2E2E2E2F5E2E2E2E2E2E2E2E2E2E2E2F5E2F5E2F5E2F50000EFF5E2F5E2E2E2E2E2E2E2F5E2C3E2E2E2E2E2F5E2F5E2E2F5F5F5F5F5F5F5F5E2E2E2E2E2E2E2F5E2E2E2C3E2F5F5F5F5F5F5E2E2E2E2E2E2E2E2E2E2F5F5F5F5F5E2E2E2E2E2F52727C3E2E2E2E2F5E2E2
310
E2E2E2E2E2E2E2E2E2F5E2F5E2F5E2F52E78EFF5E2F5E2E2E2E2E2E2E2F5C3C3C3C3C3C3E2F5E2F5E2E2F5F5F5F5F5F5F5F5E2E2E2E2E2E2E2F5E2E2E2C3E2F5F5F5F5F5F5E2E2E2E2E2E2E2E2E2F5F5F5F5F5F5E2E2E2E2E2F52727C3E2E2E2E2F5E2E2E2E2E2E2E2E2E2E2E2F5E2F5E2F5E2F50000EFF5E2F5E2E2E2E2E2
310
E2E2F5C3C3C3C3E2C3E2F5F5F5F5E2F5F5F5F5F5F5F5F5E2E2E2E2E2E2E2F5E2E2E2C32DF5E2F5F5F5F5E2E2E2E2E2E2E2E2E2F5F5F5F5E2F5282DE2E2E2F52727C3E2E2E2E2F5E2E2E2E2E2E2E2E2E2E2E2F5E2F5E2F5E2F50000EFF5E2F5E2E2E2E2E2E2E2F5C3C3C3C3C3C3F5F5E2F5F5F5F527F52727F527F5E2E2E2C3
310
C3C3C3F5C3C32D2D2DF5F5F5F5F5F5E2E2E2E2E2E2E2E2E2F5F5F5F5F5F52D2D2DE2E2F52727C3E2E2E2E2F5E2E2E2E2E2E2E2E2E2E2E2F5E2F5E2F5E2F52E78EFF5E2F5E2E2E2E2E2E2E2F5E2C3C3C3C3C3E2F5F5F5F5E2F5F5F5F5F5F5F5F5E2E2E2C3E2E2E2F5E2E2E2F52DF5F5F5F5F5F5E2E2E2E2E2E2E2E2E2F5F5F5
310
F5F5F5F52DE2E2E2F52727C3E2E2E2E2F5E2E2E2E2E2E2E2E2E2E2E2F5E2F5E2F5E2F50000EFF5E2F5E2E2E2E2E2E2E2F5E2C3C3C3C3C3E2F5E2F5E2E2F5F5F5F5F5F5F5F5E2E2E2C3E2E2E2F5E2E2E2E22DF5E2F5F5F5F5E2E2E2E22DE2E2E2E2F5F5F5F5F5F5E22DE2E2E2F52727C3E2E2E2E2F5E2E2E2E2E2E2E2E2E2E2
310
E2F5E2F5E2F5E2F50000EFF5E2F5E2E2E2E2E2E2E2F5E2C3C3C3C3C3F5F5F5F5E2E2F5F5F5F5F5F5F5F5E2E2E2C3E2E2E2F5E2E2E2E2C3F5F5F5F5F5F5F5F5F5F5F5F5F5F5F5F5F5F5F5F5F5E2C3E2E2E2F52727C3E2E2E2E2F5E2E2E2E2E2E2E2E2E2E2E2F5E2F5E2F5E2F50000EFF5E2F5E2E2E2E2E2E2E2F5C3C3C3C3C3
310
C3F5F5F5F5F5F5F5F5F5F5F5F5F5F5E2E2E2C3E2E2E2F5F5F5F5F5F5F5F5F5F5F5F5F5F5F5F5F5F5F5F5F5F5F5F5F5F5F5F5F5F5F5F5F52727C3E2E2E2E2F5F5F5F5F5F5F5F5F5F5F5F5F5E2F5E2F5E2F50000EFF5E2F5E2E2E2E2E2E2E2F5E2E2E2E2E2E2F5F5F5F5F5F5F5F5F5F5F5F5F5F5E2E2E2C3E2E2E2F5F5F5F5F5
310
F5F5F5F5F5F5F5F5F5F5F5F5F5F5F5F5F5F5F5F5F5F5F5F5F5F5F5F5C3C3C3C3E2E2E2F5F5F5F5F5F5F5F5F5F5F5F5F5E2F5E2F5E2F50000EFF5E2F5E2E2E2E2E2E2E2F5E2E2E2E2E2F5F5F5F5F5E2F5F5F5F5F5F5E2E2E2E2E2E2C3E2E2E2E2E2E2E2E2C3C3E2E2E2E2E2E2E2E2F5F5F5F5E2E2E2E2E2E2E2C3E2C3E2E2E2
310
E2E2E2C3E2E2E2E2E2E2E2F5F5F5F5F5F5E2E2E2E2F5F5E2F5E2F50000EFF5E2F5E2E2E2E2E2E2E2F5E2E2E2E2E2F5F5F5F5F5F5E2E2E2E2E2E2E2E2E2E2E2E2C3C3C3C3C3C3C3C3C3C3C3C3C3C3C3C3C3C3C3C3F5F5C3E2E2E2E2E2E2E2C3E2C3E2E2E2E2E2C3C3E2E2E2E2E2E2E2E2E2E2E2E2E2F5F5F5F5F5F5E2F5E2F5
310
0000EFF5E2F5E2E2E2E2E2E2E2F5E2E2E2E2E2E2E2E2E2E2E2E2E2E2E2E2E2E2E2E2E2E2C3C3E2E2E2E2E2E2E2E2C3C3E2E2E2E2E2E2C3C3C3C3C3C3C3C3E2E2E2E2E2C3E2C3E2E2E2E2E2C3C3E2E2E2E2E2E2E2E2E2E2E2E2E2E2E2E2E2E2F5E2F5E2F50000EFF5E2F5E2E2E2E2E2E2E2F5E2E2E2E2E2E2E2E2E2E2E2E2E2
310
E2E2E2E2E2E2E2E2E2C3C3E2E2E2E2E2E2E2E2C3C3E2E2E2E2E2E2E2E2C3C3C3C3E2E2E2E2E2E2E2C3E2C3E2E2E2E2E2C3C3E2E2E2E2E2E2E2E2E2E2E2E2E2E2E2E2E2E2F5E2F5E2F50000EFF5E2F5E2E2E2E2E2E2E2F5E2E2E2E2E2E2E2E2E2E2E2E2E2E2E2E2E2E2E2E2E2E2C3C3E2E2E2E2E2E2E2E2C3C3C3C3C3C3C3C3
310
C3C3C3C3C3C3C3C3C3C3C3C3C3C3E2C3E2E2E2E2E2C3C3E2E2E2E2E2E2E2E2E2E2E2E2E2E2E2E2E2E2F5E2F5E2F50000EFF5E2F5E2E2E2E2E2E2E2F5E2E2E2E2E2E2E2E2E2E2E2E2E2E2E2E2E2E2E2E2E2E2E2E2E2E2E2E2E2E2E2E2C3C3E2E2E2E2E2E2E2C3C3C3C3E2E2E2E2E2E2E2E2C3E2C3E2E2E2E2E2E2E2E2E2E2E2
310
E2E2E2E2E2E2E2E2E2E2E2E2E2E2F5E2F5E2F50000EFF5E2F5E2E2E2E2E2E2E2F5E2E2E2E2E2E2E2E2E2E2E2E2E2E2E2E2E2E2E2E2E2E2E2E2E2E2E2E2E2E2E2E2C3C3C3C3C3C3C3C3C3C3C3C3C3C3C3C3C3C3C3C3C3C3C3C3E2E2E2E2E2E2E2E2E2E2E2E2E2E2E2E2E2E2E2E2E2E2E2E2E2F5E2F5E2F50000EFF5E2F5E2E2
310
E2E2E2E2E2F5E2E2E2E2E2E2E2E2E2E2E2E2E2E2E2E2E2E2E2E2E2E2E2E2E2E2E2E2E2E2E2E2E2E2E2E2E2E2E2E2E2C3C3C3C3C3E2E2E2E2E2E2E2E2E2E2E2E2E2E2E2E2E2E2E2E2E2E2E2E2E2E2E2E2E2E2E2E2E2E2E2F5E2F5E2F50000EFF5E2F5E2E2E2E2E2E2E2F5E2E2E2E2E2E2E2E2E2E2E2E2E2E2E2E2E2E2E2E2E2
310
E2E2E2E2E2E2E2E2E2E2E2E2E2E2E2E2E2E2E2E2E2E2E2E2E2E2E2E2E2E2E2E2E2E2E2E2E2E2E2E2E2E2E2E2E2E2E2E2E2E2E2E2E2E2E2E2E2E2E2E2F5E2F5E2F50000EFF5E2F5E2E2E2E2E2E2E2F5E2E2E2E2E2E2E2E2E2E2E2E2E2E2E2E2E2E2E2E2E2E2E2E2E2E2E2E2E2E2E2E2E2E2E2E2E2E2E2E2E2E2E2E2E2E2E2E2
310
E2E2E2E2E2E2E2E2E2E2E2E2E2E2E2E2E2E2E2E2E2E2E2E2E2E2E2E2E2E2E2E2E2F5E2F5E2F50000EFF5E2F5E2E2E2E2E2E2E2F5E2E2E2E2E2E2E2E2E2E2E2E2E2E2E2E2E2E2E2E2E2E2E2E2E2E2E2E2E2E2E2E2E2E2E2E2E2E2E2E2E2E2E2E2E2E2E2E2E2E2E2E2E2E2E2E2E2E2E2E2E2E2E2E2E2E2E2E2E2E2E2E2E2E2E2
310
E2E2E2E2E2E2F5E2F5E2F52E78EFF5E2F5E2E2E2E2E2E2E2F5E2E2E2E2E2E2E2E2E2E2E2E2E2E2E2E2E2E2E2E2E2E2E2E2E2E2E2E2E2E2E2E2E2E2E2E2E2E2E2E2E2E2E2E2E2E2E2E2E2E2E2E2E2E2E2E2E2E2E2E2E2E2E2E2E2E2E2E2E2E2E2E2E2E2E2E2E2E2E2E2E2F5E2F5E2F50000EFF5E2F5E2E2E2E2E2E2E2F5E2E2
310
E2E2E2E2E2E2E2E2E2E2E2E2E2E2E2E2E2E2E2E2E2E2E2E2E2E2E2E2E2E2E2E2E2E2E2E2E2E2E2E2E2E2E2E2E2E2E2E2E2E2E2E2E2E2E2E2E2E2E2E2E2E2E2E2E2E2E2E2E2E2E2E2E2E2E2E2E2E2E2F5E2F5E2F52E78EFF5E2F5E2E2E2E2E2E2E2F5F5F5F5F5F5F5F5F5F5F5F5F5F5F5F5F5F5F5F5F5F5F5F5F5F5F5F5F5F5
310
F5F5F5F5F5F5F5F5F5F5F5F5F5F5F5F5F5F5F5F5F5F5F5F5F5F5F5F5F5F5F5F5F5F5F5F5F5F5F5F5F5F5F5F5F5F5F5F5F5F5F5F5F5E2F5E2F50000EFF5E2F5E2E2E2E2E2E2E2E2E2E2E2E2E2E2E2E2E2E2E2E2E2E2E2E2E2E2E2E2E2E2E2E2E2E2E2E2E2E2E2E2E2E2E2E2E2E2E2E2E2E2E2E2E2E2E2E2E2E2E2E2E2E2E2E2
310
E2E2E2E2E2E2E2E2E2E2E2E2E2E2E2E2E2E2E2E2E2E2E2E2E2E2E2F5E2F50000EFF5E2F5F5F5F5F5F5F5F5F5F5F5F5F5F5F5F5F5F5F5F5F5F5F5F5F5F5F5F5F5F5F5F5F5F5F5F5F5F5F5F5F5F5F5F5F5F5F5F5F5F5F5F5F5F5F5F5F5F5F5F5F5F5F5F5F5F5F5F5F5F5F5F5F5F5F5F5F5F5F5F5F5F5F5F5F5F5F5F5F5F5F5F5
310
F5E2F52E78EFF5E2F5F5F5F5F5F5F5F5E2E2E2E2E2E2E2E2F5F5F5F5F5F5F5F5F5F5F5F5F5F5F5E2E2E2E2E2E2E2E2F5F5F5F5F5F5F5F5F5F5F5F5F5F5F5E2E2E2E2E2E2E2E2F5F5F5F5F5F5F5F5F5F5F5F5F5F5F5E2E2E2E2E2E2E2E2F5F5F5F5F5F5F5F5E2F50000EFF5F5F5F5F5F5F5F5F5F5F5F5F5F5F5F5F5F5F5F5F5
310
F5F5F5F5F5F5F5F5F5F5F5F5F5F5F5F5F5F5F5F5F5F5F5F5F5F5F5F5F5F5F5F5F5F5F5F5F5F5F5F5F5F5F5F5F5F5F5F5F5F5F5F5F5F5F5F5F5F5F5F5F5F5F5F5F5F5F5F5F5F5F5F5F5F5F5F50000
  0
XRECORD
  5
1D09
102
{ACAD_REACTORS
330
1790
102
}
330
1790
100
AcDbXrecord
280
     1
102
MATERIAL
148
0.0
149
0.0
149
0.0
 93
        0
 94
      127
282
     0
 72
     0
 77
     0
171
     0
175
     0
179
     0
273
     0
  0
XRECORD
  5
1792
102
{ACAD_REACTORS
330
1790
102
}
330
1790
100
AcDbXrecord
280
     1
270
     1
271
     1
  0
XRECORD
  5
1791
102
{ACAD_REACTORS
330
1790
102
}
330
1790
100
AcDbXrecord
280
     1
270
     1
271
     1
  0
XRECORD
  5
1795
102
{ACAD_REACTORS
330
1790
102
}
330
1790
100
AcDbXrecord
280
     1
270
     1
271
     1
  0
XRECORD
  5
1794
102
{ACAD_REACTORS
330
1790
102
}
330
1790
100
AcDbXrecord
280
     1
270
     1
271
     1
  0
XRECORD
  5
1796
102
{ACAD_REACTORS
330
1790
102
}
330
1790
100
AcDbXrecord
280
     1
270
     1
271
     1
  0
XRECORD
  5
1793
102
{ACAD_REACTORS
330
1790
102
}
330
1790
100
AcDbXrecord
280
     1
270
     1
271
     1
  0
XRECORD
  5
1D08
102
{ACAD_REACTORS
330
1788
102
}
330
1788
100
AcDbXrecord
280
     1
102
MATERIAL
148
0.0
149
0.0
149
0.0
 93
        0
 94
      127
282
     0
 72
     0
 77
     0
171
     0
175
     0
179
     0
273
     0
  0
XRECORD
  5
178A
102
{ACAD_REACTORS
330
1788
102
}
330
1788
100
AcDbXrecord
280
     1
270
     1
271
     1
  0
XRECORD
  5
1789
102
{ACAD_REACTORS
330
1788
102
}
330
1788
100
AcDbXrecord
280
     1
270
     1
271
     1
  0
XRECORD
  5
178D
102
{ACAD_REACTORS
330
1788
102
}
330
1788
100
AcDbXrecord
280
     1
270
     1
271
     1
  0
XRECORD
  5
178C
102
{ACAD_REACTORS
330
1788
102
}
330
1788
100
AcDbXrecord
280
     1
270
     1
271
     1
  0
XRECORD
  5
178E
102
{ACAD_REACTORS
330
1788
102
}
330
1788
100
AcDbXrecord
280
     1
270
     1
271
     1
  0
XRECORD
  5
178B
102
{ACAD_REACTORS
330
1788
102
}
330
1788
100
AcDbXrecord
280
     1
270
     1
271
     1
  0
XRECORD
  5
1D0A
102
{ACAD_REACTORS
330
1798
102
}
330
1798
100
AcDbXrecord
280
     1
102
MATERIAL
148
0.0
149
0.0
149
0.0
 93
        0
 94
      127
282
     0
 72
     0
 77
     0
171
     0
175
     0
179
     0
273
     0
  0
XRECORD
  5
179A
102
{ACAD_REACTORS
330
1798
102
}
330
1798
100
AcDbXrecord
280
     1
270
     1
271
     1
  0
XRECORD
  5
1799
102
{ACAD_REACTORS
330
1798
102
}
330
1798
100
AcDbXrecord
280
     1
270
     1
271
     1
  0
XRECORD
  5
179D
102
{ACAD_REACTORS
330
1798
102
}
330
1798
100
AcDbXrecord
280
     1
270
     1
271
     1
  0
XRECORD
  5
179C
102
{ACAD_REACTORS
330
1798
102
}
330
1798
100
AcDbXrecord
280
     1
270
     1
271
     1
  0
XRECORD
  5
179E
102
{ACAD_REACTORS
330
1798
102
}
330
1798
100
AcDbXrecord
280
     1
270
     1
271
     1
  0
XRECORD
  5
179B
102
{ACAD_REACTORS
330
1798
102
}
330
1798
100
AcDbXrecord
280
     1
270
     1
271
     1
  0
CELLSTYLEMAP
  5
1D07
102
{ACAD_REACTORS
330
199F
102
}
330
199F
100
AcDbCellStyleMap
 90
        3
300
CELLSTYLE
  1
TABLEFORMAT_BEGIN
 90
        5
170
     1
 91
        0
 92
    32768
 62
   257
 93
        1
300
CONTENTFORMAT
  1
CONTENTFORMAT_BEGIN
 90
        0
 91
        0
 92
      512
 93
        0
300

 40
0.0
140
1.0
 94
        5
 62
     0
340
11
144
6.0
309
CONTENTFORMAT_END
171
     1
301
MARGIN
  1
CELLMARGIN_BEGIN
 40
1.5
 40
1.5
 40
1.5
 40
1.5
 40
4.5
 40
4.5
309
CELLMARGIN_END
 94
        6
 95
        1
302
GRIDFORMAT
  1
GRIDFORMAT_BEGIN
 90
        0
 91
        1
 62
     0
 92
       -2
340
0
 93
        0
 40
1.125
309
GRIDFORMAT_END
 95
        2
302
GRIDFORMAT
  1
GRIDFORMAT_BEGIN
 90
        0
 91
        1
 62
     0
 92
       -2
340
0
 93
        0
 40
1.125
309
GRIDFORMAT_END
 95
        4
302
GRIDFORMAT
  1
GRIDFORMAT_BEGIN
 90
        0
 91
        1
 62
     0
 92
       -2
340
0
 93
        0
 40
1.125
309
GRIDFORMAT_END
 95
        8
302
GRIDFORMAT
  1
GRIDFORMAT_BEGIN
 90
        0
 91
        1
 62
     0
 92
       -2
340
0
 93
        0
 40
1.125
309
GRIDFORMAT_END
 95
       16
302
GRIDFORMAT
  1
GRIDFORMAT_BEGIN
 90
        0
 91
        1
 62
     0
 92
       -2
340
0
 93
        0
 40
1.125
309
GRIDFORMAT_END
 95
       32
302
GRIDFORMAT
  1
GRIDFORMAT_BEGIN
 90
        0
 91
        1
 62
     0
 92
       -2
340
0
 93
        0
 40
1.125
309
GRIDFORMAT_END
309
TABLEFORMAT_END
  1
CELLSTYLE_BEGIN
 90
        1
 91
        1
300
_TITLE
309
CELLSTYLE_END
300
CELLSTYLE
  1
TABLEFORMAT_BEGIN
 90
        5
170
     1
 91
        0
 92
        0
 62
   257
 93
        1
300
CONTENTFORMAT
  1
CONTENTFORMAT_BEGIN
 90
        0
 91
        0
 92
      512
 93
        0
300

 40
0.0
140
1.0
 94
        5
 62
     0
340
11
144
4.5
309
CONTENTFORMAT_END
171
     1
301
MARGIN
  1
CELLMARGIN_BEGIN
 40
1.5
 40
1.5
 40
1.5
 40
1.5
 40
4.5
 40
4.5
309
CELLMARGIN_END
 94
        6
 95
        1
302
GRIDFORMAT
  1
GRIDFORMAT_BEGIN
 90
        0
 91
        1
 62
     0
 92
       -2
340
0
 93
        0
 40
1.125
309
GRIDFORMAT_END
 95
        2
302
GRIDFORMAT
  1
GRIDFORMAT_BEGIN
 90
        0
 91
        1
 62
     0
 92
       -2
340
0
 93
        0
 40
1.125
309
GRIDFORMAT_END
 95
        4
302
GRIDFORMAT
  1
GRIDFORMAT_BEGIN
 90
        0
 91
        1
 62
     0
 92
       -2
340
0
 93
        0
 40
1.125
309
GRIDFORMAT_END
 95
        8
302
GRIDFORMAT
  1
GRIDFORMAT_BEGIN
 90
        0
 91
        1
 62
     0
 92
       -2
340
0
 93
        0
 40
1.125
309
GRIDFORMAT_END
 95
       16
302
GRIDFORMAT
  1
GRIDFORMAT_BEGIN
 90
        0
 91
        1
 62
     0
 92
       -2
340
0
 93
        0
 40
1.125
309
GRIDFORMAT_END
 95
       32
302
GRIDFORMAT
  1
GRIDFORMAT_BEGIN
 90
        0
 91
        1
 62
     0
 92
       -2
340
0
 93
        0
 40
1.125
309
GRIDFORMAT_END
309
TABLEFORMAT_END
  1
CELLSTYLE_BEGIN
 90
        2
 91
        1
300
_HEADER
309
CELLSTYLE_END
300
CELLSTYLE
  1
TABLEFORMAT_BEGIN
 90
        5
170
     1
 91
        0
 92
        0
 62
   257
 93
        1
300
CONTENTFORMAT
  1
CONTENTFORMAT_BEGIN
 90
        0
 91
        0
 92
      512
 93
        0
300

 40
0.0
140
1.0
 94
        2
 62
     0
340
11
144
4.5
309
CONTENTFORMAT_END
171
     1
301
MARGIN
  1
CELLMARGIN_BEGIN
 40
1.5
 40
1.5
 40
1.5
 40
1.5
 40
4.5
 40
4.5
309
CELLMARGIN_END
 94
        6
 95
        1
302
GRIDFORMAT
  1
GRIDFORMAT_BEGIN
 90
        0
 91
        1
 62
     0
 92
       -2
340
0
 93
        0
 40
1.125
309
GRIDFORMAT_END
 95
        2
302
GRIDFORMAT
  1
GRIDFORMAT_BEGIN
 90
        0
 91
        1
 62
     0
 92
       -2
340
0
 93
        0
 40
1.125
309
GRIDFORMAT_END
 95
        4
302
GRIDFORMAT
  1
GRIDFORMAT_BEGIN
 90
        0
 91
        1
 62
     0
 92
       -2
340
0
 93
        0
 40
1.125
309
GRIDFORMAT_END
 95
        8
302
GRIDFORMAT
  1
GRIDFORMAT_BEGIN
 90
        0
 91
        1
 62
     0
 92
       -2
340
0
 93
        0
 40
1.125
309
GRIDFORMAT_END
 95
       16
302
GRIDFORMAT
  1
GRIDFORMAT_BEGIN
 90
        0
 91
        1
 62
     0
 92
       -2
340
0
 93
        0
 40
1.125
309
GRIDFORMAT_END
 95
       32
302
GRIDFORMAT
  1
GRIDFORMAT_BEGIN
 90
        0
 91
        1
 62
     0
 92
       -2
340
0
 93
        0
 40
1.125
309
GRIDFORMAT_END
309
TABLEFORMAT_END
  1
CELLSTYLE_BEGIN
 90
        3
 91
        2
300
_DATA
309
CELLSTYLE_END
  0
XRECORD
  5
1D0B
102
{ACAD_REACTORS
330
199F
102
}
330
199F
100
AcDbXrecord
280
     1
102
ACAD_ROUNDTRIP_PRE2007_TABLESTYLE
 90
      512
 91
        0
  1

 92
      512
 93
        0
  2

 94
      512
 95
        0
  3

  0
ENDSEC
  0
EOF
