999
DXF file: Z:\PB-Schloss\F-Konstruktion\Liesegang\b75000041.dxf
999
Pro/ENGINEER 2002480 by Parametric Technology Corporation
0
SECTION
2
HEADER
9
$ACADVER
1
AC1012
9
$HANDSEED
5
       2E4
9
$EXTMAX
10
420.0000000000
20
297.0000000000
9
$EXTMIN
10
0.0000000000
20
0.0000000000
9
$LIMMIN
10
0.0000000000
20
0.0000000000
9
$LIMMAX
10
420.0000000000
20
297.0000000000
9
$VIEWCTR
10
210.0000000000
20
148.5000000000
9
$VIEWSIZE
40
297.0000000000
9
$CLAYER
8
0
9
$LTSCALE
40
23.1000000000
9
$CELTYPE
6
BYLAYER
9
$DIMSCALE
40
1
9
$DIMASZ
40
3.5000000000
9
$DIMEXO
40
2.6250000000
9
$DIMDLI
40
15.9600000000
9
$DIMEXE
40
7.5600000000
9
$DIMCEN
40
3.7800000000
9
$DIMLFAC
40
1.0000000000
9
$DIMTXT
40
3.0000000000
9
$DIMTOL
70
1
9
$DIMLIM
70
0
9
$DIMTFAC
40
1.0000000000
9
$DIMTP
40
0.0010000000
9
$DIMTM
40
0.0010000000
0
ENDSEC
0
SECTION
2
CLASSES
0
ENDSEC
0
SECTION
2
TABLES
0
TABLE
2
VPORT
5
8
100
AcDbSymbolTable
70
2
0
VPORT
5
1F4
100
AcDbSymbolTableRecord
100
AcDbViewportTableRecord
2
*ACTIVE
70
0
10
0.0
20
0.0
11
1.0
21
1.0
12
210.0000000000
22
148.5000000000
13
0.0
23
0.0
14
1.0
24
1.0
15
0.0
25
0.0
16
0.0
26
0.0
36
1.0
17
0.0
27
0.0
37
0.0
40
297.0000000000
41
1.4141414141
42
50.0
43
0.0
44
0.0
50
0.0
51
0.0
71
0
72
100
73
1
74
1
75
0
76
0
77
0
78
0
0
ENDTAB
0
TABLE
2
LTYPE
5
5
100
AcDbSymbolTable
70
6
0
LTYPE
5
14
100
AcDbSymbolTableRecord
100
AcDbLinetypeTableRecord
2
BYBLOCK
70
0
3

72
65
73
0
40
0.0
0
LTYPE
5
15
100
AcDbSymbolTableRecord
100
AcDbLinetypeTableRecord
2
BYLAYER
70
0
3

72
65
73
0
40
0.0
0
LTYPE
5
16
100
AcDbSymbolTableRecord
100
AcDbLinetypeTableRecord
2
CONTINUOUS
70
64
3
Solid line
72
65
73
0
40
0
0
LTYPE
5
1F5
100
AcDbSymbolTableRecord
100
AcDbLinetypeTableRecord
2
CENTER
70
64
3
____ _ ____ _ ____ _ ____ _ ____ _ ____ _ ____
72
65
73
4
40
0.6
49
0.375
74
0
49
-0.075
74
0
49
0.075
74
0
49
-0.075
74
0
0
LTYPE
5
1F6
100
AcDbSymbolTableRecord
100
AcDbLinetypeTableRecord
2
HIDDEN
70
64
3
- - - - - - - - - - - - - - - - - - - -
72
65
73
2
40
0.2
49
0.1
74
0
49
-0.1
74
0
0
LTYPE
5
1F7
100
AcDbSymbolTableRecord
100
AcDbLinetypeTableRecord
2
PHANTOM
70
64
3
_____ _ _ _____ _ _ _____ _ _ _____
72
65
73
6
40
0.8
49
0.45
74
0
49
-0.05
74
0
49
0.1
74
0
49
-0.05
74
0
49
0.1
74
0
49
-0.05
74
0
0
LTYPE
5
1F8
100
AcDbSymbolTableRecord
100
AcDbLinetypeTableRecord
2
DOT
70
64
3
. . . . . . . . . . . . . . . . . . . .
72
65
73
2
40
0.2
49
0.1
74
0
49
-0.1
74
0
0
LTYPE
5
1F9
100
AcDbSymbolTableRecord
100
AcDbLinetypeTableRecord
2
DASHED
70
64
3
- - - - - - - - - - - - - - - - - - - -
72
65
73
2
40
0.2
49
0.1
74
0
49
-0.1
74
0
0
ENDTAB
0
TABLE
2
LAYER
5
2
100
AcDbSymbolTable
70
36
0
LAYER
5
10
100
AcDbSymbolTableRecord
100
AcDbLayerTableRecord
2
0
70
0
62
7
6
CONTINUOUS
0
LAYER
5
1FA
100
AcDbSymbolTableRecord
100
AcDbLayerTableRecord
2
DEFAULT_1
70
0
62
7
6
CENTER
0
LAYER
5
1FB
100
AcDbSymbolTableRecord
100
AcDbLayerTableRecord
2
DEFAULT_2
70
0
62
8
6
HIDDEN
0
LAYER
5
1FC
100
AcDbSymbolTableRecord
100
AcDbLayerTableRecord
2
DEFAULT_3
70
0
62
7
6
PHANTOM
0
LAYER
5
1FD
100
AcDbSymbolTableRecord
100
AcDbLayerTableRecord
2
ACHSEN
70
0
62
7
6
CONTINUOUS
0
LAYER
5
1FE
100
AcDbSymbolTableRecord
100
AcDbLayerTableRecord
2
EBENEN
70
0
62
7
6
CONTINUOUS
0
LAYER
5
1FF
100
AcDbSymbolTableRecord
100
AcDbLayerTableRecord
2
GEWINDE
70
0
62
7
6
CONTINUOUS
0
LAYER
5
200
100
AcDbSymbolTableRecord
100
AcDbLayerTableRecord
2
S-ACHSEN
70
0
62
7
6
CONTINUOUS
0
LAYER
5
201
100
AcDbSymbolTableRecord
100
AcDbLayerTableRecord
2
S-BG-EBENEN
70
0
62
7
6
CONTINUOUS
0
LAYER
5
202
100
AcDbSymbolTableRecord
100
AcDbLayerTableRecord
2
S-BG-KOORDSYS
70
0
62
7
6
CONTINUOUS
0
LAYER
5
203
100
AcDbSymbolTableRecord
100
AcDbLayerTableRecord
2
S-EBENEN
70
0
62
7
6
CONTINUOUS
0
LAYER
5
204
100
AcDbSymbolTableRecord
100
AcDbLayerTableRecord
2
S-KOORDSYS
70
0
62
7
6
CONTINUOUS
0
LAYER
5
205
100
AcDbSymbolTableRecord
100
AcDbLayerTableRecord
2
ZEICH_ELEMENTE
70
0
62
7
6
CONTINUOUS
0
ENDTAB
0
TABLE
2
STYLE
5
3
100
AcDbSymbolTable
70
1
0
STYLE
5
11
100
AcDbSymbolTableRecord
100
AcDbTextStyleTableRecord
2
STANDARD
70
0
40
0.0
41
0.8000000000
50
0.0
71
0
42
0.2
3
SwissCL.ttf
4

0
ENDTAB
0
TABLE
2
VIEW
5
6
100
AcDbSymbolTable
70
0
0
ENDTAB
0
TABLE
2
UCS
5
7
100
AcDbSymbolTable
70
0
0
ENDTAB
0
TABLE
2
APPID
5
9
100
AcDbSymbolTable
70
1
0
APPID
5
206
100
AcDbSymbolTableRecord
100
AcDbRegAppTableRecord
2
ACAD
70
0
0
ENDTAB
0
TABLE
2
DIMSTYLE
5
A
100
AcDbSymbolTable
70
1
0
DIMSTYLE
105
207
100
AcDbSymbolTableRecord
100
AcDbDimStyleTableRecord
2
STANDARD
70
0
3

4

5

6

7

40
1.0
41
3.5000000000
42
0.0625
43
0.38
44
0.18
45
0.0
46
0.0
47
0.0010000000
48
0.0010000000
140
3.0000000000
141
0.09
142
0.0
143
25.4
144
1.0000000000
145
0.0
146
1.0000000000
147
0.09
71
1
72
0
73
0
74
0
75
0
76
0
77
1
78
8
170
0
171
2
172
0
173
0
174
0
175
0
176
0
177
0
178
5
270
2
271
3
272
3
273
2
274
2
340
11
275
0
280
0
281
0
282
0
283
1
284
8
285
0
286
0
287
3
288
0
0
DIMSTYLE
105
208
100
AcDbSymbolTableRecord
100
AcDbDimStyleTableRecord
2
DIMSTYLE_1
70
0
3

4

5

6

7

40
1.0
41
3.5000000000
42
0.0625
43
0.38
44
0.18
45
0.0
46
0.0
47
0.3000000000
48
0.3000000000
140
3.0000000000
141
0.09
142
0.0
143
25.4
144
1.0000000000
145
0.0
146
1.0000000000
147
0.09
71
0
72
0
73
0
74
0
75
0
76
0
77
1
78
8
170
0
171
2
172
0
173
0
174
0
175
0
176
0
177
0
178
5
270
2
271
3
272
3
273
2
274
2
340
11
275
0
280
0
281
0
282
0
283
1
284
8
285
0
286
0
287
3
288
0
0
DIMSTYLE
105
209
100
AcDbSymbolTableRecord
100
AcDbDimStyleTableRecord
2
DIMSTYLE_2
70
0
3

4

5

6

7

40
1.0
41
3.5000000000
42
0.0625
43
0.38
44
0.18
45
0.0
46
0.0
47
0.5000000000
48
0.5000000000
140
3.0000000000
141
0.09
142
0.0
143
25.4
144
1.0000000000
145
0.0
146
1.0000000000
147
0.09
71
0
72
0
73
0
74
0
75
0
76
0
77
1
78
8
170
0
171
2
172
0
173
0
174
0
175
0
176
0
177
0
178
5
270
2
271
3
272
3
273
2
274
2
340
11
275
0
280
0
281
0
282
0
283
1
284
8
285
0
286
0
287
3
288
0
0
DIMSTYLE
105
20A
100
AcDbSymbolTableRecord
100
AcDbDimStyleTableRecord
2
DIMSTYLE_3
70
0
3

4

5

6

7

40
1.0
41
3.5000000000
42
0.0625
43
0.38
44
0.18
45
0.0
46
0.0
47
0.2000000000
48
0.2000000000
140
3.0000000000
141
0.09
142
0.0
143
25.4
144
1.0000000000
145
0.0
146
1.0000000000
147
0.09
71
0
72
0
73
0
74
0
75
0
76
0
77
1
78
8
170
0
171
2
172
0
173
0
174
0
175
0
176
0
177
0
178
5
270
2
271
3
272
3
273
2
274
2
340
11
275
0
280
0
281
0
282
0
283
1
284
8
285
0
286
0
287
3
288
0
0
ENDTAB
0
TABLE
2
BLOCK_RECORD
5
1
100
AcDbSymbolTable
70
0
0
BLOCK_RECORD
5
1B
100
AcDbSymbolTableRecord
100
AcDbBlockTableRecord
2
*MODEL_SPACE
0
BLOCK_RECORD
5
1C
100
AcDbSymbolTableRecord
100
AcDbBlockTableRecord
2
*PAPER_SPACE
0
BLOCK_RECORD
5
20B
100
AcDbSymbolTableRecord
100
AcDbBlockTableRecord
2
*D0
0
BLOCK_RECORD
5
20C
100
AcDbSymbolTableRecord
100
AcDbBlockTableRecord
2
*D1
0
BLOCK_RECORD
5
20D
100
AcDbSymbolTableRecord
100
AcDbBlockTableRecord
2
*D2
0
BLOCK_RECORD
5
20E
100
AcDbSymbolTableRecord
100
AcDbBlockTableRecord
2
*D3
0
BLOCK_RECORD
5
20F
100
AcDbSymbolTableRecord
100
AcDbBlockTableRecord
2
*D4
0
BLOCK_RECORD
5
210
100
AcDbSymbolTableRecord
100
AcDbBlockTableRecord
2
*D5
0
ENDTAB
0
ENDSEC
0
SECTION
2
BLOCKS
0
BLOCK
5
1E
100
AcDbEntity
8
0
100
AcDbBlockBegin
2
*MODEL_SPACE
70
0
10
0.0
20
0.0
30
0.0
3
*MODEL_SPACE
1

0
ENDBLK
5
1F
100
AcDbEntity
8
0
100
AcDbBlockEnd
0
BLOCK
5
20
100
AcDbEntity
8
0
100
AcDbBlockBegin
2
*PAPER_SPACE
70
0
10
0.0
20
0.0
30
0.0
3
*PAPER_SPACE
1

0
ENDBLK
5
21
100
AcDbEntity
8
0
100
AcDbBlockEnd
0
BLOCK
5
211
100
AcDbEntity
8
0
100
AcDbBlockBegin
62
2
6
CONTINUOUS
2
*D0
70
65
10
0.0000000000
20
0.0000000000
3
*D0
1

0
TEXT
5
212
100
AcDbEntity
8
0
100
AcDbText
62
5
6
CONTINUOUS
10
128.1637672751
20
289.7412252485
7
STANDARD
40
3.0000000000
1
32
41
0.6272401434
72
0
100
AcDbText
0
LINE
5
213
100
AcDbEntity
8
0
100
AcDbLine
62
2
6
CONTINUOUS
10
145.1368968920
20
265.0242674757
11
145.1368968920
21
289.9912252485
0
LINE
5
214
100
AcDbEntity
8
0
100
AcDbLine
62
2
6
CONTINUOUS
10
113.1368968920
20
265.0242674757
11
113.1368968920
21
289.9912252485
0
LINE
5
215
100
AcDbEntity
8
0
100
AcDbLine
62
2
6
CONTINUOUS
10
145.1368968920
20
288.9912252485
11
129.1368968920
21
288.9912252485
0
LINE
5
216
100
AcDbEntity
8
0
100
AcDbLine
62
2
6
CONTINUOUS
10
113.1368968920
20
288.9912252485
11
129.1368968920
21
288.9912252485
0
SOLID
5
217
100
AcDbEntity
8
0
100
AcDbTrace
62
2
6
CONTINUOUS
10
141.6368968920
20
288.4912252485
11
145.1368968920
21
288.9912252485
12
141.6368968920
22
289.4912252485
13
141.6368968920
23
289.4912252485
0
SOLID
5
218
100
AcDbEntity
8
0
100
AcDbTrace
62
2
6
CONTINUOUS
10
116.6368968920
20
289.4912252485
11
113.1368968920
21
288.9912252485
12
116.6368968920
22
288.4912252485
13
116.6368968920
23
288.4912252485
0
ENDBLK
5
219
100
AcDbEntity
8
0
100
AcDbBlockEnd
0
BLOCK
5
21A
100
AcDbEntity
8
0
100
AcDbBlockBegin
62
2
6
CONTINUOUS
2
*D1
70
65
10
0.0000000000
20
0.0000000000
3
*D1
1

0
TEXT
5
21B
100
AcDbEntity
8
0
100
AcDbText
62
5
6
CONTINUOUS
10
93.3533884499
20
148.5367035524
7
STANDARD
40
3.0000000000
1
242
50
90.0000000000
41
0.6272401434
72
0
100
AcDbText
0
LINE
5
21C
100
AcDbEntity
8
0
100
AcDbLine
62
2
6
CONTINUOUS
10
129.1368968920
20
281.0242674757
11
93.1033884499
21
281.0242674757
0
LINE
5
21D
100
AcDbEntity
8
0
100
AcDbLine
62
2
6
CONTINUOUS
10
129.1368968920
20
39.0242674757
11
93.1033884499
21
39.0242674757
0
LINE
5
21E
100
AcDbEntity
8
0
100
AcDbLine
62
2
6
CONTINUOUS
10
94.1033884499
20
281.0242674757
11
94.1033884499
21
160.0242674757
0
LINE
5
21F
100
AcDbEntity
8
0
100
AcDbLine
62
2
6
CONTINUOUS
10
94.1033884499
20
39.0242674757
11
94.1033884499
21
160.0242674757
0
SOLID
5
220
100
AcDbEntity
8
0
100
AcDbTrace
62
2
6
CONTINUOUS
10
94.6033884499
20
277.5242674757
11
94.1033884499
21
281.0242674757
12
93.6033884499
22
277.5242674757
13
93.6033884499
23
277.5242674757
0
SOLID
5
221
100
AcDbEntity
8
0
100
AcDbTrace
62
2
6
CONTINUOUS
10
93.6033884499
20
42.5242674757
11
94.1033884499
21
39.0242674757
12
94.6033884499
22
42.5242674757
13
94.6033884499
23
42.5242674757
0
ENDBLK
5
222
100
AcDbEntity
8
0
100
AcDbBlockEnd
0
BLOCK
5
223
100
AcDbEntity
8
0
100
AcDbBlockBegin
62
2
6
CONTINUOUS
2
*D2
70
65
10
0.0000000000
20
0.0000000000
3
*D2
1

0
TEXT
5
224
100
AcDbEntity
8
0
100
AcDbText
62
5
6
CONTINUOUS
10
191.6897069142
20
172.7344572381
7
STANDARD
40
3.0000000000
1
21.5
50
90.0000000000
41
0.5492831541
72
0
100
AcDbText
0
LINE
5
225
100
AcDbEntity
8
0
100
AcDbLine
62
2
6
CONTINUOUS
10
213.3080791933
20
185.0242674757
11
191.4397069142
21
185.0242674757
0
LINE
5
226
100
AcDbEntity
8
0
100
AcDbLine
62
2
6
CONTINUOUS
10
197.0041627053
20
163.5242674757
11
191.4397069142
21
163.5242674757
0
LINE
5
227
100
AcDbEntity
8
0
100
AcDbLine
62
2
6
CONTINUOUS
10
192.4397069142
20
185.0242674757
11
192.4397069142
21
174.2742674757
0
LINE
5
228
100
AcDbEntity
8
0
100
AcDbLine
62
2
6
CONTINUOUS
10
192.4397069142
20
163.5242674757
11
192.4397069142
21
174.2742674757
0
SOLID
5
229
100
AcDbEntity
8
0
100
AcDbTrace
62
2
6
CONTINUOUS
10
192.9397069142
20
181.5242674757
11
192.4397069142
21
185.0242674757
12
191.9397069142
22
181.5242674757
13
191.9397069142
23
181.5242674757
0
SOLID
5
22A
100
AcDbEntity
8
0
100
AcDbTrace
62
2
6
CONTINUOUS
10
191.9397069142
20
167.0242674757
11
192.4397069142
21
163.5242674757
12
192.9397069142
22
167.0242674757
13
192.9397069142
23
167.0242674757
0
ENDBLK
5
22B
100
AcDbEntity
8
0
100
AcDbBlockEnd
0
BLOCK
5
22C
100
AcDbEntity
8
0
100
AcDbBlockBegin
62
2
6
CONTINUOUS
2
*D3
70
65
10
0.0000000000
20
0.0000000000
3
*D3
1

0
TEXT
5
22D
100
AcDbEntity
8
0
100
AcDbText
62
5
6
CONTINUOUS
10
251.6001307627
20
224.9240568078
7
STANDARD
40
3.0000000000
1
85
50
90.0000000000
41
0.6272401434
72
0
100
AcDbText
0
LINE
5
22E
100
AcDbEntity
8
0
100
AcDbLine
62
2
6
CONTINUOUS
10
238.4403438536
20
185.0242674757
11
253.3501307627
21
185.0242674757
0
LINE
5
22F
100
AcDbEntity
8
0
100
AcDbLine
62
2
6
CONTINUOUS
10
233.9812245243
20
270.0242674757
11
253.3501307627
21
270.0242674757
0
LINE
5
230
100
AcDbEntity
8
0
100
AcDbLine
62
2
6
CONTINUOUS
10
252.3501307627
20
185.0242674757
11
252.3501307627
21
227.5242674757
0
LINE
5
231
100
AcDbEntity
8
0
100
AcDbLine
62
2
6
CONTINUOUS
10
252.3501307627
20
270.0242674757
11
252.3501307627
21
227.5242674757
0
SOLID
5
232
100
AcDbEntity
8
0
100
AcDbTrace
62
2
6
CONTINUOUS
10
251.8501307627
20
188.5242674757
11
252.3501307627
21
185.0242674757
12
252.8501307627
22
188.5242674757
13
252.8501307627
23
188.5242674757
0
SOLID
5
233
100
AcDbEntity
8
0
100
AcDbTrace
62
2
6
CONTINUOUS
10
252.8501307627
20
266.5242674757
11
252.3501307627
21
270.0242674757
12
251.8501307627
22
266.5242674757
13
251.8501307627
23
266.5242674757
0
ENDBLK
5
234
100
AcDbEntity
8
0
100
AcDbBlockEnd
0
BLOCK
5
235
100
AcDbEntity
8
0
100
AcDbBlockBegin
62
2
6
CONTINUOUS
2
*D4
70
65
10
0.0000000000
20
0.0000000000
3
*D4
1

0
TEXT
5
236
100
AcDbEntity
8
0
100
AcDbText
62
5
6
CONTINUOUS
10
251.8151044629
20
121.4509543664
7
STANDARD
40
3.0000000000
1
135
50
90.0000000000
41
0.6272401434
72
0
100
AcDbText
0
LINE
5
237
100
AcDbEntity
8
0
100
AcDbLine
62
2
6
CONTINUOUS
10
238.4403438536
20
185.0242674757
11
253.5651044629
21
185.0242674757
0
LINE
5
238
100
AcDbEntity
8
0
100
AcDbLine
62
2
6
CONTINUOUS
10
233.9812245243
20
50.0242674757
11
253.5651044629
21
50.0242674757
0
LINE
5
239
100
AcDbEntity
8
0
100
AcDbLine
62
2
6
CONTINUOUS
10
252.5651044629
20
185.0242674757
11
252.5651044629
21
117.5242674757
0
LINE
5
23A
100
AcDbEntity
8
0
100
AcDbLine
62
2
6
CONTINUOUS
10
252.5651044629
20
50.0242674757
11
252.5651044629
21
117.5242674757
0
SOLID
5
23B
100
AcDbEntity
8
0
100
AcDbTrace
62
2
6
CONTINUOUS
10
253.0651044629
20
181.5242674757
11
252.5651044629
21
185.0242674757
12
252.0651044629
22
181.5242674757
13
252.0651044629
23
181.5242674757
0
SOLID
5
23C
100
AcDbEntity
8
0
100
AcDbTrace
62
2
6
CONTINUOUS
10
252.0651044629
20
53.5242674757
11
252.5651044629
21
50.0242674757
12
253.0651044629
22
53.5242674757
13
253.0651044629
23
53.5242674757
0
ENDBLK
5
23D
100
AcDbEntity
8
0
100
AcDbBlockEnd
0
BLOCK
5
23E
100
AcDbEntity
8
0
100
AcDbBlockBegin
62
2
6
CONTINUOUS
2
*D5
70
65
10
0.0000000000
20
0.0000000000
3
*D5
1

0
TEXT
5
23F
100
AcDbEntity
8
0
100
AcDbText
62
5
6
CONTINUOUS
10
159.9392149274
20
229.1090660029
7
STANDARD
40
3.0000000000
1
96
50
90.0000000000
41
0.6272401434
72
0
100
AcDbText
0
LINE
5
240
100
AcDbEntity
8
0
100
AcDbLine
62
2
6
CONTINUOUS
10
146.8868968920
20
185.0242674757
11
161.6892149274
21
185.0242674757
0
LINE
5
241
100
AcDbEntity
8
0
100
AcDbLine
62
2
6
CONTINUOUS
10
129.1368968920
20
281.0242674757
11
161.6892149274
21
281.0242674757
0
LINE
5
242
100
AcDbEntity
8
0
100
AcDbLine
62
2
6
CONTINUOUS
10
160.6892149274
20
185.0242674757
11
160.6892149274
21
233.0242674757
0
LINE
5
243
100
AcDbEntity
8
0
100
AcDbLine
62
2
6
CONTINUOUS
10
160.6892149274
20
281.0242674757
11
160.6892149274
21
233.0242674757
0
SOLID
5
244
100
AcDbEntity
8
0
100
AcDbTrace
62
2
6
CONTINUOUS
10
160.1892149274
20
188.5242674757
11
160.6892149274
21
185.0242674757
12
161.1892149274
22
188.5242674757
13
161.1892149274
23
188.5242674757
0
SOLID
5
245
100
AcDbEntity
8
0
100
AcDbTrace
62
2
6
CONTINUOUS
10
161.1892149274
20
277.5242674757
11
160.6892149274
21
281.0242674757
12
160.1892149274
22
277.5242674757
13
160.1892149274
23
277.5242674757
0
ENDBLK
5
246
100
AcDbEntity
8
0
100
AcDbBlockEnd
0
ENDSEC
0
SECTION
2
ENTITIES
0
DIMENSION
5
247
100
AcDbEntity
8
0
100
AcDbDimension
62
2
6
CONTINUOUS
2
*D0
10
113.1368968920
20
288.9912252485
11
130.0454877052
21
291.2412252485
70
160
3
DIMSTYLE_1
100
AcDbAlignedDimension
13
145.1368968920
23
265.0242674757
14
113.1368968920
24
265.0242674757
50
180.000000
100
AcDbRotatedDimension
0
DIMENSION
5
248
100
AcDbEntity
8
0
100
AcDbDimension
62
2
6
CONTINUOUS
2
*D1
10
94.1033884499
20
39.0242674757
11
91.8533884499
21
151.3592841975
70
160
3
DIMSTYLE_2
100
AcDbAlignedDimension
13
129.1368968920
23
281.0242674757
14
129.1368968920
24
39.0242674757
50
270.000000
100
AcDbRotatedDimension
0
DIMENSION
5
249
100
AcDbEntity
8
0
100
AcDbDimension
62
2
6
CONTINUOUS
2
*D2
10
192.4397069142
20
163.5242674757
11
190.1897069142
21
176.0301561629
70
160
3
DIMSTYLE_3
100
AcDbAlignedDimension
13
213.3080791933
23
185.0242674757
14
197.0041627053
24
163.5242674757
50
270.000000
100
AcDbRotatedDimension
0
DIMENSION
5
24A
100
AcDbEntity
8
0
100
AcDbDimension
62
2
6
CONTINUOUS
2
*D3
10
252.3501307627
20
270.0242674757
11
250.1001307627
21
226.8057772379
70
160
3
DIMSTYLE_1
100
AcDbAlignedDimension
13
238.4403438536
23
185.0242674757
14
233.9812245243
24
270.0242674757
50
90.000000
100
AcDbRotatedDimension
0
DIMENSION
5
24B
100
AcDbEntity
8
0
100
AcDbDimension
62
2
6
CONTINUOUS
2
*D4
10
252.5651044629
20
50.0242674757
11
250.3151044629
21
124.2735350116
70
160
3
DIMSTYLE_2
100
AcDbAlignedDimension
13
238.4403438536
23
185.0242674757
14
233.9812245243
24
50.0242674757
50
270.000000
100
AcDbRotatedDimension
0
DIMENSION
5
24C
100
AcDbEntity
8
0
100
AcDbDimension
62
2
6
CONTINUOUS
2
*D5
10
160.6892149274
20
281.0242674757
11
158.4392149274
21
230.9907864330
70
160
3
DIMSTYLE_1
100
AcDbAlignedDimension
13
146.8868968920
23
185.0242674757
14
129.1368968920
24
281.0242674757
50
90.000000
100
AcDbRotatedDimension
0
LINE
5
24D
100
AcDbEntity
8
0
100
AcDbLine
62
2
6
CONTINUOUS
10
294.4071857771
20
65.8335938483
11
400.0071857771
21
65.8335938483
0
LINE
5
24E
100
AcDbEntity
8
0
100
AcDbLine
62
2
6
CONTINUOUS
10
294.4071857771
20
65.8335938483
11
294.4071857771
21
14.8335938483
0
LINE
5
24F
100
AcDbEntity
8
0
100
AcDbLine
62
2
6
CONTINUOUS
10
294.4071857771
20
50.8335938483
11
400.0071857771
21
50.8335938483
0
LINE
5
250
100
AcDbEntity
8
0
100
AcDbLine
62
2
6
CONTINUOUS
10
294.4071857771
20
35.8335938483
11
400.0071857771
21
35.8335938483
0
LINE
5
251
100
AcDbEntity
8
0
100
AcDbLine
62
2
6
CONTINUOUS
10
294.4071857771
20
25.3335938483
11
400.0071857771
21
25.3335938483
0
LINE
5
252
100
AcDbEntity
8
0
100
AcDbLine
62
2
6
CONTINUOUS
10
294.4071857771
20
14.8335938483
11
400.0071857771
21
14.8335938483
0
LINE
5
253
100
AcDbEntity
8
0
100
AcDbLine
62
2
6
CONTINUOUS
10
347.2071857771
20
35.8335938483
11
347.2071857771
21
14.8335938483
0
LINE
5
254
100
AcDbEntity
8
0
100
AcDbLine
62
2
6
CONTINUOUS
10
400.0071857771
20
65.8335938483
11
400.0071857771
21
14.8335938483
0
TEXT
5
255
100
AcDbEntity
8
0
100
AcDbText
62
4
6
CONTINUOUS
10
327.2161463505
20
55.8335938483
7
STANDARD
40
5.0000000000
1
Objektprogramm
41
0.5711725550
72
1
11
347.2071857771
21
55.8335938483
100
AcDbText
0
TEXT
5
256
100
AcDbEntity
8
0
100
AcDbText
62
4
6
CONTINUOUS
10
315.7466123004
20
40.8335938483
7
STANDARD
40
5.0000000000
1
RR-Langschild,rund, blind
41
0.5033691756
72
1
11
347.2071857771
21
40.8335938483
100
AcDbText
0
TEXT
5
257
100
AcDbEntity
8
0
100
AcDbText
62
4
6
CONTINUOUS
10
332.8243900781
20
29.0835938483
7
STANDARD
40
3.0000000000
1
26.07.05
41
0.5492831541
72
2
11
346.0071857771
21
29.0835938483
100
AcDbText
0
TEXT
5
258
100
AcDbEntity
8
0
100
AcDbText
62
4
6
CONTINUOUS
10
371.1297664222
20
29.0835938483
7
STANDARD
40
3.0000000000
1
B 7500 0001/0041
41
0.5766129032
72
2
11
398.8071857771
21
29.0835938483
100
AcDbText
0
TEXT
5
259
100
AcDbEntity
8
0
100
AcDbText
62
4
6
CONTINUOUS
10
331.3727771749
20
18.5835938483
7
STANDARD
40
3.0000000000
1
Liesegang
41
0.5420151334
72
2
11
346.0071857771
21
18.5835938483
100
AcDbText
0
LINE
5
25A
100
AcDbEntity
8
0
100
AcDbLine
62
7
6
CONTINUOUS
10
0.0000000000
20
0.0000000000
11
0.0000000000
21
297.0000000000
0
LINE
5
25B
100
AcDbEntity
8
0
100
AcDbLine
62
7
6
CONTINUOUS
10
0.0000000000
20
0.0000000000
11
420.0000000000
21
0.0000000000
0
LINE
5
25C
100
AcDbEntity
8
0
100
AcDbLine
62
7
6
CONTINUOUS
10
0.0000000000
20
297.0000000000
11
420.0000000000
21
297.0000000000
0
LINE
5
25D
100
AcDbEntity
8
0
100
AcDbLine
62
7
6
CONTINUOUS
10
420.0000000000
20
0.0000000000
11
420.0000000000
21
297.0000000000
0
LINE
5
25E
100
AcDbEntity
8
DEFAULT_1
100
AcDbLine
62
2
6
CENTER
10
129.1368968920
20
50.0242674757
11
118.1368968920
21
50.0242674757
0
LINE
5
25F
100
AcDbEntity
8
DEFAULT_1
100
AcDbLine
62
2
6
CENTER
10
129.1368968920
20
50.0242674757
11
140.1368968920
21
50.0242674757
0
LINE
5
260
100
AcDbEntity
8
0
100
AcDbLine
62
9
6
CONTINUOUS
10
114.6368968920
20
55.0242674757
11
113.1368968920
21
55.0242674757
0
LINE
5
261
100
AcDbEntity
8
0
100
AcDbLine
62
9
6
CONTINUOUS
10
143.6368968920
20
55.0242674757
11
145.1368968920
21
55.0242674757
0
LINE
5
262
100
AcDbEntity
8
0
100
AcDbLine
62
7
6
CONTINUOUS
10
113.1368968920
20
265.0242674757
11
113.1368968920
21
55.0242674757
0
LINE
5
263
100
AcDbEntity
8
0
100
AcDbLine
62
9
6
CONTINUOUS
10
114.6368968920
20
265.0242674757
11
114.6368968920
21
55.0242674757
0
LINE
5
264
100
AcDbEntity
8
DEFAULT_1
100
AcDbLine
62
2
6
CENTER
10
129.1368968920
20
270.0242674757
11
129.1368968920
21
259.0242674757
0
LINE
5
265
100
AcDbEntity
8
DEFAULT_1
100
AcDbLine
62
2
6
CENTER
10
129.1368968920
20
163.5242674757
11
129.1368968920
21
152.5242674757
0
LINE
5
266
100
AcDbEntity
8
DEFAULT_1
100
AcDbLine
62
2
6
CENTER
10
129.1368968920
20
50.0242674757
11
129.1368968920
21
39.0242674757
0
LINE
5
267
100
AcDbEntity
8
DEFAULT_1
100
AcDbLine
62
2
6
CENTER
10
129.1368968920
20
50.0242674757
11
129.1368968920
21
61.0242674757
0
LINE
5
268
100
AcDbEntity
8
DEFAULT_1
100
AcDbLine
62
2
6
CENTER
10
129.1368968920
20
163.5242674757
11
129.1368968920
21
174.5242674757
0
LINE
5
269
100
AcDbEntity
8
DEFAULT_1
100
AcDbLine
62
2
6
CENTER
10
129.1368968920
20
270.0242674757
11
129.1368968920
21
281.0242674757
0
LINE
5
26A
100
AcDbEntity
8
DEFAULT_1
100
AcDbLine
62
2
6
CENTER
10
129.1368968920
20
37.5008848516
11
129.1368968920
21
39.0242674757
0
LINE
5
26B
100
AcDbEntity
8
DEFAULT_1
100
AcDbLine
62
2
6
CENTER
10
129.1368968920
20
281.0242674757
11
129.1368968920
21
282.5476500998
0
LINE
5
26C
100
AcDbEntity
8
DEFAULT_1
100
AcDbLine
62
2
6
CENTER
10
129.1368968920
20
174.5242674757
11
129.1368968920
21
259.0242674757
0
LINE
5
26D
100
AcDbEntity
8
DEFAULT_1
100
AcDbLine
62
2
6
CENTER
10
129.1368968920
20
61.0242674757
11
129.1368968920
21
152.5242674757
0
LINE
5
26E
100
AcDbEntity
8
DEFAULT_1
100
AcDbLine
62
2
6
CENTER
10
129.1368968920
20
163.5242674757
11
118.1368968920
21
163.5242674757
0
LINE
5
26F
100
AcDbEntity
8
DEFAULT_1
100
AcDbLine
62
2
6
CENTER
10
129.1368968920
20
163.5242674757
11
140.1368968920
21
163.5242674757
0
LINE
5
270
100
AcDbEntity
8
0
100
AcDbLine
62
9
6
CONTINUOUS
10
143.6368968920
20
55.0242674757
11
143.6368968920
21
265.0242674757
0
LINE
5
271
100
AcDbEntity
8
0
100
AcDbLine
62
7
6
CONTINUOUS
10
145.1368968920
20
55.0242674757
11
145.1368968920
21
265.0242674757
0
LINE
5
272
100
AcDbEntity
8
DEFAULT_1
100
AcDbLine
62
2
6
CENTER
10
111.3868968920
20
185.0242674757
11
146.8868968920
21
185.0242674757
0
LINE
5
273
100
AcDbEntity
8
0
100
AcDbLine
62
9
6
CONTINUOUS
10
114.6368968920
20
265.0242674757
11
113.1368968920
21
265.0242674757
0
LINE
5
274
100
AcDbEntity
8
0
100
AcDbLine
62
9
6
CONTINUOUS
10
143.6368968920
20
265.0242674757
11
145.1368968920
21
265.0242674757
0
LINE
5
275
100
AcDbEntity
8
DEFAULT_1
100
AcDbLine
62
2
6
CENTER
10
129.1368968920
20
270.0242674757
11
118.1368968920
21
270.0242674757
0
LINE
5
276
100
AcDbEntity
8
DEFAULT_1
100
AcDbLine
62
2
6
CENTER
10
129.1368968920
20
270.0242674757
11
140.1368968920
21
270.0242674757
0
LINE
5
277
100
AcDbEntity
8
0
100
AcDbLine
62
7
6
CONTINUOUS
10
228.7041627053
20
39.0242674757
11
232.7041627053
21
39.0242674757
0
LINE
5
278
100
AcDbEntity
8
0
100
AcDbLine
62
7
6
CONTINUOUS
10
226.2041627053
20
39.3080338302
11
228.7041627053
21
39.3080338302
0
LINE
5
279
100
AcDbEntity
8
0
100
AcDbLine
62
7
6
CONTINUOUS
10
222.7041627053
20
46.0242674757
11
226.2041627053
21
46.0242674757
0
LINE
5
27A
100
AcDbEntity
8
0
100
AcDbLine
62
7
6
CONTINUOUS
10
222.7041627053
20
47.0242674757
11
200.2041627053
21
47.0242674757
0
LINE
5
27B
100
AcDbEntity
8
DEFAULT_1
100
AcDbLine
62
2
6
CENTER
10
197.0041627053
20
50.0242674757
11
233.9812245243
21
50.0242674757
0
LINE
5
27C
100
AcDbEntity
8
0
100
AcDbLine
62
7
6
CONTINUOUS
10
222.7041627053
20
53.0242674757
11
200.2041627053
21
53.0242674757
0
LINE
5
27D
100
AcDbEntity
8
0
100
AcDbLine
62
7
6
CONTINUOUS
10
222.7041627053
20
54.0242674757
11
226.2041627053
21
54.0242674757
0
LINE
5
27E
100
AcDbEntity
8
0
100
AcDbLine
62
9
6
CONTINUOUS
10
226.2041627053
20
55.0242674757
11
234.2041627053
21
55.0242674757
0
LINE
5
27F
100
AcDbEntity
8
0
100
AcDbLine
62
7
6
CONTINUOUS
10
200.2041627053
20
273.0242674757
11
200.0041627053
21
272.8242674757
0
LINE
5
280
100
AcDbEntity
8
0
100
AcDbLine
62
7
6
CONTINUOUS
10
200.2041627053
20
47.0242674757
11
200.0041627053
21
47.2242674757
0
LINE
5
281
100
AcDbEntity
8
0
100
AcDbLine
62
7
6
CONTINUOUS
10
200.0041627053
20
47.2242674757
11
200.0041627053
21
52.8242674757
0
LINE
5
282
100
AcDbEntity
8
0
100
AcDbLine
62
7
6
CONTINUOUS
10
200.0041627053
20
160.7242674757
11
200.0041627053
21
166.3242674757
0
LINE
5
283
100
AcDbEntity
8
0
100
AcDbLine
62
7
6
CONTINUOUS
10
200.0041627053
20
267.2242674757
11
200.0041627053
21
272.8242674757
0
LINE
5
284
100
AcDbEntity
8
0
100
AcDbLine
62
7
6
CONTINUOUS
10
200.2041627053
20
47.0242674757
11
200.2041627053
21
53.0242674757
0
LINE
5
285
100
AcDbEntity
8
0
100
AcDbLine
62
7
6
CONTINUOUS
10
200.2041627053
20
160.5242674757
11
200.2041627053
21
166.5242674757
0
LINE
5
286
100
AcDbEntity
8
0
100
AcDbLine
62
7
6
CONTINUOUS
10
200.2041627053
20
267.0242674757
11
200.2041627053
21
273.0242674757
0
LINE
5
287
100
AcDbEntity
8
0
100
AcDbLine
62
7
6
CONTINUOUS
10
220.4041627053
20
191.0242674757
11
220.9041627053
21
191.5242674757
0
LINE
5
288
100
AcDbEntity
8
0
100
AcDbLine
62
7
6
CONTINUOUS
10
200.2041627053
20
166.5242674757
11
200.0041627053
21
166.3242674757
0
LINE
5
289
100
AcDbEntity
8
0
100
AcDbLine
62
7
6
CONTINUOUS
10
200.2041627053
20
160.5242674757
11
200.0041627053
21
160.7242674757
0
LINE
5
28A
100
AcDbEntity
8
0
100
AcDbLine
62
7
6
CONTINUOUS
10
226.2041627053
20
159.5242674757
11
222.7041627053
21
159.5242674757
0
LINE
5
28B
100
AcDbEntity
8
0
100
AcDbLine
62
7
6
CONTINUOUS
10
222.7041627053
20
160.5242674757
11
200.2041627053
21
160.5242674757
0
LINE
5
28C
100
AcDbEntity
8
0
100
AcDbLine
62
7
6
CONTINUOUS
10
220.4041627053
20
191.0242674757
11
220.4041627053
21
179.0242674757
0
LINE
5
28D
100
AcDbEntity
8
0
100
AcDbLine
62
7
6
CONTINUOUS
10
220.9041627053
20
191.5242674757
11
220.9041627053
21
178.5242674757
0
LINE
5
28E
100
AcDbEntity
8
0
100
AcDbLine
62
7
6
CONTINUOUS
10
222.7041627053
20
274.0242674757
11
222.7041627053
21
266.0242674757
0
LINE
5
28F
100
AcDbEntity
8
0
100
AcDbLine
62
7
6
CONTINUOUS
10
222.7041627053
20
54.0242674757
11
222.7041627053
21
46.0242674757
0
LINE
5
290
100
AcDbEntity
8
0
100
AcDbLine
62
7
6
CONTINUOUS
10
222.7041627053
20
159.5242674757
11
222.7041627053
21
167.5242674757
0
LINE
5
291
100
AcDbEntity
8
0
100
AcDbLine
62
7
6
CONTINUOUS
10
226.2041627053
20
39.3080338302
11
226.2041627053
21
281.0235499821
0
LINE
5
292
100
AcDbEntity
8
DEFAULT_1
100
AcDbLine
62
2
6
CENTER
10
197.0041627053
20
163.5242674757
11
233.9812245243
21
163.5242674757
0
LINE
5
293
100
AcDbEntity
8
0
100
AcDbLine
62
7
6
CONTINUOUS
10
222.7041627053
20
166.5242674757
11
200.2041627053
21
166.5242674757
0
LINE
5
294
100
AcDbEntity
8
0
100
AcDbLine
62
7
6
CONTINUOUS
10
226.2041627053
20
167.5242674757
11
222.7041627053
21
167.5242674757
0
LINE
5
295
100
AcDbEntity
8
0
100
AcDbLine
62
7
6
CONTINUOUS
10
228.7041627053
20
39.0243640074
11
228.7041627053
21
39.3080338302
0
LINE
5
296
100
AcDbEntity
8
0
100
AcDbLine
62
9
6
CONTINUOUS
10
232.7041627053
20
281.0242674703
11
232.7041627053
21
39.0242674810
0
LINE
5
297
100
AcDbEntity
8
0
100
AcDbLine
62
7
6
CONTINUOUS
10
234.2041627053
20
279.5242674757
11
234.2041627053
21
40.5242674757
0
LINE
5
298
100
AcDbEntity
8
0
100
AcDbLine
62
7
6
CONTINUOUS
10
220.4041627053
20
179.0242674757
11
220.9041627053
21
178.5242674757
0
LINE
5
299
100
AcDbEntity
8
0
100
AcDbLine
62
7
6
CONTINUOUS
10
220.9041627053
20
178.5242674757
11
226.2041627053
21
178.5242674757
0
LINE
5
29A
100
AcDbEntity
8
DEFAULT_1
100
AcDbLine
62
2
6
CENTER
10
226.2041627053
20
185.0242674757
11
213.3080791933
21
185.0242674757
0
LINE
5
29B
100
AcDbEntity
8
DEFAULT_1
100
AcDbLine
62
2
6
CENTER
10
226.2041627053
20
185.0242674757
11
238.4403438536
21
185.0242674757
0
LINE
5
29C
100
AcDbEntity
8
0
100
AcDbLine
62
7
6
CONTINUOUS
10
220.9041627053
20
191.5242674757
11
226.2041627053
21
191.5242674757
0
LINE
5
29D
100
AcDbEntity
8
0
100
AcDbLine
62
7
6
CONTINUOUS
10
200.2041627053
20
53.0242674757
11
200.0041627053
21
52.8242674757
0
LINE
5
29E
100
AcDbEntity
8
0
100
AcDbLine
62
7
6
CONTINUOUS
10
200.2041627053
20
267.0242674757
11
200.0041627053
21
267.2242674757
0
LINE
5
29F
100
AcDbEntity
8
0
100
AcDbLine
62
9
6
CONTINUOUS
10
226.2041627053
20
265.0242674757
11
234.2041627053
21
265.0242674757
0
LINE
5
2A0
100
AcDbEntity
8
0
100
AcDbLine
62
7
6
CONTINUOUS
10
222.7041627053
20
266.0242674757
11
226.2041627053
21
266.0242674757
0
LINE
5
2A1
100
AcDbEntity
8
0
100
AcDbLine
62
7
6
CONTINUOUS
10
222.7041627053
20
267.0242674757
11
200.2041627053
21
267.0242674757
0
LINE
5
2A2
100
AcDbEntity
8
DEFAULT_1
100
AcDbLine
62
2
6
CENTER
10
197.0041627053
20
270.0242674757
11
233.9812245243
21
270.0242674757
0
LINE
5
2A3
100
AcDbEntity
8
0
100
AcDbLine
62
7
6
CONTINUOUS
10
222.7041627053
20
273.0242674757
11
200.2041627053
21
273.0242674757
0
LINE
5
2A4
100
AcDbEntity
8
0
100
AcDbLine
62
7
6
CONTINUOUS
10
222.7041627053
20
274.0242674757
11
226.2041627053
21
274.0242674757
0
LINE
5
2A5
100
AcDbEntity
8
0
100
AcDbLine
62
7
6
CONTINUOUS
10
226.2041627053
20
281.0242674757
11
232.7041627053
21
281.0242674757
0
LINE
5
2A6
100
AcDbEntity
8
0
100
AcDbLine
62
7
6
CONTINUOUS
10
365.1500830315
20
87.3890434249
11
366.7320821379
21
87.7899093212
0
LINE
5
2A7
100
AcDbEntity
8
0
100
AcDbLine
62
7
6
CONTINUOUS
10
363.2765091125
20
87.0637441036
11
364.2652585540
21
87.3142852888
0
LINE
5
2A8
100
AcDbEntity
8
0
100
AcDbLine
62
7
6
CONTINUOUS
10
357.9989137670
20
92.7982298290
11
352.1561591677
21
91.3177226340
0
LINE
5
2A9
100
AcDbEntity
8
0
100
AcDbLine
62
7
6
CONTINUOUS
10
359.3023279132
20
90.0336915313
11
352.8913801502
21
88.4092117795
0
LINE
5
2AA
100
AcDbEntity
8
0
100
AcDbLine
62
9
6
CONTINUOUS
10
357.7096595924
20
93.7728868477
11
360.2804081403
21
94.4242939292
0
LINE
5
2AB
100
AcDbEntity
8
0
100
AcDbLine
62
7
6
CONTINUOUS
10
344.8151971756
20
144.9061996407
11
339.0149679247
21
143.4364710659
0
LINE
5
2AC
100
AcDbEntity
8
0
100
AcDbLine
62
7
6
CONTINUOUS
10
357.7096595924
20
93.7728868477
11
332.0352404968
21
195.5854370693
0
LINE
5
2AD
100
AcDbEntity
8
0
100
AcDbLine
62
9
6
CONTINUOUS
10
334.6059890447
20
196.2368441508
11
360.2804081403
21
94.4242939292
0
LINE
5
2AE
100
AcDbEntity
8
0
100
AcDbLine
62
7
6
CONTINUOUS
10
344.0816409043
20
147.8151353574
11
338.2797469422
21
146.3449819205
0
LINE
5
2AF
100
AcDbEntity
8
0
100
AcDbLine
62
9
6
CONTINUOUS
10
335.6198613635
20
196.4922182307
11
361.2942804590
21
94.6796680090
0
LINE
5
2B0
100
AcDbEntity
8
0
100
AcDbLine
62
9
6
CONTINUOUS
10
369.4263184335
20
96.7106224709
11
343.7518993379
21
198.5231726925
0
LINE
5
2B1
100
AcDbEntity
8
0
100
AcDbLine
62
7
6
CONTINUOUS
10
369.5603022207
20
96.7436867073
11
343.8858831252
21
198.5562369289
0
LINE
5
2B2
100
AcDbEntity
8
0
100
AcDbLine
62
9
6
CONTINUOUS
10
332.0352404968
20
195.5854370693
11
334.6059890447
21
196.2368441508
0
LINE
5
2B3
100
AcDbEntity
8
0
100
AcDbLine
62
7
6
CONTINUOUS
10
331.8323510066
20
196.5492733293
11
325.9943696691
21
195.0699786783
0
LINE
5
2B4
100
AcDbEntity
8
0
100
AcDbLine
62
7
6
CONTINUOUS
10
331.6579099584
20
199.5998843631
11
325.2591486866
21
197.9784895329
0
LINE
5
2B5
100
AcDbEntity
8
0
100
AcDbLine
62
7
6
CONTINUOUS
10
334.5568497813
20
204.4608748766
11
337.1275983293
21
205.1122819581
0
ARC
5
2B6
100
AcDbEntity
8
0
100
AcDbCircle
62
7
6
CONTINUOUS
10
129.1368968920
20
55.0242674757
40
16.0000000000
100
AcDbArc
50
180.0000000000
51
360.0000000000
0
ARC
5
2B7
100
AcDbEntity
8
0
100
AcDbCircle
62
7
6
CONTINUOUS
10
129.1368968920
20
265.0242674757
40
16.0000000000
100
AcDbArc
50
0.0000000000
51
180.0000000000
0
ARC
5
2B8
100
AcDbEntity
8
0
100
AcDbCircle
62
9
6
CONTINUOUS
10
129.1368968920
20
55.0242674757
40
14.4999953018
100
AcDbArc
50
180.0000000000
51
360.0000000000
0
ARC
5
2B9
100
AcDbEntity
8
0
100
AcDbCircle
62
9
6
CONTINUOUS
10
129.1368968920
20
265.0242674757
40
14.4999953018
100
AcDbArc
50
0.0000000000
51
180.0000000000
0
ARC
5
2BA
100
AcDbEntity
8
0
100
AcDbCircle
62
7
6
CONTINUOUS
10
232.7041627053
20
40.5242674757
40
1.5000000000
100
AcDbArc
50
270.0000000000
51
360.0000000000
0
ARC
5
2BB
100
AcDbEntity
8
0
100
AcDbCircle
62
7
6
CONTINUOUS
10
232.7041627053
20
279.5242674757
40
1.5000000000
100
AcDbArc
50
0.0000000000
51
90.0000000000
0
SPLINE
5
2BC
100
AcDbEntity
8
0
100
AcDbSpline
62
7
6
CONTINUOUS
70
0
71
3
72
11
73
7
74
5
42
0.0000001000
43
0.0000001000
44
0.0000000001
40
0.0000000000
40
0.0000000000
40
0.0000000000
40
0.0000000000
40
0.2326592438
40
0.4839155393
40
0.7658473456
40
1.0000000000
40
1.0000000000
40
1.0000000000
40
1.0000000000
10
325.9943696691
20
195.0699786783
30
0.0000000000
10
325.9350884106
20
195.0551733445
30
0.0000000000
10
325.8049994247
20
195.0477194875
30
0.0000000000
10
325.6090554287
20
195.1048970894
30
0.0000000000
10
325.4360020084
20
195.2118431172
30
0.0000000000
10
325.3351042173
20
195.3030772728
30
0.0000000000
10
325.2922096264
20
195.3472765547
30
0.0000000000
11
325.9943696691
21
195.0699786783
31
0.0000000000
11
325.8114499683
21
195.0580802445
31
0.0000000000
11
325.6204948030
21
195.1102689294
31
0.0000000000
11
325.4298498304
21
195.2242638368
31
0.0000000000
11
325.2922096264
21
195.3472765547
31
0.0000000000
0
SPLINE
5
2BD
100
AcDbEntity
8
0
100
AcDbSpline
62
7
6
CONTINUOUS
70
0
71
3
72
16
73
12
74
10
42
0.0000001000
43
0.0000001000
44
0.0000000001
40
0.0000000000
40
0.0000000000
40
0.0000000000
40
0.0000000000
40
0.0295353877
40
0.1547962356
40
0.2894212079
40
0.4300283425
40
0.5726643741
40
0.7131938406
40
0.8476705597
40
0.9727274398
40
1.0000000000
40
1.0000000000
40
1.0000000000
40
1.0000000000
10
325.2353438253
20
195.4058395659
30
0.0000000000
10
325.2212544655
20
195.4203614108
30
0.0000000000
10
325.1491589086
20
195.4981704111
30
0.0000000000
10
325.0308473623
20
195.6578587518
30
0.0000000000
10
324.9003607497
20
195.8996416397
30
0.0000000000
10
324.7974218416
20
196.1670473833
30
0.0000000000
10
324.7263736949
20
196.4487709677
30
0.0000000000
10
324.6902300001
20
196.7328625251
30
0.0000000000
10
324.6905268138
20
197.0073175724
30
0.0000000000
10
324.7188329923
20
197.2022230985
30
0.0000000000
10
324.7449337247
20
197.3032881116
30
0.0000000000
10
324.7499880868
20
197.3212750856
30
0.0000000000
11
325.2353438253
21
195.4058395659
31
0.0000000000
11
325.1940635355
21
195.4503302702
31
0.0000000000
11
325.0396846053
21
195.6558292642
31
0.0000000000
11
324.9075430128
21
195.8984148881
31
0.0000000000
11
324.8034139798
21
196.1674849862
31
0.0000000000
11
324.7318484445
21
196.4512799039
31
0.0000000000
11
324.6959741643
21
196.7373964417
31
0.0000000000
11
324.6973590174
21
197.0133299338
31
0.0000000000
11
324.7359424790
21
197.2670207626
31
0.0000000000
11
324.7499880868
21
197.3212750856
31
0.0000000000
0
SPLINE
5
2BE
100
AcDbEntity
8
0
100
AcDbSpline
62
7
6
CONTINUOUS
70
0
71
3
72
11
73
7
74
5
42
0.0000001000
43
0.0000001000
44
0.0000000001
40
0.0000000000
40
0.0000000000
40
0.0000000000
40
0.0000000000
40
0.2392919202
40
0.5199759442
40
0.7702034336
40
1.0000000000
40
1.0000000000
40
1.0000000000
40
1.0000000000
10
324.7721044437
20
197.3998530598
30
0.0000000000
10
324.7891774202
20
197.4605788095
30
0.0000000000
10
324.8350952798
20
197.5900500892
30
0.0000000000
10
324.9377412537
20
197.7670969209
30
0.0000000000
10
325.0829972588
20
197.9092077941
30
0.0000000000
10
325.2005153148
20
197.9636226757
30
0.0000000000
10
325.2591487190
20
197.9784894051
30
0.0000000000
11
324.7721044437
21
197.3998530598
31
0.0000000000
11
324.8363915056
21
197.5776376474
31
0.0000000000
11
324.9503591190
21
197.7677087232
31
0.0000000000
11
325.0939250700
21
197.9034431509
31
0.0000000000
11
325.2591487190
21
197.9784894051
31
0.0000000000
0
SPLINE
5
2BF
100
AcDbEntity
8
0
100
AcDbSpline
62
7
6
CONTINUOUS
70
0
71
3
72
8
73
4
74
2
42
0.0000001000
43
0.0000001000
44
0.0000000001
40
0.0000000000
40
0.0000000000
40
0.0000000000
40
0.0000000000
40
1.0000000000
40
1.0000000000
40
1.0000000000
40
1.0000000000
10
325.2922096264
20
195.3472765547
30
0.0000000000
10
325.2770672418
20
195.3628795133
30
0.0000000000
10
325.2622842255
20
195.3788320821
30
0.0000000000
10
325.2478471506
20
195.3950828424
30
0.0000000000
11
325.2922096264
21
195.3472765547
31
0.0000000000
11
325.2478471506
21
195.3950828424
31
0.0000000000
0
SPLINE
5
2C0
100
AcDbEntity
8
0
100
AcDbSpline
62
7
6
CONTINUOUS
70
0
71
3
72
8
73
4
74
2
42
0.0000001000
43
0.0000001000
44
0.0000000001
40
0.0000000000
40
0.0000000000
40
0.0000000000
40
0.0000000000
40
1.0000000000
40
1.0000000000
40
1.0000000000
40
1.0000000000
10
325.2478471506
20
195.3950828424
30
0.0000000000
10
325.2442527726
20
195.3991287711
30
0.0000000000
10
325.2406798380
20
195.4031931832
30
0.0000000000
10
325.2371281795
20
195.4072756767
30
0.0000000000
11
325.2478471506
21
195.3950828424
31
0.0000000000
11
325.2371281795
21
195.4072756767
31
0.0000000000
0
SPLINE
5
2C1
100
AcDbEntity
8
0
100
AcDbSpline
62
7
6
CONTINUOUS
70
0
71
3
72
14
73
10
74
8
42
0.0000001000
43
0.0000001000
44
0.0000000001
40
0.0000000000
40
0.0000000000
40
0.0000000000
40
0.0000000000
40
0.1272821591
40
0.2726377567
40
0.4244523401
40
0.5784575389
40
0.7301882634
40
0.8753837909
40
1.0000000000
40
1.0000000000
40
1.0000000000
40
1.0000000000
10
325.2371281795
20
195.4072756767
30
0.0000000000
10
325.1803572216
20
195.4725316881
30
0.0000000000
10
325.0703981332
20
195.6222052472
30
0.0000000000
10
324.9331655944
20
195.8764878811
30
0.0000000000
10
324.8228739072
20
196.1629940350
30
0.0000000000
10
324.7467508928
20
196.4648407326
30
0.0000000000
10
324.7080255055
20
196.7692245441
30
0.0000000000
10
324.7083358571
20
197.0561976377
30
0.0000000000
10
324.7337864400
20
197.2382125025
30
0.0000000000
10
324.7522385511
20
197.3208581903
30
0.0000000000
11
325.2371281795
21
195.4072756767
31
0.0000000000
11
325.0824411540
21
195.6152603360
31
0.0000000000
11
324.9408608764
21
195.8751735045
31
0.0000000000
11
324.8292940552
21
196.1634628953
31
0.0000000000
11
324.7526166960
21
196.4675288786
31
0.0000000000
11
324.7141799672
21
196.7740823119
31
0.0000000000
11
324.7156637383
21
197.0697253391
31
0.0000000000
11
324.7522385511
21
197.3208581903
31
0.0000000000
0
SPLINE
5
2C2
100
AcDbEntity
8
0
100
AcDbSpline
62
7
6
CONTINUOUS
70
0
71
3
72
9
73
5
74
3
42
0.0000001000
43
0.0000001000
44
0.0000000001
40
0.0000000000
40
0.0000000000
40
0.0000000000
40
0.0000000000
40
0.2605417342
40
1.0000000000
40
1.0000000000
40
1.0000000000
40
1.0000000000
10
324.7522385511
20
197.3208581903
30
0.0000000000
10
324.7537797753
20
197.3277612233
30
0.0000000000
10
324.7598745719
20
197.3542181132
30
0.0000000000
10
324.7666689429
20
197.3805198835
30
0.0000000000
10
324.7721044437
20
197.3998530598
30
0.0000000000
11
324.7522385511
21
197.3208581903
31
0.0000000000
11
324.7570031615
21
197.3415369414
31
0.0000000000
11
324.7721044437
21
197.3998530598
31
0.0000000000
0
SPLINE
5
2C3
100
AcDbEntity
8
0
100
AcDbSpline
62
7
6
CONTINUOUS
70
0
71
3
72
11
73
7
74
5
42
0.0000001000
43
0.0000001000
44
0.0000000001
40
0.0000000000
40
0.0000000000
40
0.0000000000
40
0.0000000000
40
0.2326592438
40
0.4839155393
40
0.7658473456
40
1.0000000000
40
1.0000000000
40
1.0000000000
40
1.0000000000
10
339.0149679247
20
143.4364710659
30
0.0000000000
10
338.9556866662
20
143.4216657321
30
0.0000000000
10
338.8255976803
20
143.4142118751
30
0.0000000000
10
338.6296536843
20
143.4713894770
30
0.0000000000
10
338.4566002640
20
143.5783355048
30
0.0000000000
10
338.3557024729
20
143.6695696604
30
0.0000000000
10
338.3128078820
20
143.7137689423
30
0.0000000000
11
339.0149679247
21
143.4364710659
31
0.0000000000
11
338.8320482239
21
143.4245726321
31
0.0000000000
11
338.6410930586
21
143.4767613170
31
0.0000000000
11
338.4504480860
21
143.5907562244
31
0.0000000000
11
338.3128078820
21
143.7137689423
31
0.0000000000
0
SPLINE
5
2C4
100
AcDbEntity
8
0
100
AcDbSpline
62
7
6
CONTINUOUS
70
0
71
3
72
16
73
12
74
10
42
0.0000001000
43
0.0000001000
44
0.0000000001
40
0.0000000000
40
0.0000000000
40
0.0000000000
40
0.0000000000
40
0.0295353877
40
0.1547962356
40
0.2894212079
40
0.4300283425
40
0.5726643741
40
0.7131938406
40
0.8476705597
40
0.9727274398
40
1.0000000000
40
1.0000000000
40
1.0000000000
40
1.0000000000
10
338.2559420809
20
143.7723319535
30
0.0000000000
10
338.2418527211
20
143.7868537984
30
0.0000000000
10
338.1697571642
20
143.8646627987
30
0.0000000000
10
338.0514456179
20
144.0243511394
30
0.0000000000
10
337.9209590053
20
144.2661340273
30
0.0000000000
10
337.8180200972
20
144.5335397709
30
0.0000000000
10
337.7469719505
20
144.8152633553
30
0.0000000000
10
337.7108282557
20
145.0993549127
30
0.0000000000
10
337.7111250694
20
145.3738099600
30
0.0000000000
10
337.7394312479
20
145.5687154861
30
0.0000000000
10
337.7655319803
20
145.6697804992
30
0.0000000000
10
337.7705863424
20
145.6877674732
30
0.0000000000
11
338.2559420809
21
143.7723319535
31
0.0000000000
11
338.2146617911
21
143.8168226578
31
0.0000000000
11
338.0602828609
21
144.0223216518
31
0.0000000000
11
337.9281412684
21
144.2649072757
31
0.0000000000
11
337.8240122354
21
144.5339773738
31
0.0000000000
11
337.7524467001
21
144.8177722915
31
0.0000000000
11
337.7165724199
21
145.1038888293
31
0.0000000000
11
337.7179572730
21
145.3798223214
31
0.0000000000
11
337.7565407346
21
145.6335131502
31
0.0000000000
11
337.7705863424
21
145.6877674732
31
0.0000000000
0
SPLINE
5
2C5
100
AcDbEntity
8
0
100
AcDbSpline
62
7
6
CONTINUOUS
70
0
71
3
72
11
73
7
74
5
42
0.0000001000
43
0.0000001000
44
0.0000000001
40
0.0000000000
40
0.0000000000
40
0.0000000000
40
0.0000000000
40
0.2392919202
40
0.5199759442
40
0.7702034336
40
1.0000000000
40
1.0000000000
40
1.0000000000
40
1.0000000000
10
337.7927026994
20
145.7663454474
30
0.0000000000
10
337.8097756758
20
145.8270711971
30
0.0000000000
10
337.8556935354
20
145.9565424768
30
0.0000000000
10
337.9583395093
20
146.1335893085
30
0.0000000000
10
338.1035955144
20
146.2757001817
30
0.0000000000
10
338.2211135704
20
146.3301150633
30
0.0000000000
10
338.2797469746
20
146.3449817927
30
0.0000000000
11
337.7927026994
21
145.7663454474
31
0.0000000000
11
337.8569897612
21
145.9441300350
31
0.0000000000
11
337.9709573746
21
146.1342011108
31
0.0000000000
11
338.1145233256
21
146.2699355385
31
0.0000000000
11
338.2797469746
21
146.3449817927
31
0.0000000000
0
SPLINE
5
2C6
100
AcDbEntity
8
0
100
AcDbSpline
62
7
6
CONTINUOUS
70
0
71
3
72
8
73
4
74
2
42
0.0000001000
43
0.0000001000
44
0.0000000001
40
0.0000000000
40
0.0000000000
40
0.0000000000
40
0.0000000000
40
1.0000000000
40
1.0000000000
40
1.0000000000
40
1.0000000000
10
338.3128078820
20
143.7137689423
30
0.0000000000
10
338.2976654974
20
143.7293719009
30
0.0000000000
10
338.2828824811
20
143.7453244697
30
0.0000000000
10
338.2684454062
20
143.7615752300
30
0.0000000000
11
338.3128078820
21
143.7137689423
31
0.0000000000
11
338.2684454062
21
143.7615752300
31
0.0000000000
0
SPLINE
5
2C7
100
AcDbEntity
8
0
100
AcDbSpline
62
7
6
CONTINUOUS
70
0
71
3
72
8
73
4
74
2
42
0.0000001000
43
0.0000001000
44
0.0000000001
40
0.0000000000
40
0.0000000000
40
0.0000000000
40
0.0000000000
40
1.0000000000
40
1.0000000000
40
1.0000000000
40
1.0000000000
10
338.2684454062
20
143.7615752300
30
0.0000000000
10
338.2648510282
20
143.7656211587
30
0.0000000000
10
338.2612780936
20
143.7696855708
30
0.0000000000
10
338.2577264351
20
143.7737680643
30
0.0000000000
11
338.2684454062
21
143.7615752300
31
0.0000000000
11
338.2577264351
21
143.7737680643
31
0.0000000000
0
SPLINE
5
2C8
100
AcDbEntity
8
0
100
AcDbSpline
62
7
6
CONTINUOUS
70
0
71
3
72
14
73
10
74
8
42
0.0000001000
43
0.0000001000
44
0.0000000001
40
0.0000000000
40
0.0000000000
40
0.0000000000
40
0.0000000000
40
0.1272821591
40
0.2726377567
40
0.4244523401
40
0.5784575389
40
0.7301882634
40
0.8753837909
40
1.0000000000
40
1.0000000000
40
1.0000000000
40
1.0000000000
10
338.2577264351
20
143.7737680643
30
0.0000000000
10
338.2009554772
20
143.8390240757
30
0.0000000000
10
338.0909963888
20
143.9886976348
30
0.0000000000
10
337.9537638500
20
144.2429802687
30
0.0000000000
10
337.8434721628
20
144.5294864226
30
0.0000000000
10
337.7673491484
20
144.8313331202
30
0.0000000000
10
337.7286237611
20
145.1357169317
30
0.0000000000
10
337.7289341127
20
145.4226900253
30
0.0000000000
10
337.7543846956
20
145.6047048901
30
0.0000000000
10
337.7728368067
20
145.6873505779
30
0.0000000000
11
338.2577264351
21
143.7737680643
31
0.0000000000
11
338.1030394096
21
143.9817527236
31
0.0000000000
11
337.9614591320
21
144.2416658921
31
0.0000000000
11
337.8498923108
21
144.5299552828
31
0.0000000000
11
337.7732149516
21
144.8340212662
31
0.0000000000
11
337.7347782228
21
145.1405746995
31
0.0000000000
11
337.7362619939
21
145.4362177267
31
0.0000000000
11
337.7728368067
21
145.6873505779
31
0.0000000000
0
SPLINE
5
2C9
100
AcDbEntity
8
0
100
AcDbSpline
62
7
6
CONTINUOUS
70
0
71
3
72
9
73
5
74
3
42
0.0000001000
43
0.0000001000
44
0.0000000001
40
0.0000000000
40
0.0000000000
40
0.0000000000
40
0.0000000000
40
0.2605417342
40
1.0000000000
40
1.0000000000
40
1.0000000000
40
1.0000000000
10
337.7728368067
20
145.6873505779
30
0.0000000000
10
337.7743780309
20
145.6942536109
30
0.0000000000
10
337.7804728275
20
145.7207105008
30
0.0000000000
10
337.7872671985
20
145.7470122711
30
0.0000000000
10
337.7927026994
20
145.7663454474
30
0.0000000000
11
337.7728368067
21
145.6873505779
31
0.0000000000
11
337.7776014171
21
145.7080293290
31
0.0000000000
11
337.7927026994
21
145.7663454474
31
0.0000000000
0
SPLINE
5
2CA
100
AcDbEntity
8
0
100
AcDbSpline
62
7
6
CONTINUOUS
70
0
71
3
72
11
73
7
74
5
42
0.0000001000
43
0.0000001000
44
0.0000000001
40
0.0000000000
40
0.0000000000
40
0.0000000000
40
0.0000000000
40
0.2326592438
40
0.4839155393
40
0.7658473456
40
1.0000000000
40
1.0000000000
40
1.0000000000
40
1.0000000000
10
352.8913801502
20
88.4092117795
30
0.0000000000
10
352.8320988916
20
88.3944064457
30
0.0000000000
10
352.7020099057
20
88.3869525887
30
0.0000000000
10
352.5060659098
20
88.4441301905
30
0.0000000000
10
352.3330124894
20
88.5510762184
30
0.0000000000
10
352.2321146984
20
88.6423103740
30
0.0000000000
10
352.1892201075
20
88.6865096559
30
0.0000000000
11
352.8913801502
21
88.4092117795
31
0.0000000000
11
352.7084604493
21
88.3973133457
31
0.0000000000
11
352.5175052841
21
88.4495020305
31
0.0000000000
11
352.3268603115
21
88.5634969379
31
0.0000000000
11
352.1892201075
21
88.6865096559
31
0.0000000000
0
SPLINE
5
2CB
100
AcDbEntity
8
0
100
AcDbSpline
62
7
6
CONTINUOUS
70
0
71
3
72
16
73
12
74
10
42
0.0000001000
43
0.0000001000
44
0.0000000001
40
0.0000000000
40
0.0000000000
40
0.0000000000
40
0.0000000000
40
0.0295353877
40
0.1547962356
40
0.2894212079
40
0.4300283425
40
0.5726643741
40
0.7131938406
40
0.8476705597
40
0.9727274398
40
1.0000000000
40
1.0000000000
40
1.0000000000
40
1.0000000000
10
352.1323543063
20
88.7450726671
30
0.0000000000
10
352.1182649465
20
88.7595945120
30
0.0000000000
10
352.0461693896
20
88.8374035123
30
0.0000000000
10
351.9278578433
20
88.9970918529
30
0.0000000000
10
351.7973712307
20
89.2388747408
30
0.0000000000
10
351.6944323227
20
89.5062804845
30
0.0000000000
10
351.6233841759
20
89.7880040689
30
0.0000000000
10
351.5872404811
20
90.0720956263
30
0.0000000000
10
351.5875372948
20
90.3465506736
30
0.0000000000
10
351.6158434733
20
90.5414561997
30
0.0000000000
10
351.6419442057
20
90.6425212128
30
0.0000000000
10
351.6469985678
20
90.6605081867
30
0.0000000000
11
352.1323543063
21
88.7450726671
31
0.0000000000
11
352.0910740165
21
88.7895633713
31
0.0000000000
11
351.9366950864
21
88.9950623653
31
0.0000000000
11
351.8045534939
21
89.2376479893
31
0.0000000000
11
351.7004244608
21
89.5067180873
31
0.0000000000
11
351.6288589255
21
89.7905130051
31
0.0000000000
11
351.5929846453
21
90.0766295428
31
0.0000000000
11
351.5943694984
21
90.3525630350
31
0.0000000000
11
351.6329529601
21
90.6062538637
31
0.0000000000
11
351.6469985678
21
90.6605081867
31
0.0000000000
0
SPLINE
5
2CC
100
AcDbEntity
8
0
100
AcDbSpline
62
7
6
CONTINUOUS
70
0
71
3
72
11
73
7
74
5
42
0.0000001000
43
0.0000001000
44
0.0000000001
40
0.0000000000
40
0.0000000000
40
0.0000000000
40
0.0000000000
40
0.2392919202
40
0.5199759442
40
0.7702034336
40
1.0000000000
40
1.0000000000
40
1.0000000000
40
1.0000000000
10
351.6691149248
20
90.7390861609
30
0.0000000000
10
351.6861879012
20
90.7998119107
30
0.0000000000
10
351.7321057608
20
90.9292831903
30
0.0000000000
10
351.8347517347
20
91.1063300220
30
0.0000000000
10
351.9800077399
20
91.2484408953
30
0.0000000000
10
352.0975257959
20
91.3028557768
30
0.0000000000
10
352.1561592001
20
91.3177225062
30
0.0000000000
11
351.6691149248
21
90.7390861609
31
0.0000000000
11
351.7334019867
21
90.9168707485
31
0.0000000000
11
351.8473696000
21
91.1069418244
31
0.0000000000
11
351.9909355511
21
91.2426762521
31
0.0000000000
11
352.1561592001
21
91.3177225062
31
0.0000000000
0
SPLINE
5
2CD
100
AcDbEntity
8
0
100
AcDbSpline
62
7
6
CONTINUOUS
70
0
71
3
72
8
73
4
74
2
42
0.0000001000
43
0.0000001000
44
0.0000000001
40
0.0000000000
40
0.0000000000
40
0.0000000000
40
0.0000000000
40
1.0000000000
40
1.0000000000
40
1.0000000000
40
1.0000000000
10
352.1892201075
20
88.6865096559
30
0.0000000000
10
352.1740777229
20
88.7021126144
30
0.0000000000
10
352.1592947066
20
88.7180651832
30
0.0000000000
10
352.1448576317
20
88.7343159436
30
0.0000000000
11
352.1892201075
21
88.6865096559
31
0.0000000000
11
352.1448576317
21
88.7343159436
31
0.0000000000
0
SPLINE
5
2CE
100
AcDbEntity
8
0
100
AcDbSpline
62
7
6
CONTINUOUS
70
0
71
3
72
8
73
4
74
2
42
0.0000001000
43
0.0000001000
44
0.0000000001
40
0.0000000000
40
0.0000000000
40
0.0000000000
40
0.0000000000
40
1.0000000000
40
1.0000000000
40
1.0000000000
40
1.0000000000
10
352.1448576317
20
88.7343159436
30
0.0000000000
10
352.1412632537
20
88.7383618722
30
0.0000000000
10
352.1376903190
20
88.7424262844
30
0.0000000000
10
352.1341386606
20
88.7465087778
30
0.0000000000
11
352.1448576317
21
88.7343159436
31
0.0000000000
11
352.1341386606
21
88.7465087778
31
0.0000000000
0
SPLINE
5
2CF
100
AcDbEntity
8
0
100
AcDbSpline
62
7
6
CONTINUOUS
70
0
71
3
72
14
73
10
74
8
42
0.0000001000
43
0.0000001000
44
0.0000000001
40
0.0000000000
40
0.0000000000
40
0.0000000000
40
0.0000000000
40
0.1272821591
40
0.2726377567
40
0.4244523401
40
0.5784575389
40
0.7301882634
40
0.8753837909
40
1.0000000000
40
1.0000000000
40
1.0000000000
40
1.0000000000
10
352.1341386606
20
88.7465087778
30
0.0000000000
10
352.0773677026
20
88.8117647892
30
0.0000000000
10
351.9674086143
20
88.9614383483
30
0.0000000000
10
351.8301760754
20
89.2157209823
30
0.0000000000
10
351.7198843882
20
89.5022271362
30
0.0000000000
10
351.6437613739
20
89.8040738338
30
0.0000000000
10
351.6050359866
20
90.1084576453
30
0.0000000000
10
351.6053463381
20
90.3954307388
30
0.0000000000
10
351.6307969211
20
90.5774456037
30
0.0000000000
10
351.6492490321
20
90.6600912914
30
0.0000000000
11
352.1341386606
21
88.7465087778
31
0.0000000000
11
351.9794516351
21
88.9544934371
31
0.0000000000
11
351.8378713574
21
89.2144066056
31
0.0000000000
11
351.7263045362
21
89.5026959964
31
0.0000000000
11
351.6496271770
21
89.8067619797
31
0.0000000000
11
351.6111904482
21
90.1133154130
31
0.0000000000
11
351.6126742194
21
90.4089584403
31
0.0000000000
11
351.6492490321
21
90.6600912914
31
0.0000000000
0
SPLINE
5
2D0
100
AcDbEntity
8
0
100
AcDbSpline
62
7
6
CONTINUOUS
70
0
71
3
72
9
73
5
74
3
42
0.0000001000
43
0.0000001000
44
0.0000000001
40
0.0000000000
40
0.0000000000
40
0.0000000000
40
0.0000000000
40
0.2605417342
40
1.0000000000
40
1.0000000000
40
1.0000000000
40
1.0000000000
10
351.6492490321
20
90.6600912914
30
0.0000000000
10
351.6507902563
20
90.6669943244
30
0.0000000000
10
351.6568850530
20
90.6934512143
30
0.0000000000
10
351.6636794240
20
90.7197529846
30
0.0000000000
10
351.6691149248
20
90.7390861609
30
0.0000000000
11
351.6492490321
21
90.6600912914
31
0.0000000000
11
351.6540136426
21
90.6807700426
31
0.0000000000
11
351.6691149248
21
90.7390861609
31
0.0000000000
0
SPLINE
5
2D1
100
AcDbEntity
8
0
100
AcDbSpline
62
7
6
CONTINUOUS
70
0
71
3
72
15
73
11
74
9
42
0.0000001000
43
0.0000001000
44
0.0000000001
40
0.0000000000
40
0.0000000000
40
0.0000000000
40
0.0000000000
40
0.1656207303
40
0.3264433071
40
0.4781337086
40
0.6173022502
40
0.7420560935
40
0.8527647650
40
0.9528609141
40
1.0000000000
40
1.0000000000
40
1.0000000000
40
1.0000000000
10
332.0352404968
20
195.5854370693
30
0.0000000000
10
331.8994538547
20
196.1239023901
30
0.0000000000
10
331.6950903896
20
197.2024354764
30
0.0000000000
10
331.5921455024
20
198.8064714854
30
0.0000000000
10
331.6985452339
20
200.3224253946
30
0.0000000000
10
332.0107387157
20
201.6873563311
30
0.0000000000
10
332.5188561161
20
202.8462309555
30
0.0000000000
10
333.2101503156
20
203.7512502502
30
0.0000000000
10
333.9321453858
20
204.2573366508
30
0.0000000000
10
334.4028515050
20
204.4212453069
30
0.0000000000
10
334.5569646394
20
204.4602845830
30
0.0000000000
11
332.0352404968
21
195.5854370693
31
0.0000000000
11
331.7265987957
21
197.2225645918
31
0.0000000000
11
331.6274937055
21
198.8372287805
31
0.0000000000
11
331.7422843225
21
200.3587476248
31
0.0000000000
11
332.0659753043
21
201.7206969772
31
0.0000000000
11
332.5844263094
21
202.8634819018
31
0.0000000000
11
333.2749744658
21
203.7371361774
31
0.0000000000
11
334.1074529179
21
204.3034811807
31
0.0000000000
11
334.5569646394
21
204.4602845830
31
0.0000000000
0
SPLINE
5
2D2
100
AcDbEntity
8
0
100
AcDbSpline
62
7
6
CONTINUOUS
70
0
71
3
72
14
73
10
74
8
42
0.0000001000
43
0.0000001000
44
0.0000000001
40
0.0000000000
40
0.0000000000
40
0.0000000000
40
0.0000000000
40
0.1067469583
40
0.2254068827
40
0.3581197817
40
0.5045739236
40
0.6626812196
40
0.8291557638
40
1.0000000000
40
1.0000000000
40
1.0000000000
40
1.0000000000
10
363.2765091125
20
87.0637441036
30
0.0000000000
10
362.9498698925
20
87.0879528148
30
0.0000000000
10
362.2665470199
20
87.2557035187
30
0.0000000000
10
361.2979934790
20
87.7941457390
30
0.0000000000
10
360.3716487367
20
88.6001706321
30
0.0000000000
10
359.5186729136
20
89.6425673848
30
0.0000000000
10
358.7682246082
20
90.8827380801
30
0.0000000000
10
358.1479397059
20
92.2743438321
30
0.0000000000
10
357.8378379094
20
93.2645925299
30
0.0000000000
10
357.7096595924
20
93.7728868477
30
0.0000000000
11
363.2765091125
21
87.0637441036
31
0.0000000000
11
362.3191897944
21
87.2852229936
31
0.0000000000
11
361.3570636666
21
87.8022860305
31
0.0000000000
11
360.4274838059
21
88.5949024574
31
0.0000000000
11
359.5665798207
21
89.6323243796
31
0.0000000000
11
358.8078301770
21
90.8742668763
31
0.0000000000
11
358.1807457298
21
92.2724825684
31
0.0000000000
11
357.7096595924
21
93.7728868477
31
0.0000000000
0
SPLINE
5
2D3
100
AcDbEntity
8
0
100
AcDbSpline
62
7
6
CONTINUOUS
70
0
71
3
72
15
73
11
74
9
42
0.0000001000
43
0.0000001000
44
0.0000000001
40
0.0000000000
40
0.0000000000
40
0.0000000000
40
0.0000000000
40
0.0458313484
40
0.1492543813
40
0.2626158139
40
0.3899671749
40
0.5304183919
40
0.6809811766
40
0.8386414643
40
1.0000000000
40
1.0000000000
40
1.0000000000
40
1.0000000000
10
366.7314474299
20
87.7900529038
30
0.0000000000
10
366.8845591778
20
87.8287923341
30
0.0000000000
10
367.3738480474
20
87.9916993771
30
0.0000000000
10
368.1479826289
20
88.4816295794
30
0.0000000000
10
368.9236195990
20
89.3916427468
30
0.0000000000
10
369.5013922130
20
90.5771813129
30
0.0000000000
10
369.8586413490
20
91.9754062680
30
0.0000000000
10
369.9891568544
20
93.5150038072
30
0.0000000000
10
369.8975984356
20
95.1278811006
30
0.0000000000
10
369.6956531323
20
96.2069492866
30
0.0000000000
10
369.5603022207
20
96.7436867073
30
0.0000000000
11
366.7314474299
21
87.7900529038
31
0.0000000000
11
367.1803993979
21
87.9397339125
31
0.0000000000
11
368.0844480477
21
88.5015136440
31
0.0000000000
11
368.8526858190
21
89.3795249725
31
0.0000000000
11
369.4414503752
21
90.5504749297
31
0.0000000000
11
369.8118419407
21
91.9476670208
31
0.0000000000
11
369.9513575347
21
93.4908899999
31
0.0000000000
11
369.8641889573
21
95.1111073973
31
0.0000000000
11
369.5603022207
21
96.7436867073
31
0.0000000000
0
SPLINE
5
2D4
100
AcDbEntity
8
0
100
AcDbSpline
62
7
6
CONTINUOUS
70
0
71
3
72
15
73
11
74
9
42
0.0000001000
43
0.0000001000
44
0.0000000001
40
0.0000000000
40
0.0000000000
40
0.0000000000
40
0.0000000000
40
0.1607223923
40
0.3174269729
40
0.4667390911
40
0.6057548465
40
0.7316552445
40
0.8439810013
40
0.9467525297
40
1.0000000000
40
1.0000000000
40
1.0000000000
40
1.0000000000
10
343.8858831252
20
198.5562369289
30
0.0000000000
10
343.7506784893
20
199.0923942895
30
0.0000000000
10
343.4175728095
20
200.1359731475
30
0.0000000000
10
342.7363854544
20
201.5950489570
30
0.0000000000
10
341.8981437970
20
202.8831777921
30
0.0000000000
10
340.9318847357
20
203.9410154934
30
0.0000000000
10
339.8756812905
20
204.7133937737
30
0.0000000000
10
338.7752121748
20
205.1595987888
30
0.0000000000
10
337.8407538009
20
205.2446448605
30
0.0000000000
10
337.3066313791
20
205.1572756705
30
0.0000000000
10
337.1282330373
20
205.1121383755
30
0.0000000000
11
343.8858831252
21
198.5562369289
31
0.0000000000
11
343.3799859177
21
200.1360385289
31
0.0000000000
11
342.6915652373
21
201.5995701787
31
0.0000000000
11
341.8440230873
21
202.8866361899
31
0.0000000000
11
340.8672141222
21
203.9375733146
31
0.0000000000
11
339.8092369401
21
204.6920221398
31
0.0000000000
11
338.7294151203
21
205.1139359797
31
0.0000000000
11
337.6722805825
21
205.2009758229
31
0.0000000000
11
337.1282330373
21
205.1121383755
31
0.0000000000
0
SPLINE
5
2D5
100
AcDbEntity
8
0
100
AcDbSpline
62
7
6
CONTINUOUS
70
0
71
3
72
9
73
5
74
3
42
0.0000001000
43
0.0000001000
44
0.0000000001
40
0.0000000000
40
0.0000000000
40
0.0000000000
40
0.0000000000
40
0.3367431617
40
1.0000000000
40
1.0000000000
40
1.0000000000
40
1.0000000000
10
365.1500859608
20
87.3890816170
30
0.0000000000
10
365.0530450280
20
87.3644936304
30
0.0000000000
10
364.7607914098
20
87.3075838332
30
0.0000000000
10
364.4615270517
20
87.2997389419
30
0.0000000000
10
364.2652585540
20
87.3142852888
30
0.0000000000
11
365.1500859608
21
87.3890816170
31
0.0000000000
11
364.8554212236
21
87.3317294223
31
0.0000000000
11
364.2652585540
21
87.3142852888
31
0.0000000000
0
SPLINE
5
2D6
100
AcDbEntity
8
0
100
AcDbSpline
62
9
6
CONTINUOUS
70
0
71
3
72
8
73
4
74
2
42
0.0000001000
43
0.0000001000
44
0.0000000001
40
0.0000000000
40
0.0000000000
40
0.0000000000
40
0.0000000000
40
1.0000000000
40
1.0000000000
40
1.0000000000
40
1.0000000000
10
343.7518993379
20
198.5231726925
30
0.0000000000
10
343.7316601341
20
198.6034317609
30
0.0000000000
10
343.7106257127
20
198.6834951046
30
0.0000000000
10
343.6887992687
20
198.7633438251
30
0.0000000000
11
343.7518993379
21
198.5231726925
31
0.0000000000
11
343.6887992687
21
198.7633438251
31
0.0000000000
0
SPLINE
5
2D7
100
AcDbEntity
8
0
100
AcDbSpline
62
9
6
CONTINUOUS
70
0
71
3
72
32
73
28
74
26
42
0.0000001000
43
0.0000001000
44
0.0000000001
40
0.0000000000
40
0.0000000000
40
0.0000000000
40
0.0000000000
40
0.0140662857
40
0.0430925869
40
0.0740343217
40
0.1074921430
40
0.1439442614
40
0.1836837711
40
0.2267454329
40
0.2728382893
40
0.3212592667
40
0.3706451093
40
0.4197160257
40
0.4675483609
40
0.5144794055
40
0.5621868050
40
0.6112377828
40
0.6608330437
40
0.7096715019
40
0.7563465521
40
0.8000359777
40
0.8403972179
40
0.8774226984
40
0.9113735430
40
0.9427069738
40
0.9720108057
40
1.0000000000
40
1.0000000000
40
1.0000000000
40
1.0000000000
10
343.6887992687
20
198.7633438251
30
0.0000000000
10
343.6665151458
20
198.8448668941
30
0.0000000000
10
343.5957176948
20
199.0939304631
30
0.0000000000
10
343.4608285475
20
199.5178973746
30
0.0000000000
10
343.2672826326
20
200.0449652277
30
0.0000000000
10
343.0310193338
20
200.6031851133
30
0.0000000000
10
342.7411568273
20
201.1951592880
30
0.0000000000
10
342.3853392984
20
201.8176657372
30
0.0000000000
10
341.9504347709
20
202.4594663601
30
0.0000000000
10
341.4239093854
20
203.0985191302
30
0.0000000000
10
340.7972862667
20
203.6978781453
30
0.0000000000
10
340.0693842448
20
204.2048286490
30
0.0000000000
10
339.2523436580
20
204.5510062515
30
0.0000000000
10
338.3799397731
20
204.6572961805
30
0.0000000000
10
337.5276030180
20
204.4615064892
30
0.0000000000
10
336.7915782548
20
203.9813757768
30
0.0000000000
10
336.2169475744
20
203.3037685333
30
0.0000000000
10
335.7995577253
20
202.5164943406
30
0.0000000000
10
335.5187921056
20
201.6881927509
30
0.0000000000
10
335.3488070305
20
200.8677015844
30
0.0000000000
10
335.2641558405
20
200.0859275928
30
0.0000000000
10
335.2426371765
20
199.3582346863
30
0.0000000000
10
335.2666188158
20
198.6893690296
30
0.0000000000
10
335.3230406054
20
198.0770295273
30
0.0000000000
10
335.4030052975
20
197.5142102544
30
0.0000000000
10
335.5012791948
20
196.9907530208
30
0.0000000000
10
335.5787447871
20
196.6552670413
30
0.0000000000
10
335.6198613635
20
196.4922182307
30
0.0000000000
11
343.6887992687
21
198.7633438251
31
0.0000000000
11
343.6194735396
21
199.0072217641
31
0.0000000000
11
343.4608106531
21
199.5057332934
31
0.0000000000
11
343.2684658668
21
200.0291872227
31
0.0000000000
11
343.0332165713
21
200.5844294982
31
0.0000000000
11
342.7439146439
21
201.1742939727
31
0.0000000000
11
342.3878054919
21
201.7957323312
31
0.0000000000
11
341.9512395161
21
202.4374225619
31
0.0000000000
11
341.4209640215
21
203.0769152186
31
0.0000000000
11
340.7870748231
21
203.6767531113
31
0.0000000000
11
340.0522352303
21
204.1790351368
31
0.0000000000
11
339.2334927706
21
204.5134973898
31
0.0000000000
11
338.3764722923
21
204.6069414172
31
0.0000000000
11
337.5522671969
21
204.4167906171
31
0.0000000000
11
336.8265937228
21
203.9555569690
31
0.0000000000
11
336.2458225938
21
203.2890184580
31
0.0000000000
11
335.8197852477
21
202.5032054362
31
0.0000000000
11
335.5324297542
21
201.6711972075
31
0.0000000000
11
335.3589894766
21
200.8480290773
31
0.0000000000
11
335.2726701488
21
200.0653440853
31
0.0000000000
11
335.2503197793
21
199.3382421037
31
0.0000000000
11
335.2737724456
21
198.6713305515
31
0.0000000000
11
335.3296734931
21
198.0619808210
31
0.0000000000
11
335.4089867616
21
197.5028441819
31
0.0000000000
11
335.5063826398
21
196.9837484604
31
0.0000000000
11
335.6198613635
21
196.4922182307
31
0.0000000000
0
SPLINE
5
2D8
100
AcDbEntity
8
0
100
AcDbSpline
62
9
6
CONTINUOUS
70
0
71
3
72
8
73
4
74
2
42
0.0000001000
43
0.0000001000
44
0.0000000001
40
0.0000000000
40
0.0000000000
40
0.0000000000
40
0.0000000000
40
1.0000000000
40
1.0000000000
40
1.0000000000
40
1.0000000000
10
343.7518993379
20
198.5231726925
30
0.0000000000
10
343.7903640410
20
198.5327791479
30
0.0000000000
10
343.8676384140
20
198.5522277131
30
0.0000000000
10
343.8677079424
20
198.5519340294
30
0.0000000000
11
343.7518993379
21
198.5231726925
31
0.0000000000
11
343.8677079424
21
198.5519340294
31
0.0000000000
0
SPLINE
5
2D9
100
AcDbEntity
8
0
100
AcDbSpline
62
9
6
CONTINUOUS
70
0
71
3
72
11
73
7
74
5
42
0.0000001000
43
0.0000001000
44
0.0000000001
40
0.0000000000
40
0.0000000000
40
0.0000000000
40
0.0000000000
40
0.2032393251
40
0.4646501820
40
0.7444352834
40
1.0000000000
40
1.0000000000
40
1.0000000000
40
1.0000000000
10
335.6198613635
20
196.4922182307
30
0.0000000000
10
335.5511405258
20
196.4750553876
30
0.0000000000
10
335.3940674056
20
196.4356654250
30
0.0000000000
10
335.1424604816
20
196.3723726424
30
0.0000000000
10
334.8732110489
20
196.3044618456
30
0.0000000000
10
334.6923280609
20
196.2587217657
30
0.0000000000
10
334.6059890447
20
196.2368441508
30
0.0000000000
11
335.6198613635
21
196.4922182307
31
0.0000000000
11
335.4137376008
21
196.4405747904
31
0.0000000000
11
335.1486774287
21
196.3739080212
31
0.0000000000
11
334.8650338558
21
196.3023673343
31
0.0000000000
11
334.6059890447
21
196.2368441508
31
0.0000000000
0
SPLINE
5
2DA
100
AcDbEntity
8
0
100
AcDbSpline
62
9
6
CONTINUOUS
70
0
71
3
72
32
73
28
74
26
42
0.0000001000
43
0.0000001000
44
0.0000000001
40
0.0000000000
40
0.0000000000
40
0.0000000000
40
0.0000000000
40
0.0278452423
40
0.0568731791
40
0.0878166575
40
0.1212763641
40
0.1577305366
40
0.1974722856
40
0.2405363739
40
0.2866318276
40
0.3350555335
40
0.3844441590
40
0.4335178405
40
0.4813528710
40
0.5282865602
40
0.5759966480
40
0.6250503898
40
0.6746484453
40
0.7234896556
40
0.7701673359
40
0.8138592234
40
0.8542227380
40
0.8912503048
40
0.9252030625
40
0.9565382589
40
0.9858437421
40
1.0000000000
40
1.0000000000
40
1.0000000000
40
1.0000000000
10
361.2942804590
20
94.6796680090
30
0.0000000000
10
361.3351832627
20
94.5174669193
30
0.0000000000
10
361.4253599600
20
94.1878081920
30
0.0000000000
10
361.5853512495
20
93.6849433270
30
0.0000000000
10
361.7788971644
20
93.1578754739
30
0.0000000000
10
362.0151604632
20
92.5996555882
30
0.0000000000
10
362.3050229696
20
92.0076814135
30
0.0000000000
10
362.6608404985
20
91.3851749644
30
0.0000000000
10
363.0957450260
20
90.7433743414
30
0.0000000000
10
363.6222704115
20
90.1043215714
30
0.0000000000
10
364.2488935303
20
89.5049625563
30
0.0000000000
10
364.9767955522
20
88.9980120526
30
0.0000000000
10
365.7938361389
20
88.6518344500
30
0.0000000000
10
366.6662400239
20
88.5455445211
30
0.0000000000
10
367.5185767790
20
88.7413342123
30
0.0000000000
10
368.2546015422
20
89.2214649247
30
0.0000000000
10
368.8292322226
20
89.8990721683
30
0.0000000000
10
369.2466220716
20
90.6863463610
30
0.0000000000
10
369.5273876914
20
91.5146479507
30
0.0000000000
10
369.6973727665
20
92.3351391171
30
0.0000000000
10
369.7820239565
20
93.1169131088
30
0.0000000000
10
369.8035426205
20
93.8446060152
30
0.0000000000
10
369.7795609811
20
94.5134716720
30
0.0000000000
10
369.7231391916
20
95.1258111742
30
0.0000000000
10
369.6431744995
20
95.6886304472
30
0.0000000000
10
369.5602402085
20
96.1303810617
30
0.0000000000
10
369.5040315672
20
96.3853941819
30
0.0000000000
10
369.4848796176
20
96.4682594684
30
0.0000000000
11
361.2942804590
21
94.6796680090
31
0.0000000000
11
361.4267062574
21
94.1956189374
31
0.0000000000
11
361.5853691438
21
93.6971074082
31
0.0000000000
11
361.7777139302
21
93.1736534789
31
0.0000000000
11
362.0129632257
21
92.6184112033
31
0.0000000000
11
362.3022651531
21
92.0285467288
31
0.0000000000
11
362.6583743051
21
91.4071083704
31
0.0000000000
11
363.0949402809
21
90.7654181396
31
0.0000000000
11
363.6252157755
21
90.1259254830
31
0.0000000000
11
364.2591049739
21
89.5260875903
31
0.0000000000
11
364.9939445666
21
89.0238055648
31
0.0000000000
11
365.8126870264
21
88.6893433118
31
0.0000000000
11
366.6697075047
21
88.5958992844
31
0.0000000000
11
367.4939126001
21
88.7860500844
31
0.0000000000
11
368.2195860742
21
89.2472837326
31
0.0000000000
11
368.8003572032
21
89.9138222435
31
0.0000000000
11
369.2263945493
21
90.6996352654
31
0.0000000000
11
369.5137500428
21
91.5316434940
31
0.0000000000
11
369.6871903204
21
92.3548116243
31
0.0000000000
11
369.7735096482
21
93.1374966162
31
0.0000000000
11
369.7958600177
21
93.8645985978
31
0.0000000000
11
369.7724073514
21
94.5315101500
31
0.0000000000
11
369.7165063039
21
95.1408598806
31
0.0000000000
11
369.6371930354
21
95.6999965197
31
0.0000000000
11
369.5397971571
21
96.2190922411
31
0.0000000000
11
369.4848796176
21
96.4682594684
31
0.0000000000
0
SPLINE
5
2DB
100
AcDbEntity
8
0
100
AcDbSpline
62
9
6
CONTINUOUS
70
0
71
3
72
8
73
4
74
2
42
0.0000001000
43
0.0000001000
44
0.0000000001
40
0.0000000000
40
0.0000000000
40
0.0000000000
40
0.0000000000
40
1.0000000000
40
1.0000000000
40
1.0000000000
40
1.0000000000
10
369.4848796176
20
96.4682594684
30
0.0000000000
10
369.4661629548
20
96.5492413871
30
0.0000000000
10
369.4466404112
20
96.6300351608
30
0.0000000000
10
369.4263184335
20
96.7106224709
30
0.0000000000
11
369.4848796176
21
96.4682594684
31
0.0000000000
11
369.4263184335
21
96.7106224709
31
0.0000000000
0
SPLINE
5
2DC
100
AcDbEntity
8
0
100
AcDbSpline
62
9
6
CONTINUOUS
70
0
71
3
72
20
73
16
74
14
42
0.0000001000
43
0.0000001000
44
0.0000000001
40
0.0000000000
40
0.0000000000
40
0.0000000000
40
0.0000000000
40
0.0548682621
40
0.1120451104
40
0.1729958040
40
0.2389036295
40
0.3107106456
40
0.3889940505
40
0.4738216255
40
0.5646186122
40
0.6599962626
40
0.7572648348
40
0.8539030413
40
0.9481023479
40
1.0000000000
40
1.0000000000
40
1.0000000000
40
1.0000000000
10
360.2804081403
20
94.4242939292
30
0.0000000000
10
360.3255593055
20
94.2452458556
30
0.0000000000
10
360.4250856562
20
93.8814189357
30
0.0000000000
10
360.6016566938
20
93.3264690962
30
0.0000000000
10
360.8152357397
20
92.7448758384
30
0.0000000000
10
361.0759552054
20
92.1289010005
30
0.0000000000
10
361.3958255404
20
91.4756746184
30
0.0000000000
10
361.7884810265
20
90.7887557827
30
0.0000000000
10
362.2684100023
20
90.0805546923
30
0.0000000000
10
362.8494301492
20
89.3754119113
30
0.0000000000
10
363.5408658595
20
88.7141171280
30
0.0000000000
10
364.3439765637
20
88.1548360550
30
0.0000000000
10
365.2453516519
20
87.7729389191
30
0.0000000000
10
366.0700606441
20
87.6724030841
30
0.0000000000
10
366.5611486814
20
87.7472395039
30
0.0000000000
10
366.7313968764
20
87.7902534010
30
0.0000000000
11
360.2804081403
21
94.4242939292
31
0.0000000000
11
360.4265923454
21
93.8899702991
31
0.0000000000
11
360.6016756627
21
93.3398939937
31
0.0000000000
11
360.8139288318
21
92.7622887035
31
0.0000000000
11
361.0735294999
21
92.1495997892
31
0.0000000000
11
361.3927814042
21
91.4987009374
31
0.0000000000
11
361.7857599932
21
90.8129588968
31
0.0000000000
11
362.2675255085
21
90.1048754985
31
0.0000000000
11
362.8526921909
21
89.3992382237
31
0.0000000000
11
363.5521562167
21
88.7374053272
31
0.0000000000
11
364.3629222262
21
88.1832725097
31
0.0000000000
11
365.2661433002
21
87.8143051423
31
0.0000000000
11
366.2115857216
21
87.7111505375
31
0.0000000000
11
366.7313968764
21
87.7902534010
31
0.0000000000
0
SPLINE
5
2DD
100
AcDbEntity
8
0
100
AcDbSpline
62
9
6
CONTINUOUS
70
0
71
3
72
11
73
7
74
5
42
0.0000001000
43
0.0000001000
44
0.0000000001
40
0.0000000000
40
0.0000000000
40
0.0000000000
40
0.0000000000
40
0.2032391855
40
0.4646499867
40
0.7444351583
40
1.0000000000
40
1.0000000000
40
1.0000000000
40
1.0000000000
10
361.2942804590
20
94.6796680090
30
0.0000000000
10
361.2255596685
20
94.6625051777
30
0.0000000000
10
361.0684866143
20
94.6231152318
30
0.0000000000
10
360.8168797327
20
94.5598224600
30
0.0000000000
10
360.5476302527
20
94.4919116513
30
0.0000000000
10
360.3667471987
20
94.4461715547
30
0.0000000000
10
360.2804081403
20
94.4242939292
30
0.0000000000
11
361.2942804590
21
94.6796680090
31
0.0000000000
11
361.0881568379
21
94.6280246043
31
0.0000000000
11
360.8230967223
21
94.5613578494
31
0.0000000000
11
360.5394530782
21
94.4898171447
31
0.0000000000
11
360.2804081403
21
94.4242939292
31
0.0000000000
0
SPLINE
5
2DE
100
AcDbEntity
8
0
100
AcDbSpline
62
9
6
CONTINUOUS
70
0
71
3
72
8
73
4
74
2
42
0.0000001000
43
0.0000001000
44
0.0000000001
40
0.0000000000
40
0.0000000000
40
0.0000000000
40
0.0000000000
40
1.0000000000
40
1.0000000000
40
1.0000000000
40
1.0000000000
10
369.4263184335
20
96.7106224709
30
0.0000000000
10
369.4647831522
20
96.7202289302
30
0.0000000000
10
369.5420575466
20
96.7396775004
30
0.0000000000
10
369.5421270750
20
96.7393838168
30
0.0000000000
11
369.4263184335
21
96.7106224709
31
0.0000000000
11
369.5421270750
21
96.7393838168
31
0.0000000000
0
SPLINE
5
2DF
100
AcDbEntity
8
0
100
AcDbSpline
62
9
6
CONTINUOUS
70
0
71
3
72
20
73
16
74
14
42
0.0000001000
43
0.0000001000
44
0.0000000001
40
0.0000000000
40
0.0000000000
40
0.0000000000
40
0.0000000000
40
0.0406083724
40
0.1348686642
40
0.2317947270
40
0.3298009454
40
0.4263113513
40
0.5185443934
40
0.6048745380
40
0.6846263138
40
0.7577855143
40
0.8248686926
40
0.8867796530
40
0.9446800429
40
1.0000000000
40
1.0000000000
40
1.0000000000
40
1.0000000000
10
337.1277930239
20
205.1118138862
30
0.0000000000
10
336.9949941386
20
205.0782354981
30
0.0000000000
10
336.5624364949
20
204.9335116275
30
0.0000000000
10
335.8992894670
20
204.5010934550
30
0.0000000000
10
335.2650889998
20
203.7534361497
30
0.0000000000
10
334.8044106514
20
202.8846727965
30
0.0000000000
10
334.4945289300
20
201.9706066468
30
0.0000000000
10
334.3069217720
20
201.0651696717
30
0.0000000000
10
334.2134946066
20
200.2024794237
30
0.0000000000
10
334.1897396568
20
199.3994876571
30
0.0000000000
10
334.2161944176
20
198.6614231223
30
0.0000000000
10
334.2784460738
20
197.9857410917
30
0.0000000000
10
334.3666746703
20
197.3647068312
30
0.0000000000
10
334.4751177382
20
196.7870522334
30
0.0000000000
10
334.5606059379
20
196.4168119945
30
0.0000000000
10
334.6059890447
20
196.2368441508
30
0.0000000000
11
337.1277930239
21
205.1118138862
31
0.0000000000
11
336.7387462058
21
204.9813947495
31
0.0000000000
11
335.9379562639
21
204.4726150268
31
0.0000000000
11
335.2969683078
21
203.7371639506
31
0.0000000000
11
334.8267368390
21
202.8700034539
31
0.0000000000
11
334.5095791319
21
201.9518426004
31
0.0000000000
11
334.3181574628
21
201.0434496603
31
0.0000000000
11
334.2228898831
21
200.1797590705
31
0.0000000000
11
334.1982170558
21
199.3774219877
31
0.0000000000
11
334.2240881762
21
198.6415157380
31
0.0000000000
11
334.2857648864
21
197.9691339954
31
0.0000000000
11
334.3732750049
21
197.3521639938
31
0.0000000000
11
334.4807380972
21
196.7793795510
31
0.0000000000
11
334.6059890447
21
196.2368441508
31
0.0000000000
0
ENDSEC
0
SECTION
2
OBJECTS
0
DICTIONARY
5
2E0
100
AcDbDictionary
3
ACAD_GROUP
350
2E1
3
ACAD_MLINESTYLE
350
2E2
0
DICTIONARY
5
2E1
102
{ACAD_REACTORS
330
2E0
102
}
100
AcDbDictionary
0
DICTIONARY
5
2E2
102
{ACAD_REACTORS
330
2E0
102
}
100
AcDbDictionary
3
STANDARD
350
2E3
0
MLINESTYLE
5
2E3
102
{ACAD_REACTORS
330
2E2
102
}
100
AcDbMlineStyle
2
STANDARD
70
0
3

62
256
51
90.0
52
90.0
71
2
49
0.5
62
256
6
BYLAYER
49
-0.5
62
256
6
BYLAYER
0
ENDSEC
0
EOF
