999
DXF file: by75140441.dxf
999
Pro/ENGINEER 2006080 by Parametric Technology Corporation
0
SECTION
2
HEADER
9
$ACADVER
1
AC1015
9
$DWGCODEPAGE
3
ANSI_1252
9
$EXTMAX
10
420.0000000000
20
297.0000000000
30
0.0000000000
9
$EXTMIN
10
0.0000000000
20
0.0000000000
30
0.0000000000
9
$LIMMIN
10
0.0000000000
20
0.0000000000
9
$LIMMAX
10
420.0000000000
20
297.0000000000
9
$VIEWCTR
10
210.0000000000
20
148.5000000000
9
$VIEWSIZE
40
297.0000000000
9
$CLAYER
8
0
9
$LTSCALE
40
23.1000000000
9
$CELTYPE
6
BYLAYER
9
$DIMSCALE
40
1
9
$DIMASZ
40
3.5000000000
9
$DIMEXO
40
2.6250000000
9
$DIMDLI
40
15.9600000000
9
$DIMEXE
40
7.5600000000
9
$DIMCEN
40
3.7800000000
9
$DIMLFAC
40
1.0000000000
9
$DIMBLK
1
_FILLED
9
$DIMTXT
40
3.0000000000
9
$DIMTOL
70
1
9
$DIMLIM
70
0
9
$DIMTFAC
40
1.0000000000
9
$DIMTP
40
0.0010000000
9
$DIMTM
40
0.0010000000
9
$PDMODE
70
3
9
$PDSIZE
40
0.0500000000
9
$HANDSEED
5
432
9
$MEASUREMENT
70
1
9
$INSUNITS
70
4
0
ENDSEC
0
SECTION
2
CLASSES
0
CLASS
1
ACDBDICTIONARYWDFLT
2
AcDbDictionaryWithDefault
3
AutoCAD 2000
90
0
280
0
281
0
0
CLASS
1
ACDBPLACEHOLDER
2
AcDbPlaceHolder
3
AutoCAD 2000
90
0
280
0
281
0
0
CLASS
1
LAYOUT
2
AcDbLayout
3
AutoCAD 2000
90
0
280
0
281
0
0
ENDSEC
0
SECTION
2
TABLES
0
TABLE
2
VPORT
5
8
100
AcDbSymbolTable
70
2
0
VPORT
5
1F4
100
AcDbSymbolTableRecord
100
AcDbViewportTableRecord
2
*ACTIVE
70
0
10
0.0
20
0.0
11
1.0
21
1.0
12
210.0000000000
22
148.5000000000
13
0.0
23
0.0
14
1.0
24
1.0
15
0.0
25
0.0
16
0.0
26
0.0
36
1.0
17
0.0
27
0.0
37
0.0
40
297.0000000000
41
1.4141414141
42
50.0
43
0.0
44
0.0
50
0.0
51
0.0
71
0
72
100
73
1
74
1
75
0
76
0
77
0
78
0
0
ENDTAB
0
TABLE
2
LTYPE
5
5
100
AcDbSymbolTable
70
6
0
LTYPE
5
14
100
AcDbSymbolTableRecord
100
AcDbLinetypeTableRecord
2
BYBLOCK
70
0
3

72
65
73
0
40
0.0
0
LTYPE
5
15
100
AcDbSymbolTableRecord
100
AcDbLinetypeTableRecord
2
BYLAYER
70
0
3

72
65
73
0
40
0.0
0
LTYPE
5
16
100
AcDbSymbolTableRecord
100
AcDbLinetypeTableRecord
2
CONTINUOUS
70
64
3
Solid line
72
65
73
0
40
0
0
LTYPE
5
1F5
100
AcDbSymbolTableRecord
100
AcDbLinetypeTableRecord
2
CENTER
70
64
3
____ _ ____ _ ____ _ ____ _ ____ _ ____ _ ____
72
65
73
4
40
0.6
49
0.375
74
0
49
-0.075
74
0
49
0.075
74
0
49
-0.075
74
0
0
LTYPE
5
1F6
100
AcDbSymbolTableRecord
100
AcDbLinetypeTableRecord
2
HIDDEN
70
64
3
- - - - - - - - - - - - - - - - - - - -
72
65
73
2
40
0.2
49
0.1
74
0
49
-0.1
74
0
0
LTYPE
5
1F7
100
AcDbSymbolTableRecord
100
AcDbLinetypeTableRecord
2
PHANTOM
70
64
3
_____ _ _ _____ _ _ _____ _ _ _____
72
65
73
6
40
0.8
49
0.45
74
0
49
-0.05
74
0
49
0.1
74
0
49
-0.05
74
0
49
0.1
74
0
49
-0.05
74
0
0
LTYPE
5
1F8
100
AcDbSymbolTableRecord
100
AcDbLinetypeTableRecord
2
DOT
70
64
3
. . . . . . . . . . . . . . . . . . . .
72
65
73
2
40
0.2
49
0.1
74
0
49
-0.1
74
0
0
LTYPE
5
1F9
100
AcDbSymbolTableRecord
100
AcDbLinetypeTableRecord
2
DASHED
70
64
3
- - - - - - - - - - - - - - - - - - - -
72
65
73
2
40
0.2
49
0.1
74
0
49
-0.1
74
0
0
ENDTAB
0
TABLE
2
LAYER
5
2
100
AcDbSymbolTable
70
36
0
LAYER
5
10
100
AcDbSymbolTableRecord
100
AcDbLayerTableRecord
2
0
70
0
62
7
6
CONTINUOUS
370
-3
390
F
0
LAYER
5
1FA
100
AcDbSymbolTableRecord
100
AcDbLayerTableRecord
2
DEFAULT_1
70
0
62
7
6
CENTER
370
-3
390
F
0
LAYER
5
1FB
100
AcDbSymbolTableRecord
100
AcDbLayerTableRecord
2
DEFAULT_2
70
0
62
8
6
HIDDEN
370
-3
390
F
0
LAYER
5
1FC
100
AcDbSymbolTableRecord
100
AcDbLayerTableRecord
2
DEFAULT_3
70
0
62
7
6
PHANTOM
370
-3
390
F
0
LAYER
5
1FD
100
AcDbSymbolTableRecord
100
AcDbLayerTableRecord
2
_2D_DELETED_OBJS
70
0
62
7
6
CONTINUOUS
370
-3
390
F
0
LAYER
5
1FE
100
AcDbSymbolTableRecord
100
AcDbLayerTableRecord
2
ACHSEN
70
0
62
7
6
CONTINUOUS
370
-3
390
F
0
LAYER
5
1FF
100
AcDbSymbolTableRecord
100
AcDbLayerTableRecord
2
EBENEN
70
0
62
7
6
CONTINUOUS
370
-3
390
F
0
LAYER
5
200
100
AcDbSymbolTableRecord
100
AcDbLayerTableRecord
2
GEWINDE
70
0
62
7
6
CONTINUOUS
370
-3
390
F
0
LAYER
5
201
100
AcDbSymbolTableRecord
100
AcDbLayerTableRecord
2
S-ACHSEN
70
0
62
7
6
CONTINUOUS
370
-3
390
F
0
LAYER
5
202
100
AcDbSymbolTableRecord
100
AcDbLayerTableRecord
2
S-BG-EBENEN
70
0
62
7
6
CONTINUOUS
370
-3
390
F
0
LAYER
5
203
100
AcDbSymbolTableRecord
100
AcDbLayerTableRecord
2
S-BG-KOORDSYS
70
0
62
7
6
CONTINUOUS
370
-3
390
F
0
LAYER
5
204
100
AcDbSymbolTableRecord
100
AcDbLayerTableRecord
2
S-EBENEN
70
0
62
7
6
CONTINUOUS
370
-3
390
F
0
LAYER
5
205
100
AcDbSymbolTableRecord
100
AcDbLayerTableRecord
2
S-KOORDSYS
70
0
62
7
6
CONTINUOUS
370
-3
390
F
0
LAYER
5
206
100
AcDbSymbolTableRecord
100
AcDbLayerTableRecord
2
ZEICH_ELEMENTE
70
0
62
7
6
CONTINUOUS
370
-3
390
F
0
LAYER
5
207
100
AcDbSymbolTableRecord
100
AcDbLayerTableRecord
2
TABLE_BL0
70
0
62
7
6
CONTINUOUS
370
-3
390
F
0
LAYER
5
208
100
AcDbSymbolTableRecord
100
AcDbLayerTableRecord
2
X76230020_ANSICHTS_SCHABLON_BL1
70
0
62
7
6
CONTINUOUS
370
-3
390
F
0
LAYER
5
209
100
AcDbSymbolTableRecord
100
AcDbLayerTableRecord
2
X76232034_ANSICHTS_SCHABLON_BL2
70
0
62
7
6
CONTINUOUS
370
-3
390
F
0
LAYER
5
20A
100
AcDbSymbolTableRecord
100
AcDbLayerTableRecord
2
X47900141_ANSICHTS_SCHABLON_BL3
70
0
62
7
6
CONTINUOUS
370
-3
390
F
0
LAYER
5
20B
100
AcDbSymbolTableRecord
100
AcDbLayerTableRecord
2
X47400403_links_1_BL4
70
0
62
7
6
CONTINUOUS
370
-3
390
F
0
LAYER
5
20C
100
AcDbSymbolTableRecord
100
AcDbLayerTableRecord
2
X47900141_links_1_BL5
70
0
62
7
6
CONTINUOUS
370
-3
390
F
0
LAYER
5
20D
100
AcDbSymbolTableRecord
100
AcDbLayerTableRecord
2
X47400418_links_1_BL6
70
0
62
7
6
CONTINUOUS
370
-3
390
F
0
LAYER
5
20E
100
AcDbSymbolTableRecord
100
AcDbLayerTableRecord
2
X76230020_links_1_BL7
70
0
62
7
6
CONTINUOUS
370
-3
390
F
0
LAYER
5
20F
100
AcDbSymbolTableRecord
100
AcDbLayerTableRecord
2
X76232034_links_1_BL8
70
0
62
7
6
CONTINUOUS
370
-3
390
F
0
LAYER
5
210
100
AcDbSymbolTableRecord
100
AcDbLayerTableRecord
2
X76232034_oben_1_BL9
70
0
62
7
6
CONTINUOUS
370
-3
390
F
0
LAYER
5
211
100
AcDbSymbolTableRecord
100
AcDbLayerTableRecord
2
X76230020_oben_1_BL10
70
0
62
7
6
CONTINUOUS
370
-3
390
F
0
LAYER
5
212
100
AcDbSymbolTableRecord
100
AcDbLayerTableRecord
2
X47400403_oben_1_BL11
70
0
62
7
6
CONTINUOUS
370
-3
390
F
0
LAYER
5
213
100
AcDbSymbolTableRecord
100
AcDbLayerTableRecord
2
X47400403_oben_1_BL12
70
0
62
7
6
CONTINUOUS
370
-3
390
F
0
LAYER
5
214
100
AcDbSymbolTableRecord
100
AcDbLayerTableRecord
2
X47900141_oben_1_BL13
70
0
62
7
6
CONTINUOUS
370
-3
390
F
0
LAYER
5
215
100
AcDbSymbolTableRecord
100
AcDbLayerTableRecord
2
X47400418_oben_1_BL14
70
0
62
7
6
CONTINUOUS
370
-3
390
F
0
LAYER
5
216
100
AcDbSymbolTableRecord
100
AcDbLayerTableRecord
2
X47400403_oben_1_BL15
70
0
62
7
6
CONTINUOUS
370
-3
390
F
0
LAYER
5
217
100
AcDbSymbolTableRecord
100
AcDbLayerTableRecord
2
X47400418_ANSICHTS_SCHABLO_BL16
70
0
62
7
6
CONTINUOUS
370
-3
390
F
0
LAYER
5
218
100
AcDbSymbolTableRecord
100
AcDbLayerTableRecord
2
BY75140441_ANSICHTS_SCHABL_BL17
70
0
62
7
6
CONTINUOUS
370
-3
390
F
0
ENDTAB
0
TABLE
2
STYLE
5
3
100
AcDbSymbolTable
70
1
0
STYLE
5
11
100
AcDbSymbolTableRecord
100
AcDbTextStyleTableRecord
2
STANDARD
70
0
40
0.0
41
1.0000000000
50
0.0
71
0
42
0.2
3
SwissCL.ttf
4

0
ENDTAB
0
TABLE
2
VIEW
5
6
100
AcDbSymbolTable
70
0
0
ENDTAB
0
TABLE
2
UCS
5
7
100
AcDbSymbolTable
70
0
0
ENDTAB
0
TABLE
2
APPID
5
9
100
AcDbSymbolTable
70
1
0
APPID
5
219
100
AcDbSymbolTableRecord
100
AcDbRegAppTableRecord
2
ACAD
70
0
0
ENDTAB
0
TABLE
2
BLOCK_RECORD
5
1
100
AcDbSymbolTable
70
0
0
BLOCK_RECORD
5
1F
100
AcDbSymbolTableRecord
100
AcDbBlockTableRecord
2
*MODEL_SPACE
0
BLOCK_RECORD
5
1B
100
AcDbSymbolTableRecord
100
AcDbBlockTableRecord
2
*PAPER_SPACE
0
BLOCK_RECORD
5
21A
100
AcDbSymbolTableRecord
100
AcDbBlockTableRecord
2
_FILLED
0
BLOCK_RECORD
5
21B
100
AcDbSymbolTableRecord
100
AcDbBlockTableRecord
2
*D0
0
BLOCK_RECORD
5
21C
100
AcDbSymbolTableRecord
100
AcDbBlockTableRecord
2
*D1
0
BLOCK_RECORD
5
21D
100
AcDbSymbolTableRecord
100
AcDbBlockTableRecord
2
*D2
0
BLOCK_RECORD
5
21E
100
AcDbSymbolTableRecord
100
AcDbBlockTableRecord
2
TABLE_BL0
0
BLOCK_RECORD
5
21F
100
AcDbSymbolTableRecord
100
AcDbBlockTableRecord
2
X76230020_ANSICHTS_SCHABLON_BL1
0
BLOCK_RECORD
5
220
100
AcDbSymbolTableRecord
100
AcDbBlockTableRecord
2
X76232034_ANSICHTS_SCHABLON_BL2
0
BLOCK_RECORD
5
221
100
AcDbSymbolTableRecord
100
AcDbBlockTableRecord
2
X47900141_ANSICHTS_SCHABLON_BL3
0
BLOCK_RECORD
5
222
100
AcDbSymbolTableRecord
100
AcDbBlockTableRecord
2
X47400403_LINKS_1_BL4
0
BLOCK_RECORD
5
223
100
AcDbSymbolTableRecord
100
AcDbBlockTableRecord
2
X47900141_LINKS_1_BL5
0
BLOCK_RECORD
5
224
100
AcDbSymbolTableRecord
100
AcDbBlockTableRecord
2
X47400418_LINKS_1_BL6
0
BLOCK_RECORD
5
225
100
AcDbSymbolTableRecord
100
AcDbBlockTableRecord
2
X76230020_LINKS_1_BL7
0
BLOCK_RECORD
5
226
100
AcDbSymbolTableRecord
100
AcDbBlockTableRecord
2
X76232034_LINKS_1_BL8
0
BLOCK_RECORD
5
227
100
AcDbSymbolTableRecord
100
AcDbBlockTableRecord
2
X76232034_OBEN_1_BL9
0
BLOCK_RECORD
5
228
100
AcDbSymbolTableRecord
100
AcDbBlockTableRecord
2
X76230020_OBEN_1_BL10
0
BLOCK_RECORD
5
229
100
AcDbSymbolTableRecord
100
AcDbBlockTableRecord
2
X47400403_OBEN_1_BL11
0
BLOCK_RECORD
5
22A
100
AcDbSymbolTableRecord
100
AcDbBlockTableRecord
2
X47400403_OBEN_1_BL12
0
BLOCK_RECORD
5
22B
100
AcDbSymbolTableRecord
100
AcDbBlockTableRecord
2
X47900141_OBEN_1_BL13
0
BLOCK_RECORD
5
22C
100
AcDbSymbolTableRecord
100
AcDbBlockTableRecord
2
X47400418_OBEN_1_BL14
0
BLOCK_RECORD
5
22D
100
AcDbSymbolTableRecord
100
AcDbBlockTableRecord
2
X47400403_OBEN_1_BL15
0
BLOCK_RECORD
5
22E
100
AcDbSymbolTableRecord
100
AcDbBlockTableRecord
2
X47400418_ANSICHTS_SCHABLO_BL16
0
BLOCK_RECORD
5
22F
100
AcDbSymbolTableRecord
100
AcDbBlockTableRecord
2
BY75140441_ANSICHTS_SCHABL_BL17
0
ENDTAB
0
TABLE
2
DIMSTYLE
5
A
100
AcDbSymbolTable
70
1
100
AcDbDimStyleTable
71
0
0
DIMSTYLE
105
230
100
AcDbSymbolTableRecord
100
AcDbDimStyleTableRecord
2
STANDARD
70
0
3

4

40
1.0
41
3.5000000000
42
0.0625
43
0.38
44
0.18
45
0.0
46
0.0
47
0.0010000000
48
0.0010000000
140
3.0000000000
141
0.09
142
0.0
143
25.4
144
1.0000000000
145
0.0
146
1.0000000000
147
0.09
71
1
72
0
73
0
74
0
75
0
76
0
77
1
78
8
170
0
171
2
172
0
173
0
174
0
175
0
176
0
177
0
178
5
270
2
271
3
272
3
273
2
274
2
275
0
280
0
281
0
282
0
283
1
284
8
285
0
286
0
287
3
288
0
340
11
341
21A
342
21A
343
21A
344
21A
0
DIMSTYLE
105
231
100
AcDbSymbolTableRecord
100
AcDbDimStyleTableRecord
2
DIMSTYLE_1
70
0
3

4

40
1.0
41
3.5000000000
42
0.0625
43
0.38
44
0.18
45
0.0
46
0.0
47
0.3000000000
48
0.3000000000
140
3.0000000000
141
0.09
142
0.0
143
25.4
144
1.0000000000
145
0.0
146
1.0000000000
147
0.09
71
0
72
0
73
0
74
0
75
0
76
0
77
1
78
8
170
0
171
2
172
0
173
0
174
0
175
0
176
0
177
0
178
5
270
2
271
3
272
3
273
2
274
2
275
0
280
0
281
0
282
0
283
1
284
8
285
0
286
0
287
3
288
0
340
11
341
21A
342
21A
343
21A
344
21A
0
DIMSTYLE
105
232
100
AcDbSymbolTableRecord
100
AcDbDimStyleTableRecord
2
DIMSTYLE_2
70
0
3

4

40
1.0
41
3.5000000000
42
0.0625
43
0.38
44
0.18
45
0.0
46
0.0
47
0.5000000000
48
0.5000000000
140
3.0000000000
141
0.09
142
0.0
143
25.4
144
1.0000000000
145
0.0
146
1.0000000000
147
0.09
71
0
72
0
73
0
74
0
75
0
76
0
77
1
78
8
170
0
171
2
172
0
173
0
174
0
175
0
176
0
177
0
178
5
270
2
271
3
272
3
273
2
274
2
275
0
280
0
281
0
282
0
283
1
284
8
285
0
286
0
287
3
288
0
340
11
341
21A
342
21A
343
21A
344
21A
0
ENDTAB
0
ENDSEC
0
SECTION
2
BLOCKS
0
BLOCK
5
20
100
AcDbEntity
8
0
100
AcDbBlockBegin
2
*MODEL_SPACE
70
0
10
0.0
20
0.0
30
0.0
3
*MODEL_SPACE
1

0
ENDBLK
5
21
100
AcDbEntity
8
0
100
AcDbBlockEnd
0
BLOCK
5
1C
100
AcDbEntity
8
0
100
AcDbBlockBegin
2
*PAPER_SPACE
70
0
10
0.0
20
0.0
30
0.0
3
*PAPER_SPACE
1

0
ENDBLK
5
1D
100
AcDbEntity
8
0
100
AcDbBlockEnd
0
BLOCK
5
233
100
AcDbEntity
8
0
100
AcDbBlockBegin
62
2
6
CONTINUOUS
2
*D0
70
65
10
0.0000000000
20
0.0000000000
3
*D0
1

0
TEXT
5
234
100
AcDbEntity
8
0
100
AcDbText
62
5
6
CONTINUOUS
10
126.6681681838
20
197.1502722772
7
STANDARD
40
3.0000000000
1
94
41
1.0000000000
72
0
100
AcDbText
0
LINE
5
235
100
AcDbEntity
8
0
100
AcDbLine
62
2
6
CONTINUOUS
10
176.2198785802
20
197.4002722772
11
176.2198785802
21
191.2355198020
0
LINE
5
236
100
AcDbEntity
8
0
100
AcDbLine
62
2
6
CONTINUOUS
10
82.2198785802
20
249.4604279435
11
82.2198785802
21
195.4002722772
0
LINE
5
237
100
AcDbEntity
8
0
100
AcDbLine
62
2
6
CONTINUOUS
10
176.2198785802
20
196.4002722772
11
129.2198785802
21
196.4002722772
0
LINE
5
238
100
AcDbEntity
8
0
100
AcDbLine
62
2
6
CONTINUOUS
10
82.2198785802
20
196.4002722772
11
129.2198785802
21
196.4002722772
0
INSERT
5
239
100
AcDbEntity
8
0
100
AcDbBlockReference
62
2
6
CONTINUOUS
2
_FILLED
10
176.2198785802
20
196.4002722772
41
  3.500000
42
  3.500000
43
  3.500000
0
INSERT
5
23A
100
AcDbEntity
8
0
100
AcDbBlockReference
62
2
6
CONTINUOUS
2
_FILLED
10
82.2198785802
20
196.4002722772
41
  3.500000
42
  3.500000
43
  3.500000
50
180.000000
0
ENDBLK
5
23B
100
AcDbEntity
8
0
6
BYBLOCK
62
0
100
AcDbBlockEnd
0
BLOCK
5
23C
100
AcDbEntity
8
0
100
AcDbBlockBegin
62
2
6
CONTINUOUS
2
*D1
70
65
10
0.0000000000
20
0.0000000000
3
*D1
1

0
TEXT
5
23D
100
AcDbEntity
8
0
100
AcDbText
62
5
6
CONTINUOUS
10
18.9243195683
20
246.6211496768
7
STANDARD
40
3.0000000000
1
32
50
90.0000000000
41
1.0000000000
72
0
100
AcDbText
0
LINE
5
23E
100
AcDbEntity
8
0
100
AcDbLine
62
2
6
CONTINUOUS
10
46.2198785802
20
265.4604279435
11
18.6743195683
21
265.4604279435
0
LINE
5
23F
100
AcDbEntity
8
0
100
AcDbLine
62
2
6
CONTINUOUS
10
46.2198785802
20
233.4604279435
11
18.6743195683
21
233.4604279435
0
LINE
5
240
100
AcDbEntity
8
0
100
AcDbLine
62
2
6
CONTINUOUS
10
19.6743195683
20
265.4604279435
11
19.6743195683
21
249.4604279435
0
LINE
5
241
100
AcDbEntity
8
0
100
AcDbLine
62
2
6
CONTINUOUS
10
19.6743195683
20
233.4604279435
11
19.6743195683
21
249.4604279435
0
INSERT
5
242
100
AcDbEntity
8
0
100
AcDbBlockReference
62
2
6
CONTINUOUS
2
_FILLED
10
19.6743195683
20
265.4604279435
41
  3.500000
42
  3.500000
43
  3.500000
50
 90.000000
0
INSERT
5
243
100
AcDbEntity
8
0
100
AcDbBlockReference
62
2
6
CONTINUOUS
2
_FILLED
10
19.6743195683
20
233.4604279435
41
  3.500000
42
  3.500000
43
  3.500000
50
270.000000
0
ENDBLK
5
244
100
AcDbEntity
8
0
6
BYBLOCK
62
0
100
AcDbBlockEnd
0
BLOCK
5
245
100
AcDbEntity
8
0
100
AcDbBlockBegin
62
2
6
CONTINUOUS
2
*D2
70
65
10
0.0000000000
20
0.0000000000
3
*D2
1

0
TEXT
5
246
100
AcDbEntity
8
0
100
AcDbText
62
5
6
CONTINUOUS
10
136.1962881826
20
278.8229732673
7
STANDARD
40
3.0000000000
1
242
41
1.0000000000
72
0
100
AcDbText
0
LINE
5
247
100
AcDbEntity
8
0
100
AcDbLine
62
2
6
CONTINUOUS
10
30.2198785802
20
249.4604279435
11
30.2198785802
21
279.0729732673
0
LINE
5
248
100
AcDbEntity
8
0
100
AcDbLine
62
2
6
CONTINUOUS
10
272.2198785802
20
249.4604279435
11
272.2198785802
21
279.0729732673
0
LINE
5
249
100
AcDbEntity
8
0
100
AcDbLine
62
2
6
CONTINUOUS
10
30.2198785802
20
278.0729732673
11
151.2198785802
21
278.0729732673
0
LINE
5
24A
100
AcDbEntity
8
0
100
AcDbLine
62
2
6
CONTINUOUS
10
272.2198785802
20
278.0729732673
11
151.2198785802
21
278.0729732673
0
INSERT
5
24B
100
AcDbEntity
8
0
100
AcDbBlockReference
62
2
6
CONTINUOUS
2
_FILLED
10
30.2198785802
20
278.0729732673
41
  3.500000
42
  3.500000
43
  3.500000
50
180.000000
0
INSERT
5
24C
100
AcDbEntity
8
0
100
AcDbBlockReference
62
2
6
CONTINUOUS
2
_FILLED
10
272.2198785802
20
278.0729732673
41
  3.500000
42
  3.500000
43
  3.500000
0
ENDBLK
5
24D
100
AcDbEntity
8
0
6
BYBLOCK
62
0
100
AcDbBlockEnd
0
BLOCK
5
24E
100
AcDbEntity
8
TABLE_BL0
100
AcDbBlockBegin
2
TABLE_BL0
70
64
10
317.5967040000
20
36.1167160000
3
TABLE_BL0
1

0
LINE
5
24F
100
AcDbEntity
8
TABLE_BL0
100
AcDbLine
62
2
6
CONTINUOUS
10
220.1967040000
20
67.1167160000
11
414.9967040000
21
67.1167160000
0
LINE
5
250
100
AcDbEntity
8
TABLE_BL0
100
AcDbLine
62
2
6
CONTINUOUS
10
220.1967040000
20
67.1167160000
11
220.1967040000
21
5.1167160000
0
LINE
5
251
100
AcDbEntity
8
TABLE_BL0
100
AcDbLine
62
2
6
CONTINUOUS
10
220.1967040000
20
5.1167160000
11
414.9967040000
21
5.1167160000
0
LINE
5
252
100
AcDbEntity
8
TABLE_BL0
100
AcDbLine
62
2
6
CONTINUOUS
10
407.9967040000
20
43.1167160000
11
407.9967040000
21
29.1167160000
0
LINE
5
253
100
AcDbEntity
8
TABLE_BL0
100
AcDbLine
62
2
6
CONTINUOUS
10
414.9967040000
20
67.1167160000
11
414.9967040000
21
5.1167160000
0
TEXT
5
254
100
AcDbEntity
8
TABLE_BL0
100
AcDbText
62
5
6
CONTINUOUS
10
281.4608617061
20
63.8667160000
7
STANDARD
40
2.5000000000
1
Tolerierung nach
41
1.0000000000
72
1
11
291.4967040000
21
63.8667160000
100
AcDbText
0
TEXT
5
255
100
AcDbEntity
8
TABLE_BL0
100
AcDbText
62
5
6
CONTINUOUS
10
281.7117577634
20
59.8667160000
7
STANDARD
40
2.5000000000
1
DIN ISO 2768-H
41
1.0000000000
72
1
11
291.4967040000
21
59.8667160000
100
AcDbText
0
TEXT
5
256
100
AcDbEntity
8
TABLE_BL0
100
AcDbText
62
5
6
CONTINUOUS
10
306.3336215627
20
58.3667160000
7
STANDARD
40
2.5000000000
1
Index
41
1.0000000000
72
1
11
309.4967040000
21
58.3667160000
100
AcDbText
0
TEXT
5
257
100
AcDbEntity
8
TABLE_BL0
100
AcDbText
62
5
6
CONTINUOUS
10
345.2440158280
20
58.3667160000
7
STANDARD
40
2.5000000000
1
Änderung
41
1.0000000000
72
1
11
350.9967040000
21
58.3667160000
100
AcDbText
0
TEXT
5
258
100
AcDbEntity
8
TABLE_BL0
100
AcDbText
62
5
6
CONTINUOUS
10
390.1122953978
20
58.3667160000
7
STANDARD
40
2.5000000000
1
Datum
41
1.0000000000
72
1
11
393.9967040000
21
58.3667160000
100
AcDbText
0
TEXT
5
259
100
AcDbEntity
8
TABLE_BL0
100
AcDbText
62
5
6
CONTINUOUS
10
404.5289620645
20
58.3667160000
7
STANDARD
40
2.5000000000
1
Name
41
1.0000000000
72
1
11
407.9967040000
21
58.3667160000
100
AcDbText
0
TEXT
5
25A
100
AcDbEntity
8
TABLE_BL0
100
AcDbText
62
5
6
CONTINUOUS
10
283.2350552545
20
55.8667160000
7
STANDARD
40
2.5000000000
1
DIN ISO 8015
41
1.0000000000
72
1
11
291.4967040000
21
55.8667160000
100
AcDbText
0
TEXT
5
25B
100
AcDbEntity
8
TABLE_BL0
100
AcDbText
62
5
6
CONTINUOUS
10
309.2493921720
20
48.3667160000
7
STANDARD
40
3.5000000000
1
1:1
41
1.0000000000
72
1
11
311.9967040000
21
48.3667160000
100
AcDbText
0
TEXT
5
25C
100
AcDbEntity
8
TABLE_BL0
100
AcDbText
62
5
6
CONTINUOUS
10
334.6812918136
20
48.3667160000
7
STANDARD
40
3.5000000000
1
-
41
1.0000000000
72
1
11
335.4967040000
21
48.3667160000
100
AcDbText
0
TEXT
5
25D
100
AcDbEntity
8
TABLE_BL0
100
AcDbText
62
5
6
CONTINUOUS
10
365.6812918136
20
48.3667160000
7
STANDARD
40
3.5000000000
1
-
41
1.0000000000
72
1
11
366.4967040000
21
48.3667160000
100
AcDbText
0
TEXT
5
25E
100
AcDbEntity
8
TABLE_BL0
100
AcDbText
62
5
6
CONTINUOUS
10
397.6812918136
20
48.3667160000
7
STANDARD
40
3.5000000000
1
-
41
1.0000000000
72
1
11
398.4967040000
21
48.3667160000
100
AcDbText
0
TEXT
5
25F
100
AcDbEntity
8
TABLE_BL0
100
AcDbText
62
5
6
CONTINUOUS
10
318.1122953978
20
39.5333826667
7
STANDARD
40
2.5000000000
1
Datum
41
1.0000000000
72
1
11
321.9967040000
21
39.5333826667
100
AcDbText
0
TEXT
5
260
100
AcDbEntity
8
TABLE_BL0
100
AcDbText
62
5
6
CONTINUOUS
10
333.7789620645
20
39.5333826667
7
STANDARD
40
2.5000000000
1
Name
41
1.0000000000
72
1
11
337.2467040000
21
39.5333826667
100
AcDbText
0
TEXT
5
261
100
AcDbEntity
8
TABLE_BL0
100
AcDbText
62
5
6
CONTINUOUS
10
352.9492129606
20
33.6167160000
7
STANDARD
40
5.0000000000
1
BY75140441
41
1.0000000000
72
1
11
368.7467040000
21
33.6167160000
100
AcDbText
0
TEXT
5
262
100
AcDbEntity
8
TABLE_BL0
100
AcDbText
62
5
6
CONTINUOUS
10
394.9286036416
20
33.6167160000
7
STANDARD
40
5.0000000000
1
1
41
1.0000000000
72
1
11
396.4967040000
21
33.6167160000
100
AcDbText
0
TEXT
5
263
100
AcDbEntity
8
TABLE_BL0
100
AcDbText
62
5
6
CONTINUOUS
10
402.8031556129
20
33.6167160000
7
STANDARD
40
5.0000000000
1
A
41
1.0000000000
72
1
11
404.4967040000
21
33.6167160000
100
AcDbText
0
TEXT
5
264
100
AcDbEntity
8
TABLE_BL0
100
AcDbText
62
5
6
CONTINUOUS
10
408.2350552545
20
33.6167160000
7
STANDARD
40
5.0000000000
1
A3
41
1.0000000000
72
1
11
411.4967040000
21
33.6167160000
100
AcDbText
0
TEXT
5
265
100
AcDbEntity
8
TABLE_BL0
100
AcDbText
62
5
6
CONTINUOUS
10
307.0639083011
20
34.8667160000
7
STANDARD
40
2.5000000000
1
gez.
41
1.0000000000
72
1
11
309.4967040000
21
34.8667160000
100
AcDbText
0
TEXT
5
266
100
AcDbEntity
8
TABLE_BL0
100
AcDbText
62
5
6
CONTINUOUS
10
315.1687470108
20
34.8667160000
7
STANDARD
40
2.5000000000
1
14-May-08
41
1.0000000000
72
1
11
321.9967040000
21
34.8667160000
100
AcDbText
0
TEXT
5
267
100
AcDbEntity
8
TABLE_BL0
100
AcDbText
62
5
6
CONTINUOUS
10
331.4850552545
20
34.8667160000
7
STANDARD
40
2.5000000000
1
liesegang
41
1.0000000000
72
1
11
337.2467040000
21
34.8667160000
100
AcDbText
0
TEXT
5
268
100
AcDbEntity
8
TABLE_BL0
100
AcDbText
62
5
6
CONTINUOUS
10
306.4142667240
20
30.2000493333
7
STANDARD
40
2.5000000000
1
gepr.
41
1.0000000000
72
1
11
309.4967040000
21
30.2000493333
100
AcDbText
0
TEXT
5
269
100
AcDbEntity
8
TABLE_BL0
100
AcDbText
62
5
6
CONTINUOUS
10
313.3855928889
20
19.6167160000
7
STANDARD
40
5.0000000000
1
RR-Drückerlangschild,aussen,CHRZ94
41
1.0000000000
72
1
11
359.4967040000
21
19.6167160000
100
AcDbText
0
ENDBLK
5
26A
100
AcDbEntity
8
0
6
BYBLOCK
62
0
100
AcDbBlockEnd
0
BLOCK
5
26B
100
AcDbEntity
8
X76230020_ANSICHTS_SCHABLON_BL1
100
AcDbBlockBegin
2
X76230020_ANSICHTS_SCHABLON_BL1
70
64
10
151.2198785802
20
249.4604279435
3
X76230020_ANSICHTS_SCHABLON_BL1
1

0
LINE
5
26C
100
AcDbEntity
8
X76230020_ANSICHTS_SCHABLON_BL1
100
AcDbLine
62
2
6
CENTER
10
41.2198785802
20
249.4604279435
11
41.2198785802
21
238.4604279435
0
LINE
5
26D
100
AcDbEntity
8
X76230020_ANSICHTS_SCHABLON_BL1
100
AcDbLine
62
2
6
CENTER
10
41.2198785802
20
249.4604279435
11
41.2198785802
21
260.4604279435
0
LINE
5
26E
100
AcDbEntity
8
X76230020_ANSICHTS_SCHABLON_BL1
100
AcDbLine
62
2
6
CENTER
10
154.7198785802
20
249.4604279435
11
154.7198785802
21
238.4604279435
0
LINE
5
26F
100
AcDbEntity
8
X76230020_ANSICHTS_SCHABLON_BL1
100
AcDbLine
62
2
6
CENTER
10
154.7198785802
20
249.4604279435
11
154.7198785802
21
260.4604279435
0
LINE
5
270
100
AcDbEntity
8
X76230020_ANSICHTS_SCHABLON_BL1
100
AcDbLine
62
2
6
CENTER
10
261.2198785802
20
249.4604279435
11
250.2198785802
21
249.4604279435
0
LINE
5
271
100
AcDbEntity
8
X76230020_ANSICHTS_SCHABLON_BL1
100
AcDbLine
62
2
6
CENTER
10
154.7198785802
20
249.4604279435
11
143.7198785802
21
249.4604279435
0
LINE
5
272
100
AcDbEntity
8
X76230020_ANSICHTS_SCHABLON_BL1
100
AcDbLine
62
2
6
CENTER
10
41.2198785802
20
249.4604279435
11
30.2198785802
21
249.4604279435
0
LINE
5
273
100
AcDbEntity
8
X76230020_ANSICHTS_SCHABLON_BL1
100
AcDbLine
62
2
6
CENTER
10
28.6964959561
20
249.4604279435
11
30.2198785802
21
249.4604279435
0
LINE
5
274
100
AcDbEntity
8
X76230020_ANSICHTS_SCHABLON_BL1
100
AcDbLine
62
2
6
CENTER
10
272.2198785802
20
249.4604279435
11
273.7432612043
21
249.4604279435
0
LINE
5
275
100
AcDbEntity
8
X76230020_ANSICHTS_SCHABLON_BL1
100
AcDbLine
62
2
6
CENTER
10
165.7198785802
20
249.4604279435
11
250.2198785802
21
249.4604279435
0
LINE
5
276
100
AcDbEntity
8
X76230020_ANSICHTS_SCHABLON_BL1
100
AcDbLine
62
2
6
CENTER
10
52.2198785802
20
249.4604279435
11
143.7198785802
21
249.4604279435
0
LINE
5
277
100
AcDbEntity
8
X76230020_ANSICHTS_SCHABLON_BL1
100
AcDbLine
62
2
6
CENTER
10
41.2198785802
20
249.4604279435
11
52.2198785802
21
249.4604279435
0
LINE
5
278
100
AcDbEntity
8
X76230020_ANSICHTS_SCHABLON_BL1
100
AcDbLine
62
2
6
CENTER
10
154.7198785802
20
249.4604279435
11
165.7198785802
21
249.4604279435
0
LINE
5
279
100
AcDbEntity
8
X76230020_ANSICHTS_SCHABLON_BL1
100
AcDbLine
62
2
6
CENTER
10
261.2198785802
20
249.4604279435
11
272.2198785802
21
249.4604279435
0
LINE
5
27A
100
AcDbEntity
8
X76230020_ANSICHTS_SCHABLON_BL1
100
AcDbLine
62
2
6
CENTER
10
261.2198785802
20
249.4604279435
11
261.2198785802
21
238.4604279435
0
LINE
5
27B
100
AcDbEntity
8
X76230020_ANSICHTS_SCHABLON_BL1
100
AcDbLine
62
2
6
CENTER
10
261.2198785802
20
249.4604279435
11
261.2198785802
21
260.4604279435
0
ENDBLK
5
27C
100
AcDbEntity
8
0
6
BYBLOCK
62
0
100
AcDbBlockEnd
0
BLOCK
5
27D
100
AcDbEntity
8
X76232034_ANSICHTS_SCHABLON_BL2
100
AcDbBlockBegin
2
X76232034_ANSICHTS_SCHABLON_BL2
70
64
10
151.2198785802
20
249.4604279435
3
X76232034_ANSICHTS_SCHABLON_BL2
1

0
LINE
5
27E
100
AcDbEntity
8
X76232034_ANSICHTS_SCHABLON_BL2
100
AcDbLine
62
9
6
CONTINUOUS
10
46.2198785802
20
234.9604279435
11
46.2198785802
21
233.4604279435
0
LINE
5
27F
100
AcDbEntity
8
X76232034_ANSICHTS_SCHABLON_BL2
100
AcDbLine
62
9
6
CONTINUOUS
10
46.2198785802
20
263.9604279435
11
46.2198785802
21
265.4604279435
0
LINE
5
280
100
AcDbEntity
8
X76232034_ANSICHTS_SCHABLON_BL2
100
AcDbLine
62
7
6
CONTINUOUS
10
46.2198785802
20
233.4604279435
11
165.7198785802
21
233.4604279435
0
LINE
5
281
100
AcDbEntity
8
X76232034_ANSICHTS_SCHABLON_BL2
100
AcDbLine
62
7
6
CONTINUOUS
10
186.7198785802
20
233.4604279435
11
256.2198785802
21
233.4604279435
0
LINE
5
282
100
AcDbEntity
8
X76232034_ANSICHTS_SCHABLON_BL2
100
AcDbLine
62
9
6
CONTINUOUS
10
46.2198785802
20
234.9604279435
11
165.7198785802
21
234.9604279435
0
LINE
5
283
100
AcDbEntity
8
X76232034_ANSICHTS_SCHABLON_BL2
100
AcDbLine
62
9
6
CONTINUOUS
10
186.7198785802
20
234.9604279435
11
256.2198785802
21
234.9604279435
0
LINE
5
284
100
AcDbEntity
8
X76232034_ANSICHTS_SCHABLON_BL2
100
AcDbLine
62
9
6
CONTINUOUS
10
256.2198785802
20
263.9604279435
11
46.2198785802
21
263.9604279435
0
LINE
5
285
100
AcDbEntity
8
X76232034_ANSICHTS_SCHABLON_BL2
100
AcDbLine
62
7
6
CONTINUOUS
10
256.2198785802
20
265.4604279435
11
46.2198785802
21
265.4604279435
0
LINE
5
286
100
AcDbEntity
8
X76232034_ANSICHTS_SCHABLON_BL2
100
AcDbLine
62
9
6
CONTINUOUS
10
256.2198785802
20
234.9604279435
11
256.2198785802
21
233.4604279435
0
LINE
5
287
100
AcDbEntity
8
X76232034_ANSICHTS_SCHABLON_BL2
100
AcDbLine
62
9
6
CONTINUOUS
10
256.2198785802
20
263.9604279435
11
256.2198785802
21
265.4604279435
0
CIRCLE
5
288
100
AcDbEntity
8
X76232034_ANSICHTS_SCHABLON_BL2
100
AcDbCircle
62
7
6
CONTINUOUS
10
82.2198785802
20
249.4604279435
40
11.1500000000
0
ARC
5
289
100
AcDbEntity
8
X76232034_ANSICHTS_SCHABLON_BL2
100
AcDbCircle
62
7
6
CONTINUOUS
10
46.2198785802
20
249.4604279435
40
16.0000000000
100
AcDbArc
50
90.0000000000
51
270.0000000000
0
ARC
5
28A
100
AcDbEntity
8
X76232034_ANSICHTS_SCHABLON_BL2
100
AcDbCircle
62
7
6
CONTINUOUS
10
256.2198785802
20
249.4604279435
40
16.0000000000
100
AcDbArc
50
270.0000000000
51
90.0000000000
0
ARC
5
28B
100
AcDbEntity
8
X76232034_ANSICHTS_SCHABLON_BL2
100
AcDbCircle
62
9
6
CONTINUOUS
10
46.2198785802
20
249.4604279435
40
14.4999953018
100
AcDbArc
50
90.0000000000
51
270.0000000000
0
ARC
5
28C
100
AcDbEntity
8
X76232034_ANSICHTS_SCHABLON_BL2
100
AcDbCircle
62
9
6
CONTINUOUS
10
256.2198785802
20
249.4604279435
40
14.4999953018
100
AcDbArc
50
270.0000000000
51
90.0000000000
0
ENDBLK
5
28D
100
AcDbEntity
8
0
6
BYBLOCK
62
0
100
AcDbBlockEnd
0
BLOCK
5
28E
100
AcDbEntity
8
X47900141_ANSICHTS_SCHABLON_BL3
100
AcDbBlockBegin
2
X47900141_ANSICHTS_SCHABLON_BL3
70
64
10
176.2198785802
20
184.4604279435
3
X47900141_ANSICHTS_SCHABLON_BL3
1

0
LINE
5
28F
100
AcDbEntity
8
X47900141_ANSICHTS_SCHABLON_BL3
100
AcDbLine
62
9
6
CONTINUOUS
10
186.7198785802
20
147.9604279435
11
165.7198785802
21
147.9604279435
0
LINE
5
290
100
AcDbEntity
8
X47900141_ANSICHTS_SCHABLON_BL3
100
AcDbLine
62
7
6
CONTINUOUS
10
165.7198785802
20
249.4604279435
11
165.7198785802
21
119.4604279435
0
LINE
5
291
100
AcDbEntity
8
X47900141_ANSICHTS_SCHABLON_BL3
100
AcDbLine
62
2
6
CENTER
10
176.2198785802
20
105.9604279435
11
176.2198785802
21
262.9604279435
0
LINE
5
292
100
AcDbEntity
8
X47900141_ANSICHTS_SCHABLON_BL3
100
AcDbLine
62
7
6
CONTINUOUS
10
186.7198785802
20
249.4604279435
11
186.7198785802
21
119.4604279435
0
ARC
5
293
100
AcDbEntity
8
X47900141_ANSICHTS_SCHABLON_BL3
100
AcDbCircle
62
7
6
CONTINUOUS
10
176.2198785802
20
119.4604279435
40
10.5000000000
100
AcDbArc
50
180.0000000000
51
360.0000000000
0
ARC
5
294
100
AcDbEntity
8
X47900141_ANSICHTS_SCHABLON_BL3
100
AcDbCircle
62
7
6
CONTINUOUS
10
176.2198785802
20
249.4604279435
40
10.5000000000
100
AcDbArc
50
0.0000000000
51
180.0000000000
0
SPLINE
5
295
100
AcDbEntity
8
X47900141_ANSICHTS_SCHABLON_BL3
100
AcDbSpline
62
7
6
CONTINUOUS
70
0
71
3
72
15
73
11
74
9
42
0.0000001000
43
0.0000001000
44
0.0000000001
12
0.0000000000
22
11.2213410340
32
0.0000000000
13
-11.3288955441
23
0.0025756979
33
0.0000000000
40
0.0000000000
40
0.0000000000
40
0.0000000000
40
0.0000000000
40
0.0526979800
40
0.1247838310
40
0.2226987216
40
0.3453863930
40
0.4896694055
40
0.6503364648
40
0.8225394780
40
1.0000000000
40
1.0000000000
40
1.0000000000
40
1.0000000000
10
186.7198785802
20
206.6604279435
30
0.0000000000
10
186.7198785802
20
206.8575419454
30
0.0000000000
10
186.5079523667
20
207.3242892533
30
0.0000000000
10
185.8255116678
20
207.8344631246
30
0.0000000000
10
184.8213169651
20
208.3058402205
30
0.0000000000
10
183.5008963371
20
208.7111306906
30
0.0000000000
10
181.9192806489
20
209.0440923264
30
0.0000000000
10
180.1328995740
20
209.2896972253
30
0.0000000000
10
178.2107309607
20
209.4403759278
30
0.0000000000
10
176.8900224858
20
209.4737421025
30
0.0000000000
10
176.2198785802
20
209.4738944640
30
0.0000000000
11
186.7198785802
21
206.6604279435
31
0.0000000000
11
186.5104777640
21
207.2195094677
31
0.0000000000
11
185.8934591091
21
207.7544956925
31
0.0000000000
11
184.8981494051
21
208.2442233640
31
0.0000000000
11
183.5745464335
21
208.6684181811
31
0.0000000000
11
181.9767819233
21
209.0133218866
31
0.0000000000
11
180.1743290910
21
209.2667393284
31
0.0000000000
11
178.2296372756
21
209.4218763632
31
0.0000000000
11
176.2198785802
21
209.4738944640
31
0.0000000000
0
SPLINE
5
296
100
AcDbEntity
8
X47900141_ANSICHTS_SCHABLON_BL3
100
AcDbSpline
62
7
6
CONTINUOUS
70
0
71
3
72
15
73
11
74
9
42
0.0000001000
43
0.0000001000
44
0.0000000001
12
-11.3288955441
22
-0.0025756979
32
0.0000000000
13
0.0000000000
23
-11.2213410340
33
0.0000000000
40
0.0000000000
40
0.0000000000
40
0.0000000000
40
0.0000000000
40
0.1774605220
40
0.3496635352
40
0.5103305945
40
0.6546136070
40
0.7773012784
40
0.8752161690
40
0.9473020200
40
1.0000000000
40
1.0000000000
40
1.0000000000
40
1.0000000000
10
176.2198785802
20
209.4738944640
30
0.0000000000
10
175.5497346746
20
209.4737421025
30
0.0000000000
10
174.2290261997
20
209.4403759278
30
0.0000000000
10
172.3068575864
20
209.2896972253
30
0.0000000000
10
170.5204765115
20
209.0440923264
30
0.0000000000
10
168.9388608234
20
208.7111306906
30
0.0000000000
10
167.6184401953
20
208.3058402205
30
0.0000000000
10
166.6142454926
20
207.8344631246
30
0.0000000000
10
165.9318047937
20
207.3242892533
30
0.0000000000
10
165.7198785802
20
206.8575419454
30
0.0000000000
10
165.7198785802
20
206.6604279435
30
0.0000000000
11
176.2198785802
21
209.4738944640
31
0.0000000000
11
174.2101198848
21
209.4218763632
31
0.0000000000
11
172.2654280694
21
209.2667393284
31
0.0000000000
11
170.4629752371
21
209.0133218866
31
0.0000000000
11
168.8652107269
21
208.6684181811
31
0.0000000000
11
167.5416077554
21
208.2442233640
31
0.0000000000
11
166.5462980513
21
207.7544956925
31
0.0000000000
11
165.9292793964
21
207.2195094677
31
0.0000000000
11
165.7198785802
21
206.6604279435
31
0.0000000000
0
ENDBLK
5
297
100
AcDbEntity
8
0
6
BYBLOCK
62
0
100
AcDbBlockEnd
0
BLOCK
5
298
100
AcDbEntity
8
X47400403_links_1_BL4
100
AcDbBlockBegin
2
X47400403_LINKS_1_BL4
70
64
10
317.6666666667
20
249.4604279435
3
X47400403_LINKS_1_BL4
1

0
LINE
5
299
100
AcDbEntity
8
X47400403_links_1_BL4
100
AcDbLine
62
7
6
CONTINUOUS
10
306.2666666667
20
252.4604279435
11
306.0666666667
21
252.2604279435
0
LINE
5
29A
100
AcDbEntity
8
X47400403_links_1_BL4
100
AcDbLine
62
7
6
CONTINUOUS
10
306.0666666667
20
246.6605537538
11
306.0666666667
21
252.2603021332
0
LINE
5
29B
100
AcDbEntity
8
X47400403_links_1_BL4
100
AcDbLine
62
7
6
CONTINUOUS
10
306.2666666667
20
246.4604279435
11
306.2666666667
21
252.4604279435
0
LINE
5
29C
100
AcDbEntity
8
X47400403_links_1_BL4
100
AcDbLine
62
7
6
CONTINUOUS
10
306.2666666667
20
246.4604279435
11
306.0666666667
21
246.6604279435
0
LINE
5
29D
100
AcDbEntity
8
X47400403_links_1_BL4
100
AcDbLine
62
7
6
CONTINUOUS
10
329.2666666667
20
246.4604279435
11
306.2666666667
21
246.4604279435
0
LINE
5
29E
100
AcDbEntity
8
X47400403_links_1_BL4
100
AcDbLine
62
7
6
CONTINUOUS
10
329.2666666667
20
252.4604279435
11
306.2666666667
21
252.4604279435
0
ENDBLK
5
29F
100
AcDbEntity
8
0
6
BYBLOCK
62
0
100
AcDbBlockEnd
0
BLOCK
5
2A0
100
AcDbEntity
8
X47900141_links_1_BL5
100
AcDbBlockBegin
2
X47900141_LINKS_1_BL5
70
64
10
352.8380791254
20
184.4604279435
3
X47900141_LINKS_1_BL5
1

0
LINE
5
2A1
100
AcDbEntity
8
X47900141_links_1_BL5
100
AcDbLine
62
7
6
CONTINUOUS
10
364.2666666667
20
108.9604279435
11
353.7666666667
21
108.9604279435
0
LINE
5
2A2
100
AcDbEntity
8
X47900141_links_1_BL5
100
AcDbLine
62
7
6
CONTINUOUS
10
364.2666666667
20
129.9604279435
11
353.7666666667
21
129.9604279435
0
LINE
5
2A3
100
AcDbEntity
8
X47900141_links_1_BL5
100
AcDbLine
62
9
6
CONTINUOUS
10
403.2666666667
20
147.9604279435
11
382.2666666667
21
147.9604279435
0
LINE
5
2A4
100
AcDbEntity
8
X47900141_links_1_BL5
100
AcDbLine
62
7
6
CONTINUOUS
10
331.7666666667
20
240.5104279435
11
331.7666666667
21
245.4604279435
0
LINE
5
2A5
100
AcDbEntity
8
X47900141_links_1_BL5
100
AcDbLine
62
7
6
CONTINUOUS
10
331.7666666667
20
253.4604279435
11
331.7666666667
21
258.4104279435
0
LINE
5
2A6
100
AcDbEntity
8
X47900141_links_1_BL5
100
AcDbLine
62
7
6
CONTINUOUS
10
353.7666666667
20
108.9604279435
11
353.7666666667
21
129.9604279435
0
LINE
5
2A7
100
AcDbEntity
8
X47900141_links_1_BL5
100
AcDbLine
62
9
6
CONTINUOUS
10
364.2666666667
20
108.9604279435
11
364.2666666667
21
129.9604279435
0
LINE
5
2A8
100
AcDbEntity
8
X47900141_links_1_BL5
100
AcDbLine
62
7
6
CONTINUOUS
10
382.2666666667
20
203.8469614230
11
382.2666666667
21
147.9604279435
0
LINE
5
2A9
100
AcDbEntity
8
X47900141_links_1_BL5
100
AcDbLine
62
7
6
CONTINUOUS
10
361.9938973189
20
238.9604279435
11
382.2666666667
21
203.8469614230
0
LINE
5
2AA
100
AcDbEntity
8
X47900141_links_1_BL5
100
AcDbLine
62
7
6
CONTINUOUS
10
403.2666666667
20
209.4738944640
11
403.2666666667
21
147.9604279435
0
LINE
5
2AB
100
AcDbEntity
8
X47900141_links_1_BL5
100
AcDbLine
62
7
6
CONTINUOUS
10
342.7666666667
20
238.9604279435
11
361.9938973189
21
238.9604279435
0
LINE
5
2AC
100
AcDbEntity
8
X47900141_links_1_BL5
100
AcDbLine
62
7
6
CONTINUOUS
10
333.2666666667
20
240.5104279435
11
331.7666666667
21
240.5104279435
0
LINE
5
2AD
100
AcDbEntity
8
X47900141_links_1_BL5
100
AcDbLine
62
7
6
CONTINUOUS
10
374.1182529718
20
259.9604279435
11
403.2666666667
21
209.4738944640
0
LINE
5
2AE
100
AcDbEntity
8
X47900141_links_1_BL5
100
AcDbLine
62
7
6
CENTER
10
383.6083826733
20
249.4604279435
11
302.4094915842
21
249.4604279435
0
LINE
5
2AF
100
AcDbEntity
8
X47900141_links_1_BL5
100
AcDbLine
62
7
6
CONTINUOUS
10
333.2666666667
20
258.4104279435
11
331.7666666667
21
258.4104279435
0
LINE
5
2B0
100
AcDbEntity
8
X47900141_links_1_BL5
100
AcDbLine
62
7
6
CONTINUOUS
10
342.7666666667
20
259.9604279435
11
345.2666666667
21
259.9604279435
0
LINE
5
2B1
100
AcDbEntity
8
X47900141_links_1_BL5
100
AcDbLine
62
7
6
CONTINUOUS
10
352.2666666667
20
259.9604279435
11
374.1182529718
21
259.9604279435
0
ARC
5
2B2
100
AcDbEntity
8
X47900141_links_1_BL5
100
AcDbCircle
62
7
6
CONTINUOUS
10
364.2666666667
20
147.9604279435
40
18.0000000000
100
AcDbArc
50
270.0000000000
51
360.0000000000
0
ARC
5
2B3
100
AcDbEntity
8
X47900141_links_1_BL5
100
AcDbCircle
62
7
6
CONTINUOUS
10
364.2666666667
20
147.9604279435
40
39.0000000000
100
AcDbArc
50
270.0000000000
51
360.0000000000
0
SPLINE
5
2B4
100
AcDbEntity
8
X47900141_links_1_BL5
100
AcDbSpline
62
7
6
CONTINUOUS
70
0
71
3
72
20
73
16
74
14
42
0.0000001000
43
0.0000001000
44
0.0000000001
12
-6.8641204498
22
-1.7160327835
32
0.0000000000
13
-6.8641197520
23
1.7160327086
33
0.0000000000
40
0.0000000000
40
0.0000000000
40
0.0000000000
40
0.0000000000
40
0.0156324602
40
0.0603301712
40
0.1282244129
40
0.2167972874
40
0.3216628370
40
0.4393371504
40
0.5602510468
40
0.6774896965
40
0.7820222517
40
0.8707907070
40
0.9390960996
40
0.9842390798
40
1.0000000000
40
1.0000000000
40
1.0000000000
40
1.0000000000
10
352.2666666667
20
259.9604279435
30
0.0000000000
10
352.2308989700
20
259.9514860054
30
0.0000000000
10
352.0927514521
20
259.9174120276
30
0.0000000000
10
351.7982469689
20
259.8486280298
30
0.0000000000
10
351.3337010820
20
259.7518946956
30
0.0000000000
10
350.7260230333
20
259.6478345905
30
0.0000000000
10
349.9974162297
20
259.5582750764
30
0.0000000000
10
349.1885422431
20
259.5060569730
30
0.0000000000
10
348.3487320259
20
259.5059632952
30
0.0000000000
10
347.5416547994
20
259.5577920320
30
0.0000000000
10
346.8143459166
20
259.6468110365
30
0.0000000000
10
346.2059769150
20
259.7506693311
30
0.0000000000
10
345.7389674517
20
259.8477488303
30
0.0000000000
10
345.4421904683
20
259.9170181230
30
0.0000000000
10
345.3027282812
20
259.9514125253
30
0.0000000000
10
345.2666666667
20
259.9604279435
30
0.0000000000
11
352.2666666667
21
259.9604279435
31
0.0000000000
11
352.1592786683
21
259.9339427027
31
0.0000000000
11
351.8513028812
21
259.8620574821
31
0.0000000000
11
351.3809817336
21
259.7642740348
31
0.0000000000
11
350.7632338674
21
259.6587964235
31
0.0000000000
11
350.0267623049
21
259.5686743454
31
0.0000000000
11
349.1958788796
21
259.5153582682
31
0.0000000000
11
348.3403652949
21
259.5152632908
31
0.0000000000
11
347.5125404068
21
259.5681065327
31
0.0000000000
11
346.7783616845
21
259.6575675083
31
0.0000000000
11
346.1591956576
21
259.7629607462
31
0.0000000000
11
345.6859923499
21
259.8611726224
31
0.0000000000
11
345.3749378273
21
259.9337278983
31
0.0000000000
11
345.2666666667
21
259.9604279435
31
0.0000000000
0
SPLINE
5
2B5
100
AcDbEntity
8
X47900141_links_1_BL5
100
AcDbSpline
62
7
6
CONTINUOUS
70
0
71
3
72
23
73
19
74
17
42
0.0000001000
43
0.0000001000
44
0.0000000001
12
-12.1243556530
22
-21.0000000000
32
0.0000000000
13
-12.1243556530
23
-21.0000000000
33
0.0000000000
40
0.0000000000
40
0.0000000000
40
0.0000000000
40
0.0000000000
40
0.0081945490
40
0.0329849429
40
0.0743778320
40
0.1324265460
40
0.2065964167
40
0.2949904081
40
0.3945651265
40
0.5000000000
40
0.6054348735
40
0.7050095919
40
0.7934035833
40
0.8675734540
40
0.9256221680
40
0.9670150571
40
0.9918054510
40
1.0000000000
40
1.0000000000
40
1.0000000000
40
1.0000000000
10
374.1182529718
20
259.9604279435
30
0.0000000000
10
374.0851350965
20
259.9030661008
30
0.0000000000
10
373.9518280367
20
259.6721715002
30
0.0000000000
10
373.6512336075
20
259.1515266764
30
0.0000000000
10
373.1491559691
20
258.2819026973
30
0.0000000000
10
372.4475135515
20
257.0666223813
30
0.0000000000
10
371.5559184402
20
255.5223343487
30
0.0000000000
10
370.4964979799
20
253.6873642849
30
0.0000000000
10
369.3107215151
20
251.6335392014
30
0.0000000000
10
368.0560751454
20
249.4604279435
30
0.0000000000
10
366.8014287756
20
247.2873166855
30
0.0000000000
10
365.6156523108
20
245.2334916021
30
0.0000000000
10
364.5562318505
20
243.3985215383
30
0.0000000000
10
363.6646367392
20
241.8542335057
30
0.0000000000
10
362.9629943216
20
240.6389531897
30
0.0000000000
10
362.4609166832
20
239.7693292106
30
0.0000000000
10
362.1603222540
20
239.2486843867
30
0.0000000000
10
362.0270151942
20
239.0177897861
30
0.0000000000
10
361.9938973189
20
238.9604279435
30
0.0000000000
11
374.1182529718
21
259.9604279435
31
0.0000000000
11
374.0188993459
21
259.7883424155
31
0.0000000000
11
373.7183317924
21
259.2677441417
31
0.0000000000
11
373.2164696842
21
258.3984934719
31
0.0000000000
11
372.5126664307
21
257.1794704783
31
0.0000000000
11
371.6134045397
21
255.6219031937
31
0.0000000000
11
370.5416843502
21
253.7656293741
31
0.0000000000
11
369.3344050498
21
251.6745602868
31
0.0000000000
11
368.0560751454
21
249.4604279435
31
0.0000000000
11
366.7777452409
21
247.2462956002
31
0.0000000000
11
365.5704659405
21
245.1552265129
31
0.0000000000
11
364.4987457510
21
243.2989526932
31
0.0000000000
11
363.5994838600
21
241.7413854086
31
0.0000000000
11
362.8956806065
21
240.5223624151
31
0.0000000000
11
362.3938184983
21
239.6531117453
31
0.0000000000
11
362.0932509448
21
239.1325134715
31
0.0000000000
11
361.9938973189
21
238.9604279435
31
0.0000000000
0
SPLINE
5
2B6
100
AcDbEntity
8
X47900141_links_1_BL5
100
AcDbSpline
62
7
6
CONTINUOUS
70
0
71
3
72
23
73
19
74
17
42
0.0000001000
43
0.0000001000
44
0.0000000001
12
-21.0000000000
22
-5.6269330410
32
0.0000000000
13
-21.0000000000
23
-5.6269330411
33
0.0000000000
40
0.0000000000
40
0.0000000000
40
0.0000000000
40
0.0000000000
40
0.0092444855
40
0.0368149281
40
0.0818514409
40
0.1431465910
40
0.2185330963
40
0.3055658845
40
0.4006418736
40
0.5000000000
40
0.5993581264
40
0.6944341155
40
0.7814669037
40
0.8568534090
40
0.9181485591
40
0.9631850719
40
0.9907555145
40
1.0000000000
40
1.0000000000
40
1.0000000000
40
1.0000000000
10
403.2666666667
20
209.4738944640
30
0.0000000000
10
403.2019552683
20
209.4565550971
30
0.0000000000
10
402.9442507712
20
209.3875033852
30
0.0000000000
10
402.3712906848
20
209.2339791927
30
0.0000000000
10
401.4339759458
20
208.9828264654
30
0.0000000000
10
400.1619487689
20
208.6419878106
30
0.0000000000
10
398.5959476642
20
208.2223790792
30
0.0000000000
10
396.7934806862
20
207.7394095081
30
0.0000000000
10
394.8232123601
20
207.2114777012
30
0.0000000000
10
392.7666666667
20
206.6604279435
30
0.0000000000
10
390.7101209732
20
206.1093781857
30
0.0000000000
10
388.7398526472
20
205.5814463789
30
0.0000000000
10
386.9373856691
20
205.0984768077
30
0.0000000000
10
385.3713845644
20
204.6788680764
30
0.0000000000
10
384.0993573875
20
204.3380294216
30
0.0000000000
10
383.1620426486
20
204.0868766942
30
0.0000000000
10
382.5890825621
20
203.9333525018
30
0.0000000000
10
382.3313780651
20
203.8643007899
30
0.0000000000
10
382.2666666667
20
203.8469614230
30
0.0000000000
11
403.2666666667
21
209.4738944640
31
0.0000000000
11
403.0725324715
21
209.4218763632
31
0.0000000000
11
402.4935531756
21
209.2667393284
31
0.0000000000
11
401.5477864072
21
209.0133218866
31
0.0000000000
11
400.2605882547
21
208.6684181811
31
0.0000000000
11
398.6774716449
21
208.2442233640
31
0.0000000000
11
396.8497830930
21
207.7544956925
31
0.0000000000
11
394.8531873205
21
207.2195094677
31
0.0000000000
11
392.7666666667
21
206.6604279435
31
0.0000000000
11
390.6801460128
21
206.1013464193
31
0.0000000000
11
388.6835502403
21
205.5663601944
31
0.0000000000
11
386.8558616885
21
205.0766325230
31
0.0000000000
11
385.2727450787
21
204.6524377058
31
0.0000000000
11
383.9855469261
21
204.3075340004
31
0.0000000000
11
383.0397801577
21
204.0541165586
31
0.0000000000
11
382.4608008619
21
203.8989795238
31
0.0000000000
11
382.2666666667
21
203.8469614230
31
0.0000000000
0
ENDBLK
5
2B7
100
AcDbEntity
8
0
6
BYBLOCK
62
0
100
AcDbBlockEnd
0
BLOCK
5
2B8
100
AcDbEntity
8
X47400418_links_1_BL6
100
AcDbBlockBegin
2
X47400418_LINKS_1_BL6
70
64
10
342.0166666667
20
249.4604279435
3
X47400418_LINKS_1_BL6
1

0
LINE
5
2B9
100
AcDbEntity
8
X47400418_links_1_BL6
100
AcDbLine
62
7
6
CONTINUOUS
10
342.2666666667
20
237.4604279435
11
342.7666666667
21
237.9604279435
0
LINE
5
2BA
100
AcDbEntity
8
X47400418_links_1_BL6
100
AcDbLine
62
7
6
CONTINUOUS
10
342.2666666667
20
237.4604279435
11
342.2666666667
21
261.4604279435
0
LINE
5
2BB
100
AcDbEntity
8
X47400418_links_1_BL6
100
AcDbLine
62
7
6
CONTINUOUS
10
342.7666666667
20
237.9605626912
11
342.7666666667
21
260.9602931958
0
LINE
5
2BC
100
AcDbEntity
8
X47400418_links_1_BL6
100
AcDbLine
62
7
6
CONTINUOUS
10
342.2666666667
20
261.4604279435
11
342.7666666667
21
260.9604279435
0
LINE
5
2BD
100
AcDbEntity
8
X47400418_links_1_BL6
100
AcDbLine
62
7
6
CONTINUOUS
10
341.2666666667
20
237.4604279435
11
342.2666666667
21
237.4604279435
0
LINE
5
2BE
100
AcDbEntity
8
X47400418_links_1_BL6
100
AcDbLine
62
7
6
CONTINUOUS
10
341.2666666667
20
261.4604279435
11
342.2666666667
21
261.4604279435
0
ENDBLK
5
2BF
100
AcDbEntity
8
0
6
BYBLOCK
62
0
100
AcDbBlockEnd
0
BLOCK
5
2C0
100
AcDbEntity
8
X76230020_links_1_BL7
100
AcDbBlockBegin
2
X76230020_LINKS_1_BL7
70
64
10
331.2666666667
20
249.4604279435
3
X76230020_LINKS_1_BL7
1

0
LINE
5
2C1
100
AcDbEntity
8
X76230020_links_1_BL7
100
AcDbLine
62
7
6
CONTINUOUS
10
329.2666666667
20
245.4604279435
11
329.2666666667
21
253.4604279435
0
LINE
5
2C2
100
AcDbEntity
8
X76230020_links_1_BL7
100
AcDbLine
62
7
6
CONTINUOUS
10
333.2666666667
20
252.4604279435
11
333.2666666667
21
246.4604279435
0
LINE
5
2C3
100
AcDbEntity
8
X76230020_links_1_BL7
100
AcDbLine
62
7
6
CONTINUOUS
10
329.2666666667
20
245.4604279435
11
333.2666666667
21
245.4604279435
0
LINE
5
2C4
100
AcDbEntity
8
X76230020_links_1_BL7
100
AcDbLine
62
7
6
CONTINUOUS
10
329.2666666667
20
253.4604279435
11
333.2666666667
21
253.4604279435
0
ENDBLK
5
2C5
100
AcDbEntity
8
0
6
BYBLOCK
62
0
100
AcDbBlockEnd
0
BLOCK
5
2C6
100
AcDbEntity
8
X76232034_links_1_BL8
100
AcDbBlockBegin
2
X76232034_LINKS_1_BL8
70
64
10
337.2666666667
20
249.4604279435
3
X76232034_LINKS_1_BL8
1

0
LINE
5
2C7
100
AcDbEntity
8
X76232034_links_1_BL8
100
AcDbLine
62
7
6
CONTINUOUS
10
333.2666666667
20
233.4604279435
11
333.2666666667
21
246.4604279435
0
LINE
5
2C8
100
AcDbEntity
8
X76232034_links_1_BL8
100
AcDbLine
62
7
6
CONTINUOUS
10
333.2666666667
20
252.4604279435
11
333.2666666667
21
265.4604279435
0
LINE
5
2C9
100
AcDbEntity
8
X76232034_links_1_BL8
100
AcDbLine
62
7
6
CONTINUOUS
10
335.7666666667
20
246.4604279435
11
335.7666666667
21
252.4604279435
0
LINE
5
2CA
100
AcDbEntity
8
X76232034_links_1_BL8
100
AcDbLine
62
9
6
CONTINUOUS
10
339.7666666667
20
265.4604279435
11
339.7666666667
21
233.4604279435
0
LINE
5
2CB
100
AcDbEntity
8
X76232034_links_1_BL8
100
AcDbLine
62
7
6
CONTINUOUS
10
341.2666666667
20
263.9604279435
11
341.2666666667
21
234.9604279435
0
LINE
5
2CC
100
AcDbEntity
8
X76232034_links_1_BL8
100
AcDbLine
62
7
6
CONTINUOUS
10
333.2666666667
20
233.4604279435
11
339.7666666667
21
233.4604279435
0
LINE
5
2CD
100
AcDbEntity
8
X76232034_links_1_BL8
100
AcDbLine
62
7
6
CONTINUOUS
10
333.2666666667
20
246.4604279435
11
335.7666666667
21
246.4604279435
0
LINE
5
2CE
100
AcDbEntity
8
X76232034_links_1_BL8
100
AcDbLine
62
7
6
CONTINUOUS
10
333.2666666667
20
252.4604279435
11
335.7666666667
21
252.4604279435
0
LINE
5
2CF
100
AcDbEntity
8
X76232034_links_1_BL8
100
AcDbLine
62
7
6
CONTINUOUS
10
333.2666666667
20
265.4604279435
11
339.7666666667
21
265.4604279435
0
ARC
5
2D0
100
AcDbEntity
8
X76232034_links_1_BL8
100
AcDbCircle
62
7
6
CONTINUOUS
10
339.7666666667
20
234.9604279435
40
1.5000000000
100
AcDbArc
50
270.0000000000
51
360.0000000000
0
ARC
5
2D1
100
AcDbEntity
8
X76232034_links_1_BL8
100
AcDbCircle
62
7
6
CONTINUOUS
10
339.7666666667
20
263.9604279435
40
1.5000000000
100
AcDbArc
50
0.0000000000
51
90.0000000000
0
ENDBLK
5
2D2
100
AcDbEntity
8
0
6
BYBLOCK
62
0
100
AcDbBlockEnd
0
BLOCK
5
2D3
100
AcDbEntity
8
X76232034_oben_1_BL9
100
AcDbBlockBegin
2
X76232034_OBEN_1_BL9
70
64
10
151.2198785802
20
75.6598684211
3
X76232034_OBEN_1_BL9
1

0
LINE
5
2D4
100
AcDbEntity
8
X76232034_oben_1_BL9
100
AcDbLine
62
7
6
CONTINUOUS
10
30.2198785802
20
77.1598684211
11
30.2198785802
21
73.1598684211
0
LINE
5
2D5
100
AcDbEntity
8
X76232034_oben_1_BL9
100
AcDbLine
62
7
6
CONTINUOUS
10
30.5036449347
20
79.6598684211
11
30.5036449347
21
77.1598684211
0
LINE
5
2D6
100
AcDbEntity
8
X76232034_oben_1_BL9
100
AcDbLine
62
9
6
CONTINUOUS
10
46.2198785802
20
71.6598684211
11
46.2198785802
21
79.6598684211
0
LINE
5
2D7
100
AcDbEntity
8
X76232034_oben_1_BL9
100
AcDbLine
62
7
6
CONTINUOUS
10
270.7198785802
20
71.6598684211
11
31.7198785802
21
71.6598684211
0
LINE
5
2D8
100
AcDbEntity
8
X76232034_oben_1_BL9
100
AcDbLine
62
9
6
CONTINUOUS
10
272.2198785749
20
73.1598684211
11
30.2198785856
21
73.1598684211
0
LINE
5
2D9
100
AcDbEntity
8
X76232034_oben_1_BL9
100
AcDbLine
62
7
6
CONTINUOUS
10
30.2199751119
20
77.1598684211
11
30.5036449347
21
77.1598684211
0
LINE
5
2DA
100
AcDbEntity
8
X76232034_oben_1_BL9
100
AcDbLine
62
7
6
CONTINUOUS
10
30.5036449347
20
79.6598684211
11
272.2191610866
21
79.6598684211
0
LINE
5
2DB
100
AcDbEntity
8
X76232034_oben_1_BL9
100
AcDbLine
62
9
6
CONTINUOUS
10
256.2198785802
20
71.6598684211
11
256.2198785802
21
79.6598684211
0
LINE
5
2DC
100
AcDbEntity
8
X76232034_oben_1_BL9
100
AcDbLine
62
7
6
CONTINUOUS
10
272.2198785802
20
79.6598684211
11
272.2198785802
21
73.1598684211
0
ARC
5
2DD
100
AcDbEntity
8
X76232034_oben_1_BL9
100
AcDbCircle
62
7
6
CONTINUOUS
10
31.7198785802
20
73.1598684211
40
1.5000000000
100
AcDbArc
50
180.0000000000
51
270.0000000000
0
ARC
5
2DE
100
AcDbEntity
8
X76232034_oben_1_BL9
100
AcDbCircle
62
7
6
CONTINUOUS
10
270.7198785802
20
73.1598684211
40
1.5000000000
100
AcDbArc
50
270.0000000000
51
360.0000000000
0
ENDBLK
5
2DF
100
AcDbEntity
8
0
6
BYBLOCK
62
0
100
AcDbBlockEnd
0
BLOCK
5
2E0
100
AcDbEntity
8
X76230020_oben_1_BL10
100
AcDbBlockBegin
2
X76230020_OBEN_1_BL10
70
64
10
151.2198785802
20
81.6598684211
3
X76230020_OBEN_1_BL10
1

0
LINE
5
2E1
100
AcDbEntity
8
X76230020_oben_1_BL10
100
AcDbLine
62
7
6
CONTINUOUS
10
37.2198785802
20
83.6598684211
11
37.2198785802
21
79.6598684211
0
LINE
5
2E2
100
AcDbEntity
8
X76230020_oben_1_BL10
100
AcDbLine
62
7
6
CONTINUOUS
10
45.2198785802
20
83.6598684211
11
45.2198785802
21
79.6598684211
0
LINE
5
2E3
100
AcDbEntity
8
X76230020_oben_1_BL10
100
AcDbLine
62
7
6
CONTINUOUS
10
150.7198785802
20
79.6598684211
11
150.7198785802
21
83.6598684211
0
LINE
5
2E4
100
AcDbEntity
8
X76230020_oben_1_BL10
100
AcDbLine
62
7
6
CONTINUOUS
10
158.7198785802
20
79.6598684211
11
158.7198785802
21
83.6598684211
0
LINE
5
2E5
100
AcDbEntity
8
X76230020_oben_1_BL10
100
AcDbLine
62
7
6
CONTINUOUS
10
265.2198785802
20
83.6598684211
11
257.2198785802
21
83.6598684211
0
LINE
5
2E6
100
AcDbEntity
8
X76230020_oben_1_BL10
100
AcDbLine
62
7
6
CONTINUOUS
10
45.2198785802
20
83.6598684211
11
37.2198785802
21
83.6598684211
0
LINE
5
2E7
100
AcDbEntity
8
X76230020_oben_1_BL10
100
AcDbLine
62
7
6
CONTINUOUS
10
150.7198785802
20
83.6598684211
11
158.7198785802
21
83.6598684211
0
LINE
5
2E8
100
AcDbEntity
8
X76230020_oben_1_BL10
100
AcDbLine
62
7
6
CONTINUOUS
10
257.2198785802
20
83.6598684211
11
257.2198785802
21
79.6598684211
0
LINE
5
2E9
100
AcDbEntity
8
X76230020_oben_1_BL10
100
AcDbLine
62
7
6
CONTINUOUS
10
265.2198785802
20
83.6598684211
11
265.2198785802
21
79.6598684211
0
ENDBLK
5
2EA
100
AcDbEntity
8
0
6
BYBLOCK
62
0
100
AcDbBlockEnd
0
BLOCK
5
2EB
100
AcDbEntity
8
X47400403_oben_1_BL11
100
AcDbBlockBegin
2
X47400403_OBEN_1_BL11
70
64
10
41.2198785802
20
91.3713375115
3
X47400403_OBEN_1_BL11
1

0
LINE
5
2EC
100
AcDbEntity
8
X47400403_oben_1_BL11
100
AcDbLine
62
7
6
CONTINUOUS
10
38.2198785802
20
83.6598684211
11
38.2198785802
21
106.6598684211
0
LINE
5
2ED
100
AcDbEntity
8
X47400403_oben_1_BL11
100
AcDbLine
62
7
6
CONTINUOUS
10
38.2198785802
20
106.6598684211
11
38.4198785802
21
106.8598684211
0
LINE
5
2EE
100
AcDbEntity
8
X47400403_oben_1_BL11
100
AcDbLine
62
2
6
CENTER
10
41.2198785802
20
109.8598684211
11
41.2198785802
21
72.8828066020
0
LINE
5
2EF
100
AcDbEntity
8
X47400403_oben_1_BL11
100
AcDbLine
62
7
6
CONTINUOUS
10
44.2198785802
20
83.6598684211
11
44.2198785802
21
106.6598684211
0
LINE
5
2F0
100
AcDbEntity
8
X47400403_oben_1_BL11
100
AcDbLine
62
7
6
CONTINUOUS
10
44.2198785802
20
106.6598684211
11
44.0198785802
21
106.8598684211
0
LINE
5
2F1
100
AcDbEntity
8
X47400403_oben_1_BL11
100
AcDbLine
62
7
6
CONTINUOUS
10
38.2198785802
20
106.6598684211
11
44.2198785802
21
106.6598684211
0
LINE
5
2F2
100
AcDbEntity
8
X47400403_oben_1_BL11
100
AcDbLine
62
7
6
CONTINUOUS
10
38.4198785802
20
106.8598684211
11
44.0198785802
21
106.8598684211
0
ENDBLK
5
2F3
100
AcDbEntity
8
0
6
BYBLOCK
62
0
100
AcDbBlockEnd
0
BLOCK
5
2F4
100
AcDbEntity
8
X47400403_oben_1_BL12
100
AcDbBlockBegin
2
X47400403_OBEN_1_BL12
70
64
10
154.7198785802
20
91.3713375115
3
X47400403_OBEN_1_BL12
1

0
LINE
5
2F5
100
AcDbEntity
8
X47400403_oben_1_BL12
100
AcDbLine
62
7
6
CONTINUOUS
10
151.7198785802
20
106.6598684211
11
151.9198785802
21
106.8598684211
0
LINE
5
2F6
100
AcDbEntity
8
X47400403_oben_1_BL12
100
AcDbLine
62
7
6
CONTINUOUS
10
151.7198785802
20
83.6598684211
11
151.7198785802
21
106.6598684211
0
LINE
5
2F7
100
AcDbEntity
8
X47400403_oben_1_BL12
100
AcDbLine
62
2
6
CENTER
10
154.7198785802
20
109.8598684211
11
154.7198785802
21
72.8828066020
0
LINE
5
2F8
100
AcDbEntity
8
X47400403_oben_1_BL12
100
AcDbLine
62
7
6
CONTINUOUS
10
157.7198785802
20
83.6598684211
11
157.7198785802
21
106.6598684211
0
LINE
5
2F9
100
AcDbEntity
8
X47400403_oben_1_BL12
100
AcDbLine
62
7
6
CONTINUOUS
10
157.7198785802
20
106.6598684211
11
157.5198785802
21
106.8598684211
0
LINE
5
2FA
100
AcDbEntity
8
X47400403_oben_1_BL12
100
AcDbLine
62
7
6
CONTINUOUS
10
151.7198785802
20
106.6598684211
11
157.7198785802
21
106.6598684211
0
LINE
5
2FB
100
AcDbEntity
8
X47400403_oben_1_BL12
100
AcDbLine
62
7
6
CONTINUOUS
10
151.9198785802
20
106.8598684211
11
157.5198785802
21
106.8598684211
0
ENDBLK
5
2FC
100
AcDbEntity
8
0
6
BYBLOCK
62
0
100
AcDbBlockEnd
0
BLOCK
5
2FD
100
AcDbEntity
8
X47900141_oben_1_BL13
100
AcDbBlockBegin
2
X47900141_OBEN_1_BL13
70
64
10
176.2198785802
20
45.4098684211
3
X47900141_OBEN_1_BL13
1

0
LINE
5
2FE
100
AcDbEntity
8
X47900141_oben_1_BL13
100
AcDbLine
62
7
6
CENTER
10
176.2198785802
20
64.1598684211
11
170.7198785802
21
64.1598684211
0
LINE
5
2FF
100
AcDbEntity
8
X47900141_oben_1_BL13
100
AcDbLine
62
7
6
CENTER
10
176.2198785802
20
64.1598684211
11
181.7198785802
21
64.1598684211
0
LINE
5
300
100
AcDbEntity
8
X47900141_oben_1_BL13
100
AcDbLine
62
7
6
CONTINUOUS
10
165.7198785802
20
70.1598684211
11
165.7198785802
21
20.1598684211
0
LINE
5
301
100
AcDbEntity
8
X47900141_oben_1_BL13
100
AcDbLine
62
7
6
CONTINUOUS
10
167.2698785802
20
79.6598684211
11
167.2698785802
21
81.1598684211
0
LINE
5
302
100
AcDbEntity
8
X47900141_oben_1_BL13
100
AcDbLine
62
7
6
CENTER
10
176.2198785802
20
6.6598684211
11
176.2198785802
21
84.1598684211
0
LINE
5
303
100
AcDbEntity
8
X47900141_oben_1_BL13
100
AcDbLine
62
7
6
CONTINUOUS
10
167.2698785802
20
81.1598684211
11
185.1698785802
21
81.1598684211
0
LINE
5
304
100
AcDbEntity
8
X47900141_oben_1_BL13
100
AcDbLine
62
7
6
CONTINUOUS
10
185.1698785802
20
79.6598684211
11
185.1698785802
21
81.1598684211
0
LINE
5
305
100
AcDbEntity
8
X47900141_oben_1_BL13
100
AcDbLine
62
7
6
CONTINUOUS
10
186.7198785802
20
70.1598684211
11
186.7198785802
21
20.1598684211
0
ARC
5
306
100
AcDbEntity
8
X47900141_oben_1_BL13
100
AcDbCircle
62
7
6
CONTINUOUS
10
176.2198785802
20
20.1598684211
40
10.5000000000
100
AcDbArc
50
180.0000000000
51
360.0000000000
0
CIRCLE
5
307
100
AcDbEntity
8
X47900141_oben_1_BL13
100
AcDbCircle
62
7
6
CONTINUOUS
10
176.2198785802
20
64.1598684211
40
2.5000000000
0
SPLINE
5
308
100
AcDbEntity
8
X47900141_oben_1_BL13
100
AcDbSpline
62
7
6
CONTINUOUS
70
0
71
3
72
20
73
16
74
14
42
0.0000001000
43
0.0000001000
44
0.0000000001
12
10.2653511066
22
0.0000000000
32
0.0000000000
13
-10.2653511066
23
0.0000000000
33
0.0000000000
40
0.0000000000
40
0.0000000000
40
0.0000000000
40
0.0000000000
40
0.0733484251
40
0.1468761936
40
0.2201169919
40
0.2962645444
40
0.3754158021
40
0.4583040604
40
0.5416391446
40
0.6241993566
40
0.7030038070
40
0.7791436885
40
0.8525377872
40
0.9264130645
40
1.0000000000
40
1.0000000000
40
1.0000000000
40
1.0000000000
10
176.2198785802
20
67.6598684211
30
0.0000000000
10
176.4708610259
20
67.6598684211
30
0.0000000000
10
176.9762767127
20
67.5863418399
30
0.0000000000
10
177.6704521281
20
67.2722311114
30
0.0000000000
10
178.2691929291
20
66.7875520638
30
0.0000000000
10
178.7498633376
20
66.1621220422
30
0.0000000000
10
179.0944339519
20
65.4163697612
30
0.0000000000
10
179.2754453332
20
64.5896579847
30
0.0000000000
10
179.2755087988
20
63.7318078586
30
0.0000000000
10
179.0954811766
20
62.9073200046
30
0.0000000000
10
178.7530670888
20
62.1632402318
30
0.0000000000
10
178.2742098151
20
61.5373100854
30
0.0000000000
10
177.6752155879
20
61.0502179030
30
0.0000000000
10
176.9791246641
20
60.7339364510
30
0.0000000000
10
176.4716771567
20
60.6598684211
30
0.0000000000
10
176.2198785802
20
60.6598684211
30
0.0000000000
11
176.2198785802
21
67.6598684211
31
0.0000000000
11
176.9651310163
21
67.5524975746
31
0.0000000000
11
177.6541283442
21
67.2442960986
31
0.0000000000
11
178.2404612913
21
66.7736785941
31
0.0000000000
11
178.7190306251
21
66.1556194190
31
0.0000000000
11
179.0616179915
21
65.4188594483
31
0.0000000000
11
179.2446353529
21
64.5878982940
31
0.0000000000
11
179.2446999771
21
63.7324343972
31
0.0000000000
11
179.0628956311
21
62.9046544501
31
0.0000000000
11
178.7229563246
21
62.1705904007
31
0.0000000000
11
178.2458098989
21
61.5515314857
31
0.0000000000
11
177.6592914101
21
61.0786340120
31
0.0000000000
11
176.9675044127
21
60.7679347087
31
0.0000000000
11
176.2198785802
21
60.6598684211
31
0.0000000000
0
SPLINE
5
309
100
AcDbEntity
8
X47900141_oben_1_BL13
100
AcDbSpline
62
7
6
CONTINUOUS
70
0
71
3
72
15
73
11
74
9
42
0.0000001000
43
0.0000001000
44
0.0000000001
12
-13.2196205358
22
0.0043842099
32
0.0000000000
13
0.0000000000
23
13.2773833740
33
0.0000000000
40
0.0000000000
40
0.0000000000
40
0.0000000000
40
0.0000000000
40
0.1434079653
40
0.2857349446
40
0.4241437955
40
0.5569187471
40
0.6817767615
40
0.7965859065
40
0.9016650773
40
1.0000000000
40
1.0000000000
40
1.0000000000
40
1.0000000000
10
176.2198785802
20
38.8082821159
30
0.0000000000
10
175.5879456191
20
38.8084916928
30
0.0000000000
10
174.3278243100
20
38.8735735791
30
0.0000000000
10
172.4786834124
20
39.1694552506
30
0.0000000000
10
170.7202392216
20
39.6643103981
30
0.0000000000
10
169.1118624155
20
40.3569781197
30
0.0000000000
10
167.7198086128
20
41.2426533972
30
0.0000000000
10
166.6194135454
20
42.3093450556
30
0.0000000000
10
165.8941365670
20
43.5349808185
30
0.0000000000
10
165.7198785802
20
44.4352497862
30
0.0000000000
10
165.7198785802
20
44.8704599424
30
0.0000000000
11
176.2198785802
21
38.8082821159
31
0.0000000000
11
174.3266848082
21
38.9076357418
31
0.0000000000
11
172.4693387540
21
39.2082032953
31
0.0000000000
11
170.7097983076
21
39.7100654035
31
0.0000000000
11
169.1018463841
21
40.4138686570
31
0.0000000000
11
167.7177480978
21
41.3131305480
31
0.0000000000
11
166.6430711455
21
42.3848507375
31
0.0000000000
11
165.9559798099
21
43.5921300380
31
0.0000000000
11
165.7198785802
21
44.8704599424
31
0.0000000000
0
SPLINE
5
30A
100
AcDbEntity
8
X47900141_oben_1_BL13
100
AcDbSpline
62
7
6
CONTINUOUS
70
0
71
3
72
15
73
11
74
9
42
0.0000001000
43
0.0000001000
44
0.0000000001
12
0.0000000000
22
-13.2773833740
32
0.0000000000
13
-13.2196205358
23
-0.0043842099
33
0.0000000000
40
0.0000000000
40
0.0000000000
40
0.0000000000
40
0.0000000000
40
0.0983349227
40
0.2034140935
40
0.3182232385
40
0.4430812529
40
0.5758562045
40
0.7142650554
40
0.8565920347
40
1.0000000000
40
1.0000000000
40
1.0000000000
40
1.0000000000
10
186.7198785802
20
44.8704599424
30
0.0000000000
10
186.7198785802
20
44.4352497862
30
0.0000000000
10
186.5456205934
20
43.5349808185
30
0.0000000000
10
185.8203436150
20
42.3093450556
30
0.0000000000
10
184.7199485476
20
41.2426533972
30
0.0000000000
10
183.3278947449
20
40.3569781197
30
0.0000000000
10
181.7195179388
20
39.6643103981
30
0.0000000000
10
179.9610737480
20
39.1694552506
30
0.0000000000
10
178.1119328504
20
38.8735735791
30
0.0000000000
10
176.8518115413
20
38.8084916928
30
0.0000000000
10
176.2198785802
20
38.8082821159
30
0.0000000000
11
186.7198785802
21
44.8704599424
31
0.0000000000
11
186.4837773505
21
43.5921300380
31
0.0000000000
11
185.7966860150
21
42.3848507375
31
0.0000000000
11
184.7220090627
21
41.3131305480
31
0.0000000000
11
183.3379107763
21
40.4138686570
31
0.0000000000
11
181.7299588528
21
39.7100654035
31
0.0000000000
11
179.9704184064
21
39.2082032953
31
0.0000000000
11
178.1130723522
21
38.9076357418
31
0.0000000000
11
176.2198785802
21
38.8082821159
31
0.0000000000
0
SPLINE
5
30B
100
AcDbEntity
8
X47900141_oben_1_BL13
100
AcDbSpline
62
7
6
CONTINUOUS
70
0
71
3
72
20
73
16
74
14
42
0.0000001000
43
0.0000001000
44
0.0000000001
12
-10.2653494579
22
0.0000000000
32
0.0000000000
13
10.2653494579
23
0.0000000000
33
0.0000000000
40
0.0000000000
40
0.0000000000
40
0.0000000000
40
0.0000000000
40
0.0733543285
40
0.1468378613
40
0.2200487000
40
0.2961721888
40
0.3753029918
40
0.4581890264
40
0.5415289698
40
0.6240883647
40
0.7028939055
40
0.7790268792
40
0.8524352025
40
0.9263429329
40
1.0000000000
40
1.0000000000
40
1.0000000000
40
1.0000000000
10
176.2198785802
20
60.6598684211
30
0.0000000000
10
175.9688759749
20
60.6598684211
30
0.0000000000
10
175.4635910166
20
60.7333825411
30
0.0000000000
10
174.7696225259
20
61.0473470307
30
0.0000000000
10
174.1710615331
20
61.5317012961
30
0.0000000000
10
173.6903977208
20
62.1568082745
30
0.0000000000
10
173.3456830705
20
62.9023136352
30
0.0000000000
10
173.1644365219
20
63.7289112763
30
0.0000000000
10
173.1641227385
20
64.5867683856
30
0.0000000000
10
173.3439136247
20
65.4113249400
30
0.0000000000
10
173.6860901938
20
66.1554878549
30
0.0000000000
10
174.1647498702
20
66.7816008656
30
0.0000000000
10
174.7636727526
20
67.2689994298
30
0.0000000000
10
175.4600339262
20
67.5856749766
30
0.0000000000
10
175.9678400689
20
67.6598684211
30
0.0000000000
10
176.2198785802
20
67.6598684211
30
0.0000000000
11
176.2198785802
21
60.6598684211
31
0.0000000000
11
175.4745675119
21
60.7672564194
31
0.0000000000
11
174.7859668181
21
61.0752322065
31
0.0000000000
11
174.1997905311
21
61.5455533541
31
0.0000000000
11
173.7212228723
21
62.1633012203
31
0.0000000000
11
173.3785136481
21
62.8997727828
31
0.0000000000
11
173.1952503113
21
63.7306562081
31
0.0000000000
11
173.1949345908
21
64.5861697928
31
0.0000000000
11
173.3764944102
21
65.4139946809
31
0.0000000000
11
173.7162123295
21
66.1481734033
31
0.0000000000
11
174.1931033461
21
66.7673394301
31
0.0000000000
11
174.7795625994
21
67.2405427379
31
0.0000000000
11
175.4715550829
21
67.5515972604
31
0.0000000000
11
176.2198785802
21
67.6598684211
31
0.0000000000
0
ENDBLK
5
30C
100
AcDbEntity
8
0
6
BYBLOCK
62
0
100
AcDbBlockEnd
0
BLOCK
5
30D
100
AcDbEntity
8
X47400418_oben_1_BL14
100
AcDbBlockBegin
2
X47400418_OBEN_1_BL14
70
64
10
176.2198785802
20
70.9098684211
3
X47400418_OBEN_1_BL14
1

0
LINE
5
30E
100
AcDbEntity
8
X47400418_oben_1_BL14
100
AcDbLine
62
7
6
CONTINUOUS
10
164.2198785802
20
71.6598684211
11
164.2198785802
21
70.6598684211
0
LINE
5
30F
100
AcDbEntity
8
X47400418_oben_1_BL14
100
AcDbLine
62
7
6
CONTINUOUS
10
188.2198785802
20
70.6598684211
11
187.7198785802
21
70.1598684211
0
LINE
5
310
100
AcDbEntity
8
X47400418_oben_1_BL14
100
AcDbLine
62
7
6
CONTINUOUS
10
187.7198785802
20
70.1598684211
11
164.7198785802
21
70.1598684211
0
LINE
5
311
100
AcDbEntity
8
X47400418_oben_1_BL14
100
AcDbLine
62
7
6
CONTINUOUS
10
188.2198785802
20
70.6598684211
11
164.2198785802
21
70.6598684211
0
LINE
5
312
100
AcDbEntity
8
X47400418_oben_1_BL14
100
AcDbLine
62
7
6
CONTINUOUS
10
164.2198785802
20
70.6598684211
11
164.7198785802
21
70.1598684211
0
LINE
5
313
100
AcDbEntity
8
X47400418_oben_1_BL14
100
AcDbLine
62
7
6
CONTINUOUS
10
188.2198785802
20
71.6598684211
11
188.2198785802
21
70.6598684211
0
ENDBLK
5
314
100
AcDbEntity
8
0
6
BYBLOCK
62
0
100
AcDbBlockEnd
0
BLOCK
5
315
100
AcDbEntity
8
X47400403_oben_1_BL15
100
AcDbBlockBegin
2
X47400403_OBEN_1_BL15
70
64
10
261.2198785802
20
91.3713375115
3
X47400403_OBEN_1_BL15
1

0
LINE
5
316
100
AcDbEntity
8
X47400403_oben_1_BL15
100
AcDbLine
62
7
6
CONTINUOUS
10
258.2198785802
20
106.6598684211
11
258.4198785802
21
106.8598684211
0
LINE
5
317
100
AcDbEntity
8
X47400403_oben_1_BL15
100
AcDbLine
62
7
6
CONTINUOUS
10
258.2198785802
20
106.6598684211
11
264.2198785802
21
106.6598684211
0
LINE
5
318
100
AcDbEntity
8
X47400403_oben_1_BL15
100
AcDbLine
62
7
6
CONTINUOUS
10
258.4198785802
20
106.8598684211
11
264.0198785802
21
106.8598684211
0
LINE
5
319
100
AcDbEntity
8
X47400403_oben_1_BL15
100
AcDbLine
62
7
6
CONTINUOUS
10
258.2198785802
20
83.6598684211
11
258.2198785802
21
106.6598684211
0
LINE
5
31A
100
AcDbEntity
8
X47400403_oben_1_BL15
100
AcDbLine
62
7
6
CENTER
10
261.2198785802
20
109.8598684211
11
261.2198785802
21
72.8828066020
0
LINE
5
31B
100
AcDbEntity
8
X47400403_oben_1_BL15
100
AcDbLine
62
7
6
CONTINUOUS
10
264.2198785802
20
83.6598684211
11
264.2198785802
21
106.6598684211
0
LINE
5
31C
100
AcDbEntity
8
X47400403_oben_1_BL15
100
AcDbLine
62
7
6
CONTINUOUS
10
264.2198785802
20
106.6598684211
11
264.0198785802
21
106.8598684211
0
ENDBLK
5
31D
100
AcDbEntity
8
0
6
BYBLOCK
62
0
100
AcDbBlockEnd
0
BLOCK
5
31E
100
AcDbEntity
8
X47400418_ANSICHTS_SCHABLO_BL16
100
AcDbBlockBegin
2
X47400418_ANSICHTS_SCHABLO_BL16
70
64
10
176.2198785802
20
244.2198408468
3
X47400418_ANSICHTS_SCHABLO_BL16
1

0
ARC
5
31F
100
AcDbEntity
8
X47400418_ANSICHTS_SCHABLO_BL16
100
AcDbCircle
62
7
6
CONTINUOUS
10
176.2198785802
20
249.4604279435
40
12.0000000000
100
AcDbArc
50
331.0627615426
51
208.9372384574
0
ARC
5
320
100
AcDbEntity
8
X47400418_ANSICHTS_SCHABLO_BL16
100
AcDbCircle
62
7
6
CONTINUOUS
10
176.2198785802
20
249.4604279435
40
11.5000000000
100
AcDbArc
50
336.0137018116
51
203.9862981884
0
ENDBLK
5
321
100
AcDbEntity
8
0
6
BYBLOCK
62
0
100
AcDbBlockEnd
0
BLOCK
5
322
100
AcDbEntity
8
BY75140441_ANSICHTS_SCHABL_BL17
100
AcDbBlockBegin
2
BY75140441_ANSICHTS_SCHABL_BL17
70
64
10
0.0000000000
20
0.0000000000
3
BY75140441_ANSICHTS_SCHABL_BL17
1

0
DIMENSION
5
323
100
AcDbEntity
8
0
100
AcDbDimension
62
2
6
CONTINUOUS
2
*D0
10
82.2198785802
20
196.4002722772
11
128.5498886139
21
198.6502722772
70
160
42
94.000000
3
DIMSTYLE_1
100
AcDbAlignedDimension
13
176.2198785802
23
191.2355198020
14
82.2198785802
24
249.4604279435
50
180.000000
100
AcDbRotatedDimension
0
DIMENSION
5
324
100
AcDbEntity
8
0
100
AcDbDimension
62
2
6
CONTINUOUS
2
*D1
10
19.6743195683
20
233.4604279435
11
17.4243195683
21
248.5028701069
70
160
42
32.000000
3
DIMSTYLE_1
100
AcDbAlignedDimension
13
46.2198785802
23
265.4604279435
14
46.2198785802
24
233.4604279435
50
270.000000
100
AcDbRotatedDimension
0
DIMENSION
5
325
100
AcDbEntity
8
0
100
AcDbDimension
62
2
6
CONTINUOUS
2
*D2
10
272.2198785802
20
278.0729732673
11
139.0188688277
21
280.3229732673
70
160
42
242.000000
3
DIMSTYLE_2
100
AcDbAlignedDimension
13
30.2198785802
23
249.4604279435
14
272.2198785802
24
249.4604279435
100
AcDbRotatedDimension
0
ENDBLK
5
326
100
AcDbEntity
8
0
6
BYBLOCK
62
0
100
AcDbBlockEnd
0
BLOCK
5
327
100
AcDbEntity
8
0
100
AcDbBlockBegin
2
_FILLED
70
64
10
0.0000000000
20
0.0000000000
3
_FILLED
1

0
SOLID
5
328
100
AcDbEntity
8
0
6
BYBLOCK
62
0
100
AcDbTrace
10
0.0000000000
20
0.0000000000
11
-1.0000000000
21
0.1428571429
12
-1.0000000000
22
-0.1428571429
13
-1.0000000000
23
-0.1428571429
0
ENDBLK
5
329
100
AcDbEntity
8
0
6
BYBLOCK
62
0
100
AcDbBlockEnd
0
ENDSEC
0
SECTION
2
ENTITIES
0
TEXT
5
32A
100
AcDbEntity
8
0
100
AcDbText
62
5
6
CONTINUOUS
10
307.6416272428
20
54.2173257650
7
STANDARD
40
2.5000000000
1
Maßstab
41
1.0000000000
72
0
100
AcDbText
0
TEXT
5
32B
100
AcDbEntity
8
0
100
AcDbText
62
5
6
CONTINUOUS
10
320.4750413704
20
54.0806764944
7
STANDARD
40
2.5000000000
1
Artikel-Nr.
41
1.0000000000
72
0
100
AcDbText
0
TEXT
5
32C
100
AcDbEntity
8
0
100
AcDbText
62
5
6
CONTINUOUS
10
351.0781481262
20
54.0810924510
7
STANDARD
40
2.5000000000
1
Werkstoff
41
1.0000000000
72
0
100
AcDbText
0
TEXT
5
32D
100
AcDbEntity
8
0
100
AcDbText
62
5
6
CONTINUOUS
10
381.9834501473
20
54.1324699861
7
STANDARD
40
2.5000000000
1
Rohteil
41
1.0000000000
72
0
100
AcDbText
0
TEXT
5
32E
100
AcDbEntity
8
0
100
AcDbText
62
5
6
CONTINUOUS
10
345.5561552756
20
40.0939172989
7
STANDARD
40
2.5000000000
1
Zeichnung Nr.
41
1.0000000000
72
0
100
AcDbText
0
TEXT
5
32F
100
AcDbEntity
8
0
100
AcDbText
62
5
6
CONTINUOUS
10
306.3472125584
20
26.0329579114
7
STANDARD
40
2.5000000000
1
Benennung
41
1.0000000000
72
0
100
AcDbText
0
TEXT
5
330
100
AcDbEntity
8
0
100
AcDbText
62
5
6
CONTINUOUS
10
409.6860983587
20
40.0361553781
7
STANDARD
40
2.5000000000
1
Gr.
41
1.0000000000
72
0
100
AcDbText
0
TEXT
5
331
100
AcDbEntity
8
0
100
AcDbText
62
5
6
CONTINUOUS
10
401.4187619902
20
40.1811556252
7
STANDARD
40
2.5000000000
1
Index
41
1.0000000000
72
0
100
AcDbText
0
TEXT
5
332
100
AcDbEntity
8
0
100
AcDbText
62
5
6
CONTINUOUS
10
393.7734845048
20
40.1072976996
7
STANDARD
40
2.5000000000
1
Blatt
41
1.0000000000
72
0
100
AcDbText
0
TEXT
5
333
100
AcDbEntity
8
0
100
AcDbText
62
5
6
CONTINUOUS
10
261.2704533773
20
52.4449752344
7
STANDARD
40
2.5000000000
1
+0,1
41
1.0000000000
72
1
11
264.6306684310
21
52.4449752344
100
AcDbText
0
TEXT
5
334
100
AcDbEntity
8
0
100
AcDbText
62
5
6
CONTINUOUS
10
273.3323135288
20
52.3274713628
7
STANDARD
40
2.5000000000
1
-0,1
41
1.0000000000
72
1
11
275.8771163962
21
52.3274713628
100
AcDbText
0
MTEXT
5
335
100
AcDbEntity
8
0
100
AcDbMText
62
5
6
CONTINUOUS
7
STANDARD
71
2
72
1
10
267.4213391322
20
63.6058845423
30
0.0000000000
11
1.0000000000
21
0.0000000000
31
0.0000000000
1
Werkstückkanten\PDIN 6784
40
2.5000000000
41
20.0089605735
0
TEXT
5
336
100
AcDbEntity
8
0
100
AcDbText
62
5
6
CONTINUOUS
10
222.3596525291
20
62.7614126265
7
STANDARD
40
2.5000000000
1
X
41
1.0000000000
72
0
100
AcDbText
0
TEXT
5
337
100
AcDbEntity
8
0
100
AcDbText
62
5
6
CONTINUOUS
10
222.4451990012
20
54.7200442509
7
STANDARD
40
2.5000000000
1
Y
41
1.0000000000
72
0
100
AcDbText
0
TEXT
5
338
100
AcDbEntity
8
0
100
AcDbText
62
5
6
CONTINUOUS
10
222.5526039762
20
46.7602382586
7
STANDARD
40
2.5000000000
1
Z
41
1.0000000000
72
0
100
AcDbText
0
TEXT
5
339
100
AcDbEntity
8
0
100
AcDbText
62
5
6
CONTINUOUS
10
234.8695725956
20
61.8895548504
7
STANDARD
40
2.5000000000
1
Rz100
41
1.0000000000
72
0
100
AcDbText
0
TEXT
5
33A
100
AcDbEntity
8
0
100
AcDbText
62
5
6
CONTINUOUS
10
234.8119617051
20
54.2111373443
7
STANDARD
40
2.5000000000
1
Rz 25
41
1.0000000000
72
0
100
AcDbText
0
TEXT
5
33B
100
AcDbEntity
8
0
100
AcDbText
62
5
6
CONTINUOUS
10
234.6779376574
20
46.1630836611
7
STANDARD
40
2.5000000000
1
Rz 6,3
41
1.0000000000
72
0
100
AcDbText
0
TEXT
5
33C
100
AcDbEntity
8
0
100
AcDbText
62
5
6
CONTINUOUS
10
226.4768418164
20
60.5953267195
7
STANDARD
40
3.5000000000
1
=
41
1.0000000000
72
0
100
AcDbText
0
TEXT
5
33D
100
AcDbEntity
8
0
100
AcDbText
62
5
6
CONTINUOUS
10
243.1674153804
20
60.8262945967
7
STANDARD
40
3.5000000000
1
=
41
1.0000000000
72
0
100
AcDbText
0
TEXT
5
33E
100
AcDbEntity
8
0
100
AcDbText
62
5
6
CONTINUOUS
10
242.9179014313
20
53.2784976352
7
STANDARD
40
3.5000000000
1
=
41
1.0000000000
72
0
100
AcDbText
0
TEXT
5
33F
100
AcDbEntity
8
0
100
AcDbText
62
5
6
CONTINUOUS
10
242.6683874821
20
45.1069158008
7
STANDARD
40
3.5000000000
1
=
41
1.0000000000
72
0
100
AcDbText
0
TEXT
5
340
100
AcDbEntity
8
0
100
AcDbText
62
5
6
CONTINUOUS
10
226.3063195368
20
44.8946459010
7
STANDARD
40
3.5000000000
1
=
41
1.0000000000
72
0
100
AcDbText
0
TEXT
5
341
100
AcDbEntity
8
0
100
AcDbText
62
5
6
CONTINUOUS
10
226.3803218332
20
52.8128916124
7
STANDARD
40
3.5000000000
1
=
41
1.0000000000
72
0
100
AcDbText
0
TEXT
5
342
100
AcDbEntity
8
0
100
AcDbText
62
5
6
CONTINUOUS
10
221.5466549041
20
39.7694217762
7
STANDARD
40
2.5000000000
1
Freimaßtoleranz
41
1.0000000000
72
0
100
AcDbText
0
TEXT
5
343
100
AcDbEntity
8
0
100
AcDbText
62
5
6
CONTINUOUS
10
223.5300399327
20
35.2103522443
7
STANDARD
40
2.5000000000
1
Nennmaß:
41
1.0000000000
72
0
100
AcDbText
0
MTEXT
5
344
100
AcDbEntity
8
0
100
AcDbMText
62
5
6
CONTINUOUS
7
STANDARD
71
1
72
1
10
223.4494921785
20
33.1326310804
30
0.0000000000
11
1.0000000000
21
0.0000000000
31
0.0000000000
1
Länge\PRadius
40
2.5000000000
41
8.1182795699
0
TEXT
5
345
100
AcDbEntity
8
0
100
AcDbText
62
5
6
CONTINUOUS
10
223.5303863039
20
20.6826536631
7
STANDARD
40
2.5000000000
1
Winkel
41
1.0000000000
72
0
100
AcDbText
0
TEXT
5
346
100
AcDbEntity
8
0
100
AcDbText
62
5
6
CONTINUOUS
10
238.5770027226
20
35.2729345822
7
STANDARD
40
2.5000000000
1
<6
41
1.0000000000
72
0
100
AcDbText
0
TEXT
5
347
100
AcDbEntity
8
0
100
AcDbText
62
5
6
CONTINUOUS
10
248.2265538752
20
35.2059800702
7
STANDARD
40
2.5000000000
1
>6
41
1.0000000000
72
0
100
AcDbText
0
TEXT
5
348
100
AcDbEntity
8
0
100
AcDbText
62
5
6
CONTINUOUS
10
256.1305879732
20
35.3073138407
7
STANDARD
40
2.5000000000
1
>30
41
1.0000000000
72
0
100
AcDbText
0
TEXT
5
349
100
AcDbEntity
8
0
100
AcDbText
62
5
6
CONTINUOUS
10
264.2372896123
20
35.1046462997
7
STANDARD
40
2.5000000000
1
>120
41
1.0000000000
72
0
100
AcDbText
0
TEXT
5
34A
100
AcDbEntity
8
0
100
AcDbText
62
5
6
CONTINUOUS
10
237.3838404329
20
28.6192849885
7
STANDARD
40
2.5000000000
1
%%p0,1
41
1.0000000000
72
0
100
AcDbText
0
TEXT
5
34B
100
AcDbEntity
8
0
100
AcDbText
62
5
6
CONTINUOUS
10
246.6052135474
20
28.5179512180
7
STANDARD
40
2.5000000000
1
%%p0,2
41
1.0000000000
72
0
100
AcDbText
0
TEXT
5
34C
100
AcDbEntity
8
0
100
AcDbText
62
5
6
CONTINUOUS
10
255.7252528913
20
28.5179512180
7
STANDARD
40
2.5000000000
1
%%p0,3
41
1.0000000000
72
0
100
AcDbText
0
TEXT
5
34D
100
AcDbEntity
8
0
100
AcDbText
62
5
6
CONTINUOUS
10
264.6426246943
20
28.3152836770
7
STANDARD
40
2.5000000000
1
%%p0,5
41
1.0000000000
72
0
100
AcDbText
0
TEXT
5
34E
100
AcDbEntity
8
0
100
AcDbText
62
5
6
CONTINUOUS
10
235.8638338756
20
20.5125833494
7
STANDARD
40
2.5000000000
1
%%p1%%d30'
41
1.0000000000
72
0
100
AcDbText
0
TEXT
5
34F
100
AcDbEntity
8
0
100
AcDbText
62
5
6
CONTINUOUS
10
246.9092148588
20
20.3099158085
7
STANDARD
40
2.5000000000
1
%%p1%%d
41
1.0000000000
72
0
100
AcDbText
0
TEXT
5
350
100
AcDbEntity
8
0
100
AcDbText
62
5
6
CONTINUOUS
10
255.7252528913
20
20.2085820380
7
STANDARD
40
2.5000000000
1
%%p30'
41
1.0000000000
72
0
100
AcDbText
0
TEXT
5
351
100
AcDbEntity
8
0
100
AcDbText
62
5
6
CONTINUOUS
10
264.6426246943
20
20.1072482675
7
STANDARD
40
2.5000000000
1
%%p20'
41
1.0000000000
72
0
100
AcDbText
0
TEXT
5
352
100
AcDbEntity
8
0
100
AcDbText
62
5
6
CONTINUOUS
10
225.3420713747
20
15.9527642304
7
STANDARD
40
2.5000000000
1
(nach Länge des kürzeren Schenkels)
41
1.0000000000
72
0
100
AcDbText
0
TEXT
5
353
100
AcDbEntity
8
0
100
AcDbText
62
5
6
CONTINUOUS
10
221.5466549041
20
11.5201940899
7
STANDARD
40
2.5000000000
1
Bemerkung:
41
1.0000000000
72
0
100
AcDbText
0
TEXT
5
354
100
AcDbEntity
8
0
100
AcDbText
62
5
6
CONTINUOUS
10
9.1697487686
20
4.9815084653
7
STANDARD
40
2.5000000000
1
Für diese Unterlage behalten wir uns alle Rechte nach DIN 34 vor.
50
90.0000000000
41
1.0000000000
72
0
100
AcDbText
0
LINE
5
355
100
AcDbEntity
8
0
100
AcDbLine
62
2
6
CONTINUOUS
10
0.0000000000
20
297.0000000000
11
0.0000000000
21
0.0000000000
0
LINE
5
356
100
AcDbEntity
8
0
100
AcDbLine
62
7
6
CONTINUOUS
10
10.1167100000
20
5.1167160000
11
10.1167100000
21
291.8832700000
0
LINE
5
357
100
AcDbEntity
8
0
100
AcDbLine
62
2
6
CONTINUOUS
10
0.0000000000
20
0.0000000000
11
420.0000000000
21
0.0000000000
0
LINE
5
358
100
AcDbEntity
8
0
100
AcDbLine
62
7
6
CONTINUOUS
10
414.9967040000
20
5.1167160000
11
10.1167100000
21
5.1167160000
0
LINE
5
359
100
AcDbEntity
8
0
100
AcDbLine
62
7
6
CONTINUOUS
10
220.2300370000
20
15.1167160000
11
414.9967040000
21
15.1167160000
0
LINE
5
35A
100
AcDbEntity
8
0
100
AcDbLine
62
2
6
CONTINUOUS
10
280.5274430000
20
17.7963070000
11
296.7525480000
21
17.7963070000
0
LINE
5
35B
100
AcDbEntity
8
0
100
AcDbLine
62
2
6
CONTINUOUS
10
280.8582460000
20
18.2963090000
11
296.4217450000
21
18.2963070000
0
LINE
5
35C
100
AcDbEntity
8
0
100
AcDbLine
62
2
6
CONTINUOUS
10
281.5486450000
20
19.0963080000
11
283.8596420000
21
19.0963080000
0
LINE
5
35D
100
AcDbEntity
8
0
100
AcDbLine
62
2
6
CONTINUOUS
10
286.3487470000
20
19.0963080000
11
288.3487470000
21
19.0963080000
0
LINE
5
35E
100
AcDbEntity
8
0
100
AcDbLine
62
2
6
CONTINUOUS
10
289.8843460000
20
19.0963080000
11
291.8843460000
21
19.0963080000
0
LINE
5
35F
100
AcDbEntity
8
0
100
AcDbLine
62
2
6
CONTINUOUS
10
292.8672490000
20
19.0963080000
11
293.1172490000
21
19.0963080000
0
LINE
5
360
100
AcDbEntity
8
0
100
AcDbLine
62
2
6
CONTINUOUS
10
281.5486450000
20
19.3963050000
11
281.8487470000
21
19.3963050000
0
LINE
5
361
100
AcDbEntity
8
0
100
AcDbLine
62
2
6
CONTINUOUS
10
282.8487470000
20
19.3963050000
11
283.3487470000
21
19.3963050000
0
LINE
5
362
100
AcDbEntity
8
0
100
AcDbLine
62
2
6
CONTINUOUS
10
286.3487470000
20
19.3963050000
11
286.8487470000
21
19.3963050000
0
LINE
5
363
100
AcDbEntity
8
0
100
AcDbLine
62
2
6
CONTINUOUS
10
287.8487470000
20
19.3963050000
11
288.3487470000
21
19.3963050000
0
LINE
5
364
100
AcDbEntity
8
0
100
AcDbLine
62
2
6
CONTINUOUS
10
289.8843460000
20
19.3963050000
11
290.2842480000
21
19.3963050000
0
LINE
5
365
100
AcDbEntity
8
0
100
AcDbLine
62
2
6
CONTINUOUS
10
291.4168470000
20
19.3963050000
11
291.8843460000
21
19.3963050000
0
LINE
5
366
100
AcDbEntity
8
0
100
AcDbLine
62
2
6
CONTINUOUS
10
292.8672490000
20
20.6063060000
11
293.1172490000
21
20.6063060000
0
LINE
5
367
100
AcDbEntity
8
0
100
AcDbLine
62
2
6
CONTINUOUS
10
282.8487470000
20
21.4449480000
11
283.3487470000
21
21.4449480000
0
LINE
5
368
100
AcDbEntity
8
0
100
AcDbLine
62
2
6
CONTINUOUS
10
282.8487470000
20
21.7449470000
11
283.2232440000
21
21.7449470000
0
LINE
5
369
100
AcDbEntity
8
0
100
AcDbLine
62
2
6
CONTINUOUS
10
295.6131440000
20
22.4591670000
11
295.8672490000
21
22.4591670000
0
LINE
5
36A
100
AcDbEntity
8
0
100
AcDbLine
62
2
6
CONTINUOUS
10
295.6118470000
20
23.9739380000
11
295.8672490000
21
23.9739380000
0
LINE
5
36B
100
AcDbEntity
8
0
100
AcDbLine
62
2
6
CONTINUOUS
10
220.2300370000
20
26.1167140000
11
272.2300380000
21
26.1167140000
0
LINE
5
36C
100
AcDbEntity
8
0
100
AcDbLine
62
7
6
CONTINUOUS
10
304.2300340000
20
29.1167140000
11
414.9967040000
21
29.1167140000
0
LINE
5
36D
100
AcDbEntity
8
0
100
AcDbLine
62
2
6
CONTINUOUS
10
294.8098450000
20
19.0963120000
11
293.2258450000
21
19.2348940000
0
LINE
5
36E
100
AcDbEntity
8
0
100
AcDbLine
62
2
6
CONTINUOUS
10
345.2300410000
20
33.6167140000
11
304.2300340000
21
33.6167140000
0
LINE
5
36F
100
AcDbEntity
8
0
100
AcDbLine
62
2
6
CONTINUOUS
10
283.3012860640
20
33.7591588922
11
286.1861340675
21
33.7591588922
0
LINE
5
370
100
AcDbEntity
8
0
100
AcDbLine
62
2
6
CONTINUOUS
10
288.8012860640
20
33.7591588922
11
290.3012860640
21
33.7591588922
0
LINE
5
371
100
AcDbEntity
8
0
100
AcDbLine
62
2
6
CONTINUOUS
10
220.2300370000
20
34.1167180000
11
272.2300380000
21
34.1167180000
0
LINE
5
372
100
AcDbEntity
8
0
100
AcDbLine
62
2
6
CONTINUOUS
10
290.3012860640
20
35.2591588922
11
288.8012860640
21
35.2591588922
0
LINE
5
373
100
AcDbEntity
8
0
100
AcDbLine
62
2
6
CONTINUOUS
10
288.2383459013
20
35.2591588922
11
283.3012860640
21
35.2591588922
0
LINE
5
374
100
AcDbEntity
8
0
100
AcDbLine
62
2
6
CONTINUOUS
10
345.2300410000
20
38.1167140000
11
304.2300340000
21
38.1167140000
0
LINE
5
375
100
AcDbEntity
8
0
100
AcDbLine
62
2
6
CONTINUOUS
10
296.8012860640
20
39.0091588922
11
294.8012860640
21
39.0091588922
0
LINE
5
376
100
AcDbEntity
8
0
100
AcDbLine
62
2
6
CONTINUOUS
10
290.3012860640
20
39.0091588922
11
292.3012860640
21
39.0091588922
0
LINE
5
377
100
AcDbEntity
8
0
100
AcDbLine
62
2
6
CONTINUOUS
10
220.2300370000
20
39.1167180000
11
272.2300380000
21
39.1167180000
0
LINE
5
378
100
AcDbEntity
8
0
100
AcDbLine
62
7
6
CONTINUOUS
10
220.2300370000
20
43.1167140000
11
414.9967040000
21
43.1167140000
0
LINE
5
379
100
AcDbEntity
8
0
100
AcDbLine
62
2
6
CONTINUOUS
10
258.1297990000
20
45.9533350000
11
255.1297990000
21
45.9533350000
0
LINE
5
37A
100
AcDbEntity
8
0
100
AcDbLine
62
2
6
CONTINUOUS
10
230.9133410000
20
46.6820980000
11
233.2226410000
21
46.6820980000
0
LINE
5
37B
100
AcDbEntity
8
0
100
AcDbLine
62
2
6
CONTINUOUS
10
246.0571400000
20
46.8515780000
11
252.9853400000
21
46.8515780000
0
LINE
5
37C
100
AcDbEntity
8
0
100
AcDbLine
62
7
6
CONTINUOUS
10
239.0014057061
20
34.9837676846
11
240.9366091578
21
34.9730165543
0
LINE
5
37D
100
AcDbEntity
8
0
100
AcDbLine
62
2
6
CONTINUOUS
10
269.9549140000
20
48.8022540000
11
266.9549140000
21
48.8022540000
0
LINE
5
37E
100
AcDbEntity
8
DEFAULT_1
100
AcDbLine
62
2
6
CENTER
10
303.5677870000
20
49.0050580000
11
292.0676570000
21
49.0050580000
0
LINE
5
37F
100
AcDbEntity
8
DEFAULT_1
100
AcDbLine
62
2
6
CENTER
10
279.5878910000
20
49.0050580000
11
292.0401990000
21
49.0050580000
0
LINE
5
380
100
AcDbEntity
8
0
100
AcDbLine
62
2
6
CONTINUOUS
10
234.6660420000
20
49.1820980000
11
243.1660420000
21
49.1820980000
0
LINE
5
381
100
AcDbEntity
8
0
100
AcDbLine
62
2
6
CONTINUOUS
10
254.2300380000
20
51.1167140000
11
220.2300370000
21
51.1167140000
0
LINE
5
382
100
AcDbEntity
8
0
100
AcDbLine
62
2
6
CONTINUOUS
10
275.9549100000
20
51.8022540000
11
272.9549100000
21
51.8022540000
0
LINE
5
383
100
AcDbEntity
8
0
100
AcDbLine
62
2
6
CONTINUOUS
10
264.1297990000
20
51.9533390000
11
261.1297990000
21
51.9533390000
0
LINE
5
384
100
AcDbEntity
8
0
100
AcDbLine
62
2
6
CONTINUOUS
10
231.0007420000
20
54.7137870000
11
233.3102420000
21
54.7137870000
0
LINE
5
385
100
AcDbEntity
8
0
100
AcDbLine
62
2
6
CONTINUOUS
10
247.1389430000
20
55.0071680000
11
251.7575420000
21
55.0071680000
0
LINE
5
386
100
AcDbEntity
8
0
100
AcDbLine
62
7
6
CONTINUOUS
10
304.2300340000
20
55.1167140000
11
279.2300410000
21
55.1167140000
0
LINE
5
387
100
AcDbEntity
8
0
100
AcDbLine
62
7
6
CONTINUOUS
10
414.9967040000
20
57.1167140000
11
304.2300340000
21
57.1167140000
0
LINE
5
388
100
AcDbEntity
8
0
100
AcDbLine
62
2
6
CONTINUOUS
10
234.7534430000
20
57.2137870000
11
243.2534410000
21
57.2137870000
0
LINE
5
389
100
AcDbEntity
8
0
100
AcDbLine
62
2
6
CONTINUOUS
10
254.2300380000
20
59.1167140000
11
220.2300370000
21
59.1167140000
0
LINE
5
38A
100
AcDbEntity
8
0
100
AcDbLine
62
2
6
CONTINUOUS
10
414.9967040000
20
62.1167140000
11
304.2300340000
21
62.1167140000
0
LINE
5
38B
100
AcDbEntity
8
0
100
AcDbLine
62
2
6
CONTINUOUS
10
231.1789420000
20
62.2657620000
11
233.4882410000
21
62.2657620000
0
LINE
5
38C
100
AcDbEntity
8
0
100
AcDbLine
62
2
6
CONTINUOUS
10
125.0000000000
20
297.0000000000
11
125.0000000000
21
291.8832700000
0
LINE
5
38D
100
AcDbEntity
8
0
100
AcDbLine
62
2
6
CONTINUOUS
10
125.0000000000
20
5.1167160000
11
125.0000000000
21
0.0000000000
0
LINE
5
38E
100
AcDbEntity
8
0
100
AcDbLine
62
2
6
CONTINUOUS
10
249.6296420000
20
62.6215630000
11
251.9389420000
21
62.6215630000
0
LINE
5
38F
100
AcDbEntity
8
0
100
AcDbLine
62
2
6
CONTINUOUS
10
234.9316430000
20
64.7657620000
11
243.4316410000
21
64.7657620000
0
LINE
5
390
100
AcDbEntity
8
0
100
AcDbLine
62
7
6
CONTINUOUS
10
414.9967040000
20
67.1167140000
11
220.2300370000
21
67.1167140000
0
LINE
5
391
100
AcDbEntity
8
0
100
AcDbLine
62
2
6
CONTINUOUS
10
290.7140430000
20
44.1050570000
11
280.9140470000
21
46.9050600000
0
LINE
5
392
100
AcDbEntity
8
0
100
AcDbLine
62
2
6
CONTINUOUS
10
257.6046710000
20
47.7211070000
11
256.8975640000
21
48.4282110000
0
LINE
5
393
100
AcDbEntity
8
0
100
AcDbLine
62
2
6
CONTINUOUS
10
295.5564420000
20
20.9069650000
11
294.1443480000
21
22.3191590000
0
LINE
5
394
100
AcDbEntity
8
0
100
AcDbLine
62
2
6
CONTINUOUS
10
293.2049480000
20
22.3635270000
11
294.6216430000
21
20.9465960000
0
LINE
5
395
100
AcDbEntity
8
0
100
AcDbLine
62
2
6
CONTINUOUS
10
223.2365420000
20
52.7535670000
11
222.0817410000
21
54.7535670000
0
LINE
5
396
100
AcDbEntity
8
0
100
AcDbLine
62
2
6
CONTINUOUS
10
232.0681420000
20
44.6820980000
11
230.9133410000
21
46.6820980000
0
LINE
5
397
100
AcDbEntity
8
0
100
AcDbLine
62
2
6
CONTINUOUS
10
223.1318420000
20
60.2825930000
11
221.9770410000
21
62.2825700000
0
LINE
5
398
100
AcDbEntity
8
0
100
AcDbLine
62
2
6
CONTINUOUS
10
232.1555420000
20
52.7137950000
11
231.0007420000
21
54.7137870000
0
LINE
5
399
100
AcDbEntity
8
0
100
AcDbLine
62
2
6
CONTINUOUS
10
223.2775410000
20
44.6611480000
11
222.1230410000
21
46.6611370000
0
LINE
5
39A
100
AcDbEntity
8
0
100
AcDbLine
62
2
6
CONTINUOUS
10
272.4297870000
20
50.5700230000
11
271.7226790000
21
51.2771260000
0
LINE
5
39B
100
AcDbEntity
8
0
100
AcDbLine
62
2
6
CONTINUOUS
10
293.3262790000
20
19.9363330000
11
293.4986800000
21
19.7473870000
0
LINE
5
39C
100
AcDbEntity
8
0
100
AcDbLine
62
2
6
CONTINUOUS
10
232.3337420000
20
60.2657430000
11
231.1789420000
21
62.2657620000
0
LINE
5
39D
100
AcDbEntity
8
0
100
AcDbLine
62
2
6
CONTINUOUS
10
247.2119410000
20
44.8515780000
11
246.0571400000
21
46.8515970000
0
LINE
5
39E
100
AcDbEntity
8
0
100
AcDbLine
62
2
6
CONTINUOUS
10
249.5212400000
20
44.8515780000
11
248.3664400000
21
46.8515780000
0
LINE
5
39F
100
AcDbEntity
8
0
100
AcDbLine
62
2
6
CONTINUOUS
10
251.8305400000
20
44.8515660000
11
250.6760410000
21
46.8515970000
0
LINE
5
3A0
100
AcDbEntity
8
0
100
AcDbLine
62
2
6
CONTINUOUS
10
248.2934420000
20
53.0071680000
11
247.1389430000
21
55.0071450000
0
LINE
5
3A1
100
AcDbEntity
8
0
100
AcDbLine
62
2
6
CONTINUOUS
10
0.1360260000
20
148.5000000000
11
6.3917370000
21
148.5000000000
0
LINE
5
3A2
100
AcDbEntity
8
0
100
AcDbLine
62
2
6
CONTINUOUS
10
250.6030430000
20
53.0071450000
11
249.4482420000
21
55.0071450000
0
LINE
5
3A3
100
AcDbEntity
8
0
100
AcDbLine
62
2
6
CONTINUOUS
10
250.7841420000
20
60.6215400000
11
249.6296420000
21
62.6215630000
0
LINE
5
3A4
100
AcDbEntity
8
0
100
AcDbLine
62
7
6
CONTINUOUS
10
220.2300370000
20
67.1167140000
11
220.2300370000
21
5.1167160000
0
LINE
5
3A5
100
AcDbEntity
8
0
100
AcDbLine
62
2
6
CONTINUOUS
10
293.2476420000
20
20.0714240000
11
293.3262330000
21
19.9362930000
0
LINE
5
3A6
100
AcDbEntity
8
0
100
AcDbLine
62
2
6
CONTINUOUS
10
289.0005420000
20
21.8104380000
11
290.2842480000
21
19.3962940000
0
LINE
5
3A7
100
AcDbEntity
8
0
100
AcDbLine
62
2
6
CONTINUOUS
10
289.6546480000
20
22.7105670000
11
291.4168470000
21
19.3962970000
0
LINE
5
3A8
100
AcDbEntity
8
0
100
AcDbLine
62
2
6
CONTINUOUS
10
278.0398480000
20
23.6562480000
11
280.5274430000
21
17.7963070000
0
LINE
5
3A9
100
AcDbEntity
8
0
100
AcDbLine
62
2
6
CONTINUOUS
10
278.6690440000
20
23.4542080000
11
280.8582460000
21
18.2962930000
0
LINE
5
3AA
100
AcDbEntity
8
0
100
AcDbLine
62
2
6
CONTINUOUS
10
230.0000000000
20
297.0000000000
11
230.0000000000
21
291.8832700000
0
LINE
5
3AB
100
AcDbEntity
8
0
100
AcDbLine
62
2
6
CONTINUOUS
10
230.0000000000
20
5.1167160000
11
230.0000000000
21
0.0000000000
0
LINE
5
3AC
100
AcDbEntity
8
0
100
AcDbLine
62
2
6
CONTINUOUS
10
236.2300380000
20
34.1167180000
11
236.2300380000
21
18.1847900000
0
LINE
5
3AD
100
AcDbEntity
8
0
100
AcDbLine
62
2
6
CONTINUOUS
10
293.2006450000
20
20.1774080000
11
293.2476420000
21
20.0714240000
0
LINE
5
3AE
100
AcDbEntity
8
0
100
AcDbLine
62
2
6
CONTINUOUS
10
245.2300380000
20
39.1167180000
11
245.2300380000
21
18.1847900000
0
LINE
5
3AF
100
AcDbEntity
8
0
100
AcDbLine
62
7
6
CONTINUOUS
10
254.2300380000
20
67.1167140000
11
254.2300380000
21
43.1167140000
0
LINE
5
3B0
100
AcDbEntity
8
0
100
AcDbLine
62
2
6
CONTINUOUS
10
254.2300380000
20
39.1167180000
11
254.2300380000
21
18.1847900000
0
LINE
5
3B1
100
AcDbEntity
8
0
100
AcDbLine
62
2
6
CONTINUOUS
10
255.1297990000
20
48.9533350000
11
255.1297990000
21
45.9533350000
0
LINE
5
3B2
100
AcDbEntity
8
0
100
AcDbLine
62
2
6
CONTINUOUS
10
293.1633450000
20
20.2878360000
11
293.2006450000
21
20.1774080000
0
LINE
5
3B3
100
AcDbEntity
8
0
100
AcDbLine
62
2
6
CONTINUOUS
10
261.1297990000
20
54.4533390000
11
261.1297990000
21
51.9533390000
0
LINE
5
3B4
100
AcDbEntity
8
0
100
AcDbLine
62
2
6
CONTINUOUS
10
263.2300380000
20
39.1167180000
11
263.2300380000
21
18.1847900000
0
LINE
5
3B5
100
AcDbEntity
8
0
100
AcDbLine
62
2
6
CONTINUOUS
10
269.9549140000
20
45.8022540000
11
269.9549140000
21
48.8022540000
0
LINE
5
3B6
100
AcDbEntity
8
0
100
AcDbLine
62
2
6
CONTINUOUS
10
223.1318420000
20
60.2826000000
11
225.7297410000
21
64.7826000000
0
LINE
5
3B7
100
AcDbEntity
8
0
100
AcDbLine
62
2
6
CONTINUOUS
10
223.2365420000
20
52.7535670000
11
225.8347420000
21
57.2535670000
0
LINE
5
3B8
100
AcDbEntity
8
0
100
AcDbLine
62
2
6
CONTINUOUS
10
293.1365430000
20
20.4029240000
11
293.1633450000
21
20.2878360000
0
LINE
5
3B9
100
AcDbEntity
8
0
100
AcDbLine
62
7
6
CONTINUOUS
10
272.2300380000
20
43.1167140000
11
272.2300380000
21
15.1167160000
0
LINE
5
3BA
100
AcDbEntity
8
0
100
AcDbLine
62
2
6
CONTINUOUS
10
272.9549100000
20
54.3022540000
11
272.9549100000
21
51.8022540000
0
LINE
5
3BB
100
AcDbEntity
8
0
100
AcDbLine
62
7
6
CONTINUOUS
10
279.2300410000
20
67.1167140000
11
279.2300410000
21
43.1167140000
0
LINE
5
3BC
100
AcDbEntity
8
0
100
AcDbLine
62
2
6
CONTINUOUS
10
280.9140470000
20
46.9050600000
11
280.9140470000
21
51.1050570000
0
LINE
5
3BD
100
AcDbEntity
8
0
100
AcDbLine
62
2
6
CONTINUOUS
10
281.5486450000
20
23.9873580000
11
281.5486450000
21
23.6677680000
0
LINE
5
3BE
100
AcDbEntity
8
0
100
AcDbLine
62
2
6
CONTINUOUS
10
281.5486450000
20
19.3963050000
11
281.5486450000
21
19.0963080000
0
LINE
5
3BF
100
AcDbEntity
8
0
100
AcDbLine
62
2
6
CONTINUOUS
10
281.8487470000
20
23.7759780000
11
281.8487470000
21
19.3963050000
0
LINE
5
3C0
100
AcDbEntity
8
0
100
AcDbLine
62
2
6
CONTINUOUS
10
282.8487470000
20
24.0935780000
11
282.8487470000
21
21.7449470000
0
LINE
5
3C1
100
AcDbEntity
8
0
100
AcDbLine
62
2
6
CONTINUOUS
10
282.8487470000
20
21.4449480000
11
282.8487470000
21
19.3963050000
0
LINE
5
3C2
100
AcDbEntity
8
0
100
AcDbLine
62
2
6
CONTINUOUS
10
283.3012860640
20
35.2591588922
11
283.3012860640
21
33.7591588922
0
LINE
5
3C3
100
AcDbEntity
8
0
100
AcDbLine
62
2
6
CONTINUOUS
10
284.0230480000
20
23.7586880000
11
284.0230480000
21
22.5449490000
0
LINE
5
3C4
100
AcDbEntity
8
0
100
AcDbLine
62
2
6
CONTINUOUS
10
223.2775410000
20
44.6611480000
11
225.8757410000
21
49.1611480000
0
LINE
5
3C5
100
AcDbEntity
8
0
100
AcDbLine
62
2
6
CONTINUOUS
10
232.3337420000
20
60.2657430000
11
234.9318410000
21
64.7657620000
0
LINE
5
3C6
100
AcDbEntity
8
0
100
AcDbLine
62
2
6
CONTINUOUS
10
232.1555420000
20
52.7137870000
11
234.7536410000
21
57.2137870000
0
LINE
5
3C7
100
AcDbEntity
8
0
100
AcDbLine
62
2
6
CONTINUOUS
10
232.0681420000
20
44.6821170000
11
234.6660420000
21
49.1820980000
0
LINE
5
3C8
100
AcDbEntity
8
0
100
AcDbLine
62
2
6
CONTINUOUS
10
293.1190410000
20
20.5223030000
11
293.1365430000
21
20.4029240000
0
LINE
5
3C9
100
AcDbEntity
8
0
100
AcDbLine
62
2
6
CONTINUOUS
10
293.1172490000
20
20.6063060000
11
293.1190410000
21
20.5223030000
0
LINE
5
3CA
100
AcDbEntity
8
0
100
AcDbLine
62
2
6
CONTINUOUS
10
286.3487470000
20
24.9882490000
11
286.3487470000
21
24.6864470000
0
LINE
5
3CB
100
AcDbEntity
8
0
100
AcDbLine
62
2
6
CONTINUOUS
10
286.3487470000
20
19.3963050000
11
286.3487470000
21
19.0963080000
0
LINE
5
3CC
100
AcDbEntity
8
0
100
AcDbLine
62
2
6
CONTINUOUS
10
286.8487470000
20
24.7347680000
11
286.8487470000
21
19.3963050000
0
LINE
5
3CD
100
AcDbEntity
8
0
100
AcDbLine
62
2
6
CONTINUOUS
10
287.8487470000
20
24.7896390000
11
287.8487470000
21
21.5859180000
0
LINE
5
3CE
100
AcDbEntity
8
0
100
AcDbLine
62
2
6
CONTINUOUS
10
287.8487470000
20
19.3963050000
11
287.8487470000
21
20.2248760000
0
LINE
5
3CF
100
AcDbEntity
8
0
100
AcDbLine
62
2
6
CONTINUOUS
10
288.3487470000
20
25.0963080000
11
288.3487470000
21
24.7963090000
0
LINE
5
3D0
100
AcDbEntity
8
0
100
AcDbLine
62
2
6
CONTINUOUS
10
288.3487470000
20
19.3963050000
11
288.3487470000
21
19.0963080000
0
LINE
5
3D1
100
AcDbEntity
8
0
100
AcDbLine
62
2
6
CONTINUOUS
10
288.8012860640
20
35.2591588922
11
288.8012860640
21
33.7591588922
0
LINE
5
3D2
100
AcDbEntity
8
0
100
AcDbLine
62
2
6
CONTINUOUS
10
289.8843460000
20
25.0313780000
11
289.8843460000
21
24.7302970000
0
LINE
5
3D3
100
AcDbEntity
8
0
100
AcDbLine
62
2
6
CONTINUOUS
10
289.8843460000
20
19.3963050000
11
289.8843460000
21
19.0963080000
0
LINE
5
3D4
100
AcDbEntity
8
0
100
AcDbLine
62
2
6
CONTINUOUS
10
290.3012860640
20
33.2591588922
11
290.3012860640
21
33.7591588922
0
LINE
5
3D5
100
AcDbEntity
8
0
100
AcDbLine
62
2
6
CONTINUOUS
10
290.3012860640
20
35.2591588922
11
290.3012860640
21
39.0091588922
0
LINE
5
3D6
100
AcDbEntity
8
0
100
AcDbLine
62
2
6
CONTINUOUS
10
290.7140430000
20
53.9050600000
11
290.7140430000
21
44.1050570000
0
LINE
5
3D7
100
AcDbEntity
8
0
100
AcDbLine
62
2
6
CONTINUOUS
10
291.3843460000
20
24.8427090000
11
291.3843460000
21
24.5384390000
0
LINE
5
3D8
100
AcDbEntity
8
0
100
AcDbLine
62
2
6
CONTINUOUS
10
291.8843460000
20
19.3963050000
11
291.8843460000
21
19.0963080000
0
LINE
5
3D9
100
AcDbEntity
8
0
100
AcDbLine
62
2
6
CONTINUOUS
10
292.3012860640
20
39.0091588922
11
292.3012860640
21
33.2591588922
0
LINE
5
3DA
100
AcDbEntity
8
0
100
AcDbLine
62
2
6
CONTINUOUS
10
292.8672490000
20
20.6063060000
11
292.8672490000
21
19.0963080000
0
LINE
5
3DB
100
AcDbEntity
8
0
100
AcDbLine
62
2
6
CONTINUOUS
10
293.1172490000
20
19.1352790000
11
293.1172490000
21
19.0963080000
0
LINE
5
3DC
100
AcDbEntity
8
0
100
AcDbLine
62
2
6
CONTINUOUS
10
294.8012860640
20
39.0091588922
11
294.8012860640
21
33.2591588922
0
LINE
5
3DD
100
AcDbEntity
8
0
100
AcDbLine
62
2
6
CONTINUOUS
10
295.6131440000
20
22.4591670000
11
295.6131440000
21
22.9275470000
0
LINE
5
3DE
100
AcDbEntity
8
0
100
AcDbLine
62
2
6
CONTINUOUS
10
295.8672490000
20
23.9739380000
11
295.8672490000
21
22.4591670000
0
LINE
5
3DF
100
AcDbEntity
8
0
100
AcDbLine
62
2
6
CONTINUOUS
10
296.8012860640
20
33.2591588922
11
296.8012860640
21
39.0091588922
0
LINE
5
3E0
100
AcDbEntity
8
DEFAULT_1
100
AcDbLine
62
2
6
CENTER
10
297.8177260000
20
54.7551230000
11
297.8177260000
21
43.2549930000
0
LINE
5
3E1
100
AcDbEntity
8
0
100
AcDbLine
62
2
6
CONTINUOUS
10
250.7841420000
20
60.6215630000
11
251.9389420000
21
62.6215630000
0
LINE
5
3E2
100
AcDbEntity
8
0
100
AcDbLine
62
2
6
CONTINUOUS
10
248.2934420000
20
53.0071370000
11
249.4482420000
21
55.0071450000
0
LINE
5
3E3
100
AcDbEntity
8
0
100
AcDbLine
62
2
6
CONTINUOUS
10
250.6030430000
20
53.0071370000
11
251.7575420000
21
55.0071370000
0
LINE
5
3E4
100
AcDbEntity
8
0
100
AcDbLine
62
2
6
CONTINUOUS
10
247.2119410000
20
44.8515780000
11
248.3664400000
21
46.8515780000
0
LINE
5
3E5
100
AcDbEntity
8
0
100
AcDbLine
62
2
6
CONTINUOUS
10
249.5212400000
20
44.8515780000
11
250.6760410000
21
46.8515780000
0
LINE
5
3E6
100
AcDbEntity
8
0
100
AcDbLine
62
2
6
CONTINUOUS
10
251.8305400000
20
44.8515970000
11
252.9853400000
21
46.8515970000
0
LINE
5
3E7
100
AcDbEntity
8
0
100
AcDbLine
62
7
6
CONTINUOUS
10
304.2300340000
20
67.1167140000
11
304.2300340000
21
15.1167160000
0
LINE
5
3E8
100
AcDbEntity
8
0
100
AcDbLine
62
2
6
CONTINUOUS
10
314.2300340000
20
67.1167140000
11
314.2300340000
21
57.1167140000
0
LINE
5
3E9
100
AcDbEntity
8
0
100
AcDbLine
62
2
6
CONTINUOUS
10
255.1297990000
20
45.9533390000
11
256.8975640000
21
48.4282110000
0
LINE
5
3EA
100
AcDbEntity
8
0
100
AcDbLine
62
2
6
CONTINUOUS
10
261.1297990000
20
51.9533390000
11
255.1297990000
21
45.9533390000
0
LINE
5
3EB
100
AcDbEntity
8
0
100
AcDbLine
62
2
6
CONTINUOUS
10
315.2300340000
20
29.1167140000
11
315.2300340000
21
43.1167140000
0
LINE
5
3EC
100
AcDbEntity
8
0
100
AcDbLine
62
7
6
CONTINUOUS
10
320.2300340000
20
57.1167140000
11
320.2300340000
21
43.1167140000
0
LINE
5
3ED
100
AcDbEntity
8
0
100
AcDbLine
62
2
6
CONTINUOUS
10
328.5718380000
20
43.1167140000
11
328.5718380000
21
29.1167140000
0
LINE
5
3EE
100
AcDbEntity
8
0
100
AcDbLine
62
2
6
CONTINUOUS
10
269.9549100000
20
48.8022540000
11
271.7226790000
21
51.2771260000
0
LINE
5
3EF
100
AcDbEntity
8
0
100
AcDbLine
62
2
6
CONTINUOUS
10
272.9549100000
20
51.8022540000
11
269.9549100000
21
48.8022540000
0
LINE
5
3F0
100
AcDbEntity
8
0
100
AcDbLine
62
2
6
CONTINUOUS
10
255.1297990000
20
45.9533390000
11
257.6046710000
21
47.7211070000
0
LINE
5
3F1
100
AcDbEntity
8
0
100
AcDbLine
62
2
6
CONTINUOUS
10
269.9549100000
20
48.8022540000
11
272.4297870000
21
50.5700230000
0
LINE
5
3F2
100
AcDbEntity
8
0
100
AcDbLine
62
2
6
CONTINUOUS
10
280.9140470000
20
51.1050570000
11
290.7140430000
21
53.9050600000
0
LINE
5
3F3
100
AcDbEntity
8
0
100
AcDbLine
62
2
6
CONTINUOUS
10
298.6109470000
20
23.4542370000
11
296.4217450000
21
18.2963100000
0
LINE
5
3F4
100
AcDbEntity
8
0
100
AcDbLine
62
2
6
CONTINUOUS
10
299.2400440000
20
23.6562480000
11
296.7525480000
21
17.7962990000
0
LINE
5
3F5
100
AcDbEntity
8
0
100
AcDbLine
62
2
6
CONTINUOUS
10
286.9832665793
20
37.6911394075
11
285.5690530170
21
36.2769258451
0
LINE
5
3F6
100
AcDbEntity
8
0
100
AcDbLine
62
2
6
CONTINUOUS
10
345.2300410000
20
43.1167140000
11
345.2300410000
21
29.1167140000
0
LINE
5
3F7
100
AcDbEntity
8
0
100
AcDbLine
62
2
6
CONTINUOUS
10
350.8800350000
20
57.1167140000
11
350.8800350000
21
43.1167140000
0
LINE
5
3F8
100
AcDbEntity
8
0
100
AcDbLine
62
2
6
CONTINUOUS
10
287.8487470000
20
21.5858880000
11
290.1177440000
21
24.7087780000
0
LINE
5
3F9
100
AcDbEntity
8
0
100
AcDbLine
62
2
6
CONTINUOUS
10
289.6546480000
20
22.7105670000
11
291.0244450000
21
24.5960880000
0
LINE
5
3FA
100
AcDbEntity
8
0
100
AcDbLine
62
2
6
CONTINUOUS
10
287.8487470000
20
20.2248730000
11
289.0008470000
21
21.8104570000
0
LINE
5
3FB
100
AcDbEntity
8
0
100
AcDbLine
62
7
6
CONTINUOUS
10
10.1167100000
20
291.8832700000
11
414.9967040000
21
291.8832700000
0
LINE
5
3FC
100
AcDbEntity
8
0
100
AcDbLine
62
2
6
CONTINUOUS
10
0.0000000000
20
297.0000000000
11
420.0000000000
21
297.0000000000
0
LINE
5
3FD
100
AcDbEntity
8
0
100
AcDbLine
62
2
6
CONTINUOUS
10
381.8800350000
20
57.1167140000
11
381.8800350000
21
43.1167140000
0
LINE
5
3FE
100
AcDbEntity
8
0
100
AcDbLine
62
2
6
CONTINUOUS
10
386.9967040000
20
67.1167140000
11
386.9967040000
21
57.1167140000
0
LINE
5
3FF
100
AcDbEntity
8
0
100
AcDbLine
62
2
6
CONTINUOUS
10
400.9967040000
20
67.1167140000
11
400.9967040000
21
57.1167140000
0
LINE
5
400
100
AcDbEntity
8
0
100
AcDbLine
62
7
6
CONTINUOUS
10
414.9967040000
20
5.1167160000
11
414.9967040000
21
291.8832700000
0
LINE
5
401
100
AcDbEntity
8
0
100
AcDbLine
62
2
6
CONTINUOUS
10
420.0000000000
20
297.0000000000
11
420.0000000000
21
0.0000000000
0
ARC
5
402
100
AcDbEntity
8
0
100
AcDbCircle
62
2
6
CONTINUOUS
10
288.6399460000
20
6.6963050000
40
20.0000500000
100
AcDbArc
50
57.9943300000
51
122.0057570000
0
ARC
5
403
100
AcDbEntity
8
0
100
AcDbCircle
62
2
6
CONTINUOUS
10
288.6399460000
20
6.6963050000
40
19.5000710000
100
AcDbArc
50
59.2468030000
51
120.7526490000
0
ARC
5
404
100
AcDbEntity
8
0
100
AcDbCircle
62
2
6
CONTINUOUS
10
288.9400480000
20
6.6963050000
40
18.3999810000
100
AcDbArc
50
69.1879110000
51
72.8704070000
0
ARC
5
405
100
AcDbEntity
8
0
100
AcDbCircle
62
2
6
CONTINUOUS
10
287.8399430000
20
6.6963050000
40
18.1000000000
100
AcDbArc
50
104.1980400000
51
106.0072480000
0
ARC
5
406
100
AcDbEntity
8
0
100
AcDbCircle
62
2
6
CONTINUOUS
10
288.3399430000
20
6.6963050000
40
18.4000000000
100
AcDbArc
50
89.9726750000
51
96.2126400000
0
ARC
5
407
100
AcDbEntity
8
0
100
AcDbCircle
62
2
6
CONTINUOUS
10
288.3399430000
20
6.6963050000
40
18.1000000000
100
AcDbArc
50
89.9722240000
51
91.5551680000
0
ARC
5
408
100
AcDbEntity
8
0
100
AcDbCircle
62
2
6
CONTINUOUS
10
288.3399430000
20
6.6963050000
40
18.1000190000
100
AcDbArc
50
84.3632040000
51
85.1051680000
0
ARC
5
409
100
AcDbEntity
8
0
100
AcDbCircle
62
2
6
CONTINUOUS
10
283.1492460000
20
20.4206260000
40
1.0435590000
100
AcDbArc
50
281.0191720000
51
78.9808380000
0
ARC
5
40A
100
AcDbEntity
8
0
100
AcDbCircle
62
2
6
CONTINUOUS
10
283.2232440000
20
22.5449490000
40
0.8000000000
100
AcDbArc
50
269.9999730000
51
360.0000000000
0
ARC
5
40B
100
AcDbEntity
8
0
100
AcDbCircle
62
2
6
CONTINUOUS
10
283.5230480000
20
23.7586880000
40
0.5000000000
100
AcDbArc
50
0.0000000000
51
104.1893450000
0
ARC
5
40C
100
AcDbEntity
8
0
100
AcDbCircle
62
2
6
CONTINUOUS
10
283.6619420000
20
20.4704250000
40
1.3882760000
100
AcDbArc
50
278.1893700000
51
67.5001230000
0
ARC
5
40D
100
AcDbEntity
8
0
100
AcDbCircle
62
2
6
CONTINUOUS
10
284.0764470000
20
23.8891980000
40
0.7999700000
100
AcDbArc
50
11.4908350000
51
102.3524470000
0
ARC
5
40E
100
AcDbEntity
8
0
100
AcDbCircle
62
2
6
CONTINUOUS
10
281.8845440000
20
23.6686970000
40
2.9999300000
100
AcDbArc
50
320.3133600000
51
7.2744480000
0
ARC
5
40F
100
AcDbEntity
8
0
100
AcDbCircle
62
2
6
CONTINUOUS
10
287.8399430000
20
6.6963050000
40
18.0999910000
100
AcDbArc
50
109.3299500000
51
110.3396500000
0
ARC
5
410
100
AcDbEntity
8
0
100
AcDbCircle
62
2
6
CONTINUOUS
10
287.8399430000
20
6.6963050000
40
18.3999900000
100
AcDbArc
50
102.3472430000
51
109.9937420000
0
ARC
5
411
100
AcDbEntity
8
0
100
AcDbCircle
62
2
6
CONTINUOUS
10
294.0198440000
20
23.1785980000
40
1.1526920000
100
AcDbArc
50
72.8656260000
51
225.0040940000
0
ARC
5
412
100
AcDbEntity
8
0
100
AcDbCircle
62
2
6
CONTINUOUS
10
294.7527920000
20
22.9274310000
40
0.8603520000
100
AcDbArc
50
0.0000000000
51
224.9982070000
0
ARC
5
413
100
AcDbEntity
8
0
100
AcDbCircle
62
2
6
CONTINUOUS
10
288.3399430000
20
6.6963050000
40
18.1000100000
100
AcDbArc
50
80.3168160000
51
81.4697520000
0
ARC
5
414
100
AcDbEntity
8
0
100
AcDbCircle
62
2
6
CONTINUOUS
10
288.3399430000
20
6.6963050000
40
18.4000090000
100
AcDbArc
50
80.4761780000
51
85.1851560000
0
ARC
5
415
100
AcDbEntity
8
0
100
AcDbCircle
62
2
6
CONTINUOUS
10
294.8064420000
20
20.1569670000
40
1.0606600000
100
AcDbArc
50
269.9999730000
51
45.0000180000
0
ARC
5
416
100
AcDbEntity
8
0
100
AcDbCircle
62
2
6
CONTINUOUS
10
293.2171480000
20
19.1352790000
40
0.1000070000
100
AcDbArc
50
84.9581140000
51
180.0000730000
0
ARC
5
417
100
AcDbEntity
8
0
100
AcDbCircle
62
2
6
CONTINUOUS
10
288.3399430000
20
6.6963050000
40
18.1000000000
100
AcDbArc
50
94.7258450000
51
96.3160290000
0
ARC
5
418
100
AcDbEntity
8
0
100
AcDbCircle
62
2
6
CONTINUOUS
10
295.5132450000
20
23.9891680000
40
0.1000400000
100
AcDbArc
50
249.1266420000
51
351.2231900000
0
ARC
5
419
100
AcDbEntity
8
0
100
AcDbCircle
62
2
6
CONTINUOUS
10
294.1074450000
20
20.3028390000
40
0.8240900000
100
AcDbArc
50
222.3780090000
51
51.3866170000
0
CIRCLE
5
41A
100
AcDbEntity
8
0
100
AcDbCircle
62
2
6
CONTINUOUS
10
297.8177260000
20
49.0050580000
40
5.0036780000
0
CIRCLE
5
41B
100
AcDbEntity
8
0
100
AcDbCircle
62
2
6
CONTINUOUS
10
297.8177260000
20
49.0050580000
40
2.1000000000
0
ARC
5
41C
100
AcDbEntity
8
0
100
AcDbCircle
62
2
6
CONTINUOUS
10
283.8012860640
20
34.5091588922
40
4.5000000000
100
AcDbArc
50
45.0000000000
51
9.5940682269
0
ARC
5
41D
100
AcDbEntity
8
0
100
AcDbCircle
62
2
6
CONTINUOUS
10
283.8012860640
20
34.5091588922
40
2.5000000000
100
AcDbArc
50
45.0000000000
51
342.5423968763
0
ARC
5
41E
100
AcDbEntity
8
0
100
AcDbCircle
62
2
6
CONTINUOUS
10
293.5512860640
20
33.2591588922
40
3.2500000000
100
AcDbArc
50
180.0000000000
51
360.0000000000
0
ARC
5
41F
100
AcDbEntity
8
0
100
AcDbCircle
62
2
6
CONTINUOUS
10
293.5512860640
20
33.2591588922
40
1.2500000000
100
AcDbArc
50
180.0000000000
51
360.0000000000
0
INSERT
5
420
100
AcDbEntity
8
TABLE_BL0
100
AcDbBlockReference
2
TABLE_BL0
10
317.5967040000
20
36.1167160000
0
INSERT
5
421
100
AcDbEntity
8
X76230020_ANSICHTS_SCHABLON_BL1
100
AcDbBlockReference
2
X76230020_ANSICHTS_SCHABLON_BL1
10
151.2198785802
20
249.4604279435
0
INSERT
5
422
100
AcDbEntity
8
X76232034_ANSICHTS_SCHABLON_BL2
100
AcDbBlockReference
2
X76232034_ANSICHTS_SCHABLON_BL2
10
151.2198785802
20
249.4604279435
0
INSERT
5
423
100
AcDbEntity
8
X47900141_ANSICHTS_SCHABLON_BL3
100
AcDbBlockReference
2
X47900141_ANSICHTS_SCHABLON_BL3
10
176.2198785802
20
184.4604279435
0
INSERT
5
424
100
AcDbEntity
8
X47400403_links_1_BL4
100
AcDbBlockReference
2
X47400403_LINKS_1_BL4
10
317.6666666667
20
249.4604279435
0
INSERT
5
425
100
AcDbEntity
8
X47900141_links_1_BL5
100
AcDbBlockReference
2
X47900141_LINKS_1_BL5
10
352.8380791254
20
184.4604279435
0
INSERT
5
426
100
AcDbEntity
8
X47400418_links_1_BL6
100
AcDbBlockReference
2
X47400418_LINKS_1_BL6
10
342.0166666667
20
249.4604279435
0
INSERT
5
427
100
AcDbEntity
8
X76230020_links_1_BL7
100
AcDbBlockReference
2
X76230020_LINKS_1_BL7
10
331.2666666667
20
249.4604279435
0
INSERT
5
428
100
AcDbEntity
8
X76232034_links_1_BL8
100
AcDbBlockReference
2
X76232034_LINKS_1_BL8
10
337.2666666667
20
249.4604279435
0
INSERT
5
429
100
AcDbEntity
8
X76232034_oben_1_BL9
100
AcDbBlockReference
2
X76232034_OBEN_1_BL9
10
151.2198785802
20
75.6598684211
0
INSERT
5
42A
100
AcDbEntity
8
X76230020_oben_1_BL10
100
AcDbBlockReference
2
X76230020_OBEN_1_BL10
10
151.2198785802
20
81.6598684211
0
INSERT
5
42B
100
AcDbEntity
8
X47400403_oben_1_BL11
100
AcDbBlockReference
2
X47400403_OBEN_1_BL11
10
41.2198785802
20
91.3713375115
0
INSERT
5
42C
100
AcDbEntity
8
X47400403_oben_1_BL12
100
AcDbBlockReference
2
X47400403_OBEN_1_BL12
10
154.7198785802
20
91.3713375115
0
INSERT
5
42D
100
AcDbEntity
8
X47900141_oben_1_BL13
100
AcDbBlockReference
2
X47900141_OBEN_1_BL13
10
176.2198785802
20
45.4098684211
0
INSERT
5
42E
100
AcDbEntity
8
X47400418_oben_1_BL14
100
AcDbBlockReference
2
X47400418_OBEN_1_BL14
10
176.2198785802
20
70.9098684211
0
INSERT
5
42F
100
AcDbEntity
8
X47400403_oben_1_BL15
100
AcDbBlockReference
2
X47400403_OBEN_1_BL15
10
261.2198785802
20
91.3713375115
0
INSERT
5
430
100
AcDbEntity
8
X47400418_ANSICHTS_SCHABLO_BL16
100
AcDbBlockReference
2
X47400418_ANSICHTS_SCHABLO_BL16
10
176.2198785802
20
244.2198408468
0
INSERT
5
431
100
AcDbEntity
8
BY75140441_ANSICHTS_SCHABL_BL17
100
AcDbBlockReference
2
BY75140441_ANSICHTS_SCHABL_BL17
10
0.0000000000
20
0.0000000000
0
ENDSEC
0
SECTION
2
OBJECTS
0
DICTIONARY
5
C
100
AcDbDictionary
280
0
281
1
3
ACAD_GROUP
350
D
3
ACAD_MLINESTYLE
350
17
3
ACAD_LAYOUT
350
1A
3
ACAD_PLOTSETTINGS
350
19
3
ACAD_PLOTSTYLENAME
350
E
0
DICTIONARY
5
D
102
{ACAD_REACTORS
330
C
102
}
100
AcDbDictionary
280
0
281
1
0
ACDBDICTIONARYWDFLT
5
E
102
{ACAD_REACTORS
330
C
102
}
100
AcDbDictionary
281
1
3
Normal
350
F
100
AcDbDictionaryWithDefault
340
F
0
DICTIONARY
5
17
102
{ACAD_REACTORS
330
C
102
}
100
AcDbDictionary
280
0
281
1
3
Standard
350
18
0
DICTIONARY
5
19
102
{ACAD_REACTORS
330
C
102
}
100
AcDbDictionary
281
1
0
DICTIONARY
5
1A
102
{ACAD_REACTORS
330
C
102
}
100
AcDbDictionary
281
1
3
Layout1
350
1E
3
Model
350
22
0
ACDBPLACEHOLDER
5
F
102
{ACAD_REACTORS
330
E
102
}
0
MLINESTYLE
5
18
102
{ACAD_REACTORS
330
17
102
}
100
AcDbMlineStyle
2
STANDARD
70
0
3

62
256
51
90.0
52
90.0
71
2
49
0.5
62
256
6
BYLAYER
49
-0.5
62
256
6
BYLAYER
0
LAYOUT
5
1E
102
{ACAD_REACTORS
330
1A
102
}
100
AcDbPlotSettings
1

2

4

6

40
0.0
41
0.0
42
0.0
43
0.0
44
0.0
45
0.0
46
0.0
47
0.0
48
0.0
49
0.0
140
0.0
141
0.0
142
1.0
143
1.0
70
0
72
0
73
0
74
0
7

75
0
147
1.0
148
0.0
149
0.0
100
AcDbLayout
1
Layout1
70
0
71
0
10
0.0
20
0.0
11
0.0
21
0.0
12
0.0
22
0.0
32
0.0
14
0.0
24
0.0
34
0.0
15
0.0
25
0.0
35
0.0
146
0.0
13
0.0
23
0.0
33
0.0
16
0.0
26
0.0
36
0.0
17
0.0
27
0.0
37
0.0
76
0
330
1B
331
0
345
0
346
0
0
LAYOUT
5
22
102
{ACAD_REACTORS
330
1A
102
}
100
AcDbPlotSettings
1

2

4

6

40
0.0
41
0.0
42
0.0
43
0.0
44
0.0
45
0.0
46
0.0
47
0.0
48
0.0
49
0.0
140
0.0
141
0.0
142
1.0
143
1.0
70
0
72
0
73
0
74
0
7

75
0
147
1.0
148
0.0
149
0.0
100
AcDbLayout
1
Model
70
0
71
0
10
0.0
20
0.0
11
0.0
21
0.0
12
0.0
22
0.0
32
0.0
14
0.0
24
0.0
34
0.0
15
0.0
25
0.0
35
0.0
146
0.0
13
0.0
23
0.0
33
0.0
16
0.0
26
0.0
36
0.0
17
0.0
27
0.0
37
0.0
76
0
330
1F
331
0
345
0
346
0
0
ENDSEC
0
EOF
