999
DXF file: F:\PBD\LIESEGAN\ma-zchng-dxf\ma72950011.dxf
999
Pro/ENGINEER 2002480 by Parametric Technology Corporation
0
SECTION
2
HEADER
9
$ACADVER
1
AC1012
9
$HANDSEED
5
       2B1
9
$EXTMAX
10
210.0000000000
20
297.0000000000
9
$EXTMIN
10
0.0000000000
20
0.0000000000
9
$LIMMIN
10
0.0000000000
20
0.0000000000
9
$LIMMAX
10
210.0000000000
20
297.0000000000
9
$VIEWCTR
10
105.0000000000
20
148.5000000000
9
$VIEWSIZE
40
297.0000000000
9
$CLAYER
8
0
9
$LTSCALE
40
19.3600000000
9
$CELTYPE
6
BYLAYER
9
$DIMSCALE
40
1
9
$DIMASZ
40
3.5000000000
9
$DIMEXO
40
2.2000000000
9
$DIMDLI
40
13.3760000000
9
$DIMEXE
40
6.3360000000
9
$DIMCEN
40
3.1680000000
9
$DIMLFAC
40
1.0000000000
9
$DIMTXT
40
3.0000000000
9
$DIMTOL
70
1
9
$DIMLIM
70
0
9
$DIMTFAC
40
1.0000000000
9
$DIMTP
40
0.0010000000
9
$DIMTM
40
0.0010000000
0
ENDSEC
0
SECTION
2
CLASSES
0
ENDSEC
0
SECTION
2
TABLES
0
TABLE
2
VPORT
5
8
100
AcDbSymbolTable
70
2
0
VPORT
5
1F4
100
AcDbSymbolTableRecord
100
AcDbViewportTableRecord
2
*ACTIVE
70
0
10
0.0
20
0.0
11
1.0
21
1.0
12
105.0000000000
22
148.5000000000
13
0.0
23
0.0
14
1.0
24
1.0
15
0.0
25
0.0
16
0.0
26
0.0
36
1.0
17
0.0
27
0.0
37
0.0
40
297.0000000000
41
0.7070707071
42
50.0
43
0.0
44
0.0
50
0.0
51
0.0
71
0
72
100
73
1
74
1
75
0
76
0
77
0
78
0
0
ENDTAB
0
TABLE
2
LTYPE
5
5
100
AcDbSymbolTable
70
6
0
LTYPE
5
14
100
AcDbSymbolTableRecord
100
AcDbLinetypeTableRecord
2
BYBLOCK
70
0
3

72
65
73
0
40
0.0
0
LTYPE
5
15
100
AcDbSymbolTableRecord
100
AcDbLinetypeTableRecord
2
BYLAYER
70
0
3

72
65
73
0
40
0.0
0
LTYPE
5
16
100
AcDbSymbolTableRecord
100
AcDbLinetypeTableRecord
2
CONTINUOUS
70
64
3
Solid line
72
65
73
0
40
0
0
LTYPE
5
1F5
100
AcDbSymbolTableRecord
100
AcDbLinetypeTableRecord
2
CENTER
70
64
3
____ _ ____ _ ____ _ ____ _ ____ _ ____ _ ____
72
65
73
4
40
0.6
49
0.375
74
0
49
-0.075
74
0
49
0.075
74
0
49
-0.075
74
0
0
LTYPE
5
1F6
100
AcDbSymbolTableRecord
100
AcDbLinetypeTableRecord
2
HIDDEN
70
64
3
- - - - - - - - - - - - - - - - - - - -
72
65
73
2
40
0.2
49
0.1
74
0
49
-0.1
74
0
0
LTYPE
5
1F7
100
AcDbSymbolTableRecord
100
AcDbLinetypeTableRecord
2
PHANTOM
70
64
3
_____ _ _ _____ _ _ _____ _ _ _____
72
65
73
6
40
0.8
49
0.45
74
0
49
-0.05
74
0
49
0.1
74
0
49
-0.05
74
0
49
0.1
74
0
49
-0.05
74
0
0
LTYPE
5
1F8
100
AcDbSymbolTableRecord
100
AcDbLinetypeTableRecord
2
DOT
70
64
3
. . . . . . . . . . . . . . . . . . . .
72
65
73
2
40
0.2
49
0.1
74
0
49
-0.1
74
0
0
LTYPE
5
1F9
100
AcDbSymbolTableRecord
100
AcDbLinetypeTableRecord
2
DASHED
70
64
3
- - - - - - - - - - - - - - - - - - - -
72
65
73
2
40
0.2
49
0.1
74
0
49
-0.1
74
0
0
ENDTAB
0
TABLE
2
LAYER
5
2
100
AcDbSymbolTable
70
36
0
LAYER
5
10
100
AcDbSymbolTableRecord
100
AcDbLayerTableRecord
2
0
70
0
62
7
6
CONTINUOUS
0
LAYER
5
1FA
100
AcDbSymbolTableRecord
100
AcDbLayerTableRecord
2
DEFAULT_1
70
0
62
7
6
CENTER
0
LAYER
5
1FB
100
AcDbSymbolTableRecord
100
AcDbLayerTableRecord
2
DEFAULT_2
70
0
62
8
6
HIDDEN
0
LAYER
5
1FC
100
AcDbSymbolTableRecord
100
AcDbLayerTableRecord
2
DEFAULT_3
70
0
62
7
6
PHANTOM
0
LAYER
5
1FD
100
AcDbSymbolTableRecord
100
AcDbLayerTableRecord
2
ACHSEN
70
0
62
7
6
CONTINUOUS
0
LAYER
5
1FE
100
AcDbSymbolTableRecord
100
AcDbLayerTableRecord
2
S-ACHSEN
70
0
62
7
6
CONTINUOUS
0
LAYER
5
1FF
100
AcDbSymbolTableRecord
100
AcDbLayerTableRecord
2
S-BG-EBENEN
70
0
62
7
6
CONTINUOUS
0
LAYER
5
200
100
AcDbSymbolTableRecord
100
AcDbLayerTableRecord
2
S-BG-KOORDSYS
70
0
62
7
6
CONTINUOUS
0
LAYER
5
201
100
AcDbSymbolTableRecord
100
AcDbLayerTableRecord
2
S-EBENEN
70
0
62
7
6
CONTINUOUS
0
LAYER
5
202
100
AcDbSymbolTableRecord
100
AcDbLayerTableRecord
2
S-KOORDSYS
70
0
62
7
6
CONTINUOUS
0
LAYER
5
203
100
AcDbSymbolTableRecord
100
AcDbLayerTableRecord
2
ZEICH_ELEMENTE
70
0
62
7
6
CONTINUOUS
0
ENDTAB
0
TABLE
2
STYLE
5
3
100
AcDbSymbolTable
70
1
0
STYLE
5
11
100
AcDbSymbolTableRecord
100
AcDbTextStyleTableRecord
2
STANDARD
70
0
40
0.0
41
0.8000000000
50
0.0
71
0
42
0.2
3
SwissCL.ttf
4

0
ENDTAB
0
TABLE
2
VIEW
5
6
100
AcDbSymbolTable
70
0
0
ENDTAB
0
TABLE
2
UCS
5
7
100
AcDbSymbolTable
70
0
0
ENDTAB
0
TABLE
2
APPID
5
9
100
AcDbSymbolTable
70
1
0
APPID
5
204
100
AcDbSymbolTableRecord
100
AcDbRegAppTableRecord
2
ACAD
70
0
0
ENDTAB
0
TABLE
2
DIMSTYLE
5
A
100
AcDbSymbolTable
70
1
0
DIMSTYLE
105
205
100
AcDbSymbolTableRecord
100
AcDbDimStyleTableRecord
2
STANDARD
70
0
3

4

5

6

7

40
1.0
41
3.5000000000
42
0.0625
43
0.38
44
0.18
45
0.0
46
0.0
47
0.0010000000
48
0.0010000000
140
3.0000000000
141
0.09
142
0.0
143
25.4
144
1.0000000000
145
0.0
146
1.0000000000
147
0.09
71
1
72
0
73
0
74
0
75
0
76
0
77
1
78
8
170
0
171
2
172
0
173
0
174
0
175
0
176
0
177
0
178
5
270
2
271
3
272
3
273
2
274
2
340
11
275
0
280
0
281
0
282
0
283
1
284
8
285
0
286
0
287
3
288
0
0
DIMSTYLE
105
206
100
AcDbSymbolTableRecord
100
AcDbDimStyleTableRecord
2
DIMSTYLE_1
70
0
3

4

5

6

7

40
1.0
41
3.5000000000
42
0.0625
43
0.38
44
0.18
45
0.0
46
0.0
47
0.2000000000
48
0.2000000000
140
4.0000000000
141
0.09
142
0.0
143
25.4
144
1.0000000000
145
0.0
146
1.0000000000
147
0.09
71
0
72
0
73
0
74
0
75
0
76
0
77
1
78
8
170
0
171
2
172
0
173
0
174
0
175
0
176
0
177
0
178
5
270
2
271
3
272
3
273
2
274
2
340
11
275
0
280
0
281
0
282
0
283
1
284
8
285
0
286
0
287
3
288
0
0
DIMSTYLE
105
207
100
AcDbSymbolTableRecord
100
AcDbDimStyleTableRecord
2
DIMSTYLE_2
70
0
3

4

5

6

7

40
1.0
41
3.5000000000
42
0.0625
43
0.38
44
0.18
45
0.0
46
0.0
47
0.3000000000
48
0.3000000000
140
4.0000000000
141
0.09
142
0.0
143
25.4
144
1.0000000000
145
0.0
146
1.0000000000
147
0.09
71
0
72
0
73
0
74
0
75
0
76
0
77
1
78
8
170
0
171
2
172
0
173
0
174
0
175
0
176
0
177
0
178
5
270
2
271
3
272
3
273
2
274
2
340
11
275
0
280
0
281
0
282
0
283
1
284
8
285
0
286
0
287
3
288
0
0
ENDTAB
0
TABLE
2
BLOCK_RECORD
5
1
100
AcDbSymbolTable
70
0
0
BLOCK_RECORD
5
1B
100
AcDbSymbolTableRecord
100
AcDbBlockTableRecord
2
*MODEL_SPACE
0
BLOCK_RECORD
5
1C
100
AcDbSymbolTableRecord
100
AcDbBlockTableRecord
2
*PAPER_SPACE
0
BLOCK_RECORD
5
208
100
AcDbSymbolTableRecord
100
AcDbBlockTableRecord
2
*D0
0
BLOCK_RECORD
5
209
100
AcDbSymbolTableRecord
100
AcDbBlockTableRecord
2
*D1
0
BLOCK_RECORD
5
20A
100
AcDbSymbolTableRecord
100
AcDbBlockTableRecord
2
*D2
0
BLOCK_RECORD
5
20B
100
AcDbSymbolTableRecord
100
AcDbBlockTableRecord
2
*D3
0
ENDTAB
0
ENDSEC
0
SECTION
2
BLOCKS
0
BLOCK
5
1E
100
AcDbEntity
8
0
100
AcDbBlockBegin
2
*MODEL_SPACE
70
0
10
0.0
20
0.0
30
0.0
3
*MODEL_SPACE
1

0
ENDBLK
5
1F
100
AcDbEntity
8
0
100
AcDbBlockEnd
0
BLOCK
5
20
100
AcDbEntity
8
0
100
AcDbBlockBegin
2
*PAPER_SPACE
70
0
10
0.0
20
0.0
30
0.0
3
*PAPER_SPACE
1

0
ENDBLK
5
21
100
AcDbEntity
8
0
100
AcDbBlockEnd
0
BLOCK
5
20C
100
AcDbEntity
8
0
100
AcDbBlockBegin
62
2
6
CONTINUOUS
2
*D0
70
65
10
0.0000000000
20
0.0000000000
3
*D0
1

0
TEXT
5
20D
100
AcDbEntity
8
0
100
AcDbText
62
5
6
CONTINUOUS
10
150.7513895242
20
250.7654589174
7
STANDARD
40
4.0000000000
1
7
41
0.6272401434
72
0
100
AcDbText
0
LINE
5
20E
100
AcDbEntity
8
0
100
AcDbLine
62
2
6
CONTINUOUS
10
138.3736214352
20
242.1026025875
11
138.3736214352
21
250.7654589174
0
LINE
5
20F
100
AcDbEntity
8
0
100
AcDbLine
62
2
6
CONTINUOUS
10
145.3736214352
20
226.1026025875
11
145.3736214352
21
250.7654589174
0
LINE
5
210
100
AcDbEntity
8
0
100
AcDbLine
62
2
6
CONTINUOUS
10
138.3736214352
20
249.7654589174
11
131.3736214352
21
249.7654589174
0
LINE
5
211
100
AcDbEntity
8
0
100
AcDbLine
62
2
6
CONTINUOUS
10
131.3736214352
20
249.7654589174
11
141.8736214352
21
249.7654589174
0
LINE
5
212
100
AcDbEntity
8
0
100
AcDbLine
62
2
6
CONTINUOUS
10
145.3736214352
20
249.7654589174
11
153.2603500977
21
249.7654589174
0
LINE
5
213
100
AcDbEntity
8
0
100
AcDbLine
62
2
6
CONTINUOUS
10
153.2603500977
20
249.7654589174
11
141.8736214352
21
249.7654589174
0
SOLID
5
214
100
AcDbEntity
8
0
100
AcDbTrace
62
2
6
CONTINUOUS
10
134.8736214352
20
249.2654589174
11
138.3736214352
21
249.7654589174
12
134.8736214352
22
250.2654589174
13
134.8736214352
23
250.2654589174
0
SOLID
5
215
100
AcDbEntity
8
0
100
AcDbTrace
62
2
6
CONTINUOUS
10
148.8736214352
20
250.2654589174
11
145.3736214352
21
249.7654589174
12
148.8736214352
22
249.2654589174
13
148.8736214352
23
249.2654589174
0
ENDBLK
5
216
100
AcDbEntity
8
0
100
AcDbBlockEnd
0
BLOCK
5
217
100
AcDbEntity
8
0
100
AcDbBlockBegin
62
2
6
CONTINUOUS
2
*D1
70
65
10
0.0000000000
20
0.0000000000
3
*D1
1

0
TEXT
5
218
100
AcDbEntity
8
0
100
AcDbText
62
5
6
CONTINUOUS
10
39.2936666504
20
206.9689551448
7
STANDARD
40
4.0000000000
1
50
50
90.0000000000
41
0.6272401434
72
0
100
AcDbText
0
LINE
5
219
100
AcDbEntity
8
0
100
AcDbLine
62
2
6
CONTINUOUS
10
62.2835800256
20
233.6026025875
11
39.2936666504
21
233.6026025875
0
LINE
5
21A
100
AcDbEntity
8
0
100
AcDbLine
62
2
6
CONTINUOUS
10
62.2835800256
20
183.6026025875
11
39.2936666504
21
183.6026025875
0
LINE
5
21B
100
AcDbEntity
8
0
100
AcDbLine
62
2
6
CONTINUOUS
10
40.2936666504
20
233.6026025875
11
40.2936666504
21
208.6026025875
0
LINE
5
21C
100
AcDbEntity
8
0
100
AcDbLine
62
2
6
CONTINUOUS
10
40.2936666504
20
183.6026025875
11
40.2936666504
21
208.6026025875
0
SOLID
5
21D
100
AcDbEntity
8
0
100
AcDbTrace
62
2
6
CONTINUOUS
10
40.7936666504
20
230.1026025875
11
40.2936666504
21
233.6026025875
12
39.7936666504
22
230.1026025875
13
39.7936666504
23
230.1026025875
0
SOLID
5
21E
100
AcDbEntity
8
0
100
AcDbTrace
62
2
6
CONTINUOUS
10
39.7936666504
20
187.1026025875
11
40.2936666504
21
183.6026025875
12
40.7936666504
22
187.1026025875
13
40.7936666504
23
187.1026025875
0
ENDBLK
5
21F
100
AcDbEntity
8
0
100
AcDbBlockEnd
0
BLOCK
5
220
100
AcDbEntity
8
0
100
AcDbBlockBegin
62
2
6
CONTINUOUS
2
*D2
70
65
10
0.0000000000
20
0.0000000000
3
*D2
1

0
TEXT
5
221
100
AcDbEntity
8
0
100
AcDbText
62
5
6
CONTINUOUS
10
24.8015475862
20
207.5564734853
7
STANDARD
40
4.0000000000
1
67
50
90.0000000000
41
0.6272401434
72
0
100
AcDbText
0
LINE
5
222
100
AcDbEntity
8
0
100
AcDbLine
62
2
6
CONTINUOUS
10
68.0335800256
20
242.1026025875
11
24.8015475862
21
242.1026025875
0
LINE
5
223
100
AcDbEntity
8
0
100
AcDbLine
62
2
6
CONTINUOUS
10
68.0335800256
20
175.1026025875
11
24.8015475862
21
175.1026025875
0
LINE
5
224
100
AcDbEntity
8
0
100
AcDbLine
62
2
6
CONTINUOUS
10
25.8015475862
20
242.1026025875
11
25.8015475862
21
208.6026025875
0
LINE
5
225
100
AcDbEntity
8
0
100
AcDbLine
62
2
6
CONTINUOUS
10
25.8015475862
20
175.1026025875
11
25.8015475862
21
208.6026025875
0
SOLID
5
226
100
AcDbEntity
8
0
100
AcDbTrace
62
2
6
CONTINUOUS
10
26.3015475862
20
238.6026025875
11
25.8015475862
21
242.1026025875
12
25.3015475862
22
238.6026025875
13
25.3015475862
23
238.6026025875
0
SOLID
5
227
100
AcDbEntity
8
0
100
AcDbTrace
62
2
6
CONTINUOUS
10
25.3015475862
20
178.6026025875
11
25.8015475862
21
175.1026025875
12
26.3015475862
22
178.6026025875
13
26.3015475862
23
178.6026025875
0
ENDBLK
5
228
100
AcDbEntity
8
0
100
AcDbBlockEnd
0
BLOCK
5
229
100
AcDbEntity
8
0
100
AcDbBlockBegin
62
2
6
CONTINUOUS
2
*D3
70
65
10
0.0000000000
20
0.0000000000
3
*D3
1

0
TEXT
5
22A
100
AcDbEntity
8
0
100
AcDbText
62
5
6
CONTINUOUS
10
65.7897469711
20
254.3459518044
7
STANDARD
40
4.0000000000
1
32
41
0.6272401434
72
0
100
AcDbText
0
LINE
5
22B
100
AcDbEntity
8
0
100
AcDbLine
62
2
6
CONTINUOUS
10
52.0335800256
20
226.1026025875
11
52.0335800256
21
254.3459518044
0
LINE
5
22C
100
AcDbEntity
8
0
100
AcDbLine
62
2
6
CONTINUOUS
10
84.0335800256
20
226.1026025873
11
84.0335800256
21
254.3459518044
0
LINE
5
22D
100
AcDbEntity
8
0
100
AcDbLine
62
2
6
CONTINUOUS
10
52.0335800256
20
253.3459518044
11
68.0335800256
21
253.3459518044
0
LINE
5
22E
100
AcDbEntity
8
0
100
AcDbLine
62
2
6
CONTINUOUS
10
84.0335800256
20
253.3459518044
11
68.0335800256
21
253.3459518044
0
SOLID
5
22F
100
AcDbEntity
8
0
100
AcDbTrace
62
2
6
CONTINUOUS
10
55.5335800256
20
253.8459518044
11
52.0335800256
21
253.3459518044
12
55.5335800256
22
252.8459518044
13
55.5335800256
23
252.8459518044
0
SOLID
5
230
100
AcDbEntity
8
0
100
AcDbTrace
62
2
6
CONTINUOUS
10
80.5335800256
20
252.8459518044
11
84.0335800256
21
253.3459518044
12
80.5335800256
22
253.8459518044
13
80.5335800256
23
253.8459518044
0
ENDBLK
5
231
100
AcDbEntity
8
0
100
AcDbBlockEnd
0
ENDSEC
0
SECTION
2
ENTITIES
0
DIMENSION
5
232
100
AcDbEntity
8
0
100
AcDbDimension
62
2
6
CONTINUOUS
2
*D0
10
145.3736214352
20
249.7654589174
11
152.0058698109
21
252.7654589174
70
160
3
DIMSTYLE_1
100
AcDbAlignedDimension
13
138.3736214352
23
242.1026025875
14
145.3736214352
24
226.1026025875
100
AcDbRotatedDimension
0
DIMENSION
5
233
100
AcDbEntity
8
0
100
AcDbDimension
62
2
6
CONTINUOUS
2
*D1
10
40.2936666504
20
183.6026025875
11
37.2936666504
21
209.4779157183
70
160
3
DIMSTYLE_2
100
AcDbAlignedDimension
13
62.2835800256
23
233.6026025875
14
62.2835800256
24
183.6026025875
50
270.000000
100
AcDbRotatedDimension
0
DIMENSION
5
234
100
AcDbEntity
8
0
100
AcDbDimension
62
2
6
CONTINUOUS
2
*D2
10
25.8015475862
20
175.1026025875
11
22.8015475862
21
210.0654340588
70
160
3
DIMSTYLE_2
100
AcDbAlignedDimension
13
68.0335800256
23
242.1026025875
14
68.0335800256
24
175.1026025875
50
270.000000
100
AcDbRotatedDimension
0
DIMENSION
5
235
100
AcDbEntity
8
0
100
AcDbDimension
62
2
6
CONTINUOUS
2
*D3
10
84.0335800256
20
253.3459518044
11
68.2987075446
21
256.3459518044
70
160
3
DIMSTYLE_2
100
AcDbAlignedDimension
13
52.0335800256
23
226.1026025875
14
84.0335800256
24
226.1026025873
100
AcDbRotatedDimension
0
LINE
5
236
100
AcDbEntity
8
0
100
AcDbLine
62
2
6
CONTINUOUS
10
90.3227185894
20
67.1420899201
11
195.9227185894
21
67.1420899201
0
LINE
5
237
100
AcDbEntity
8
0
100
AcDbLine
62
2
6
CONTINUOUS
10
90.3227185894
20
67.1420899201
11
90.3227185894
21
16.1420899201
0
LINE
5
238
100
AcDbEntity
8
0
100
AcDbLine
62
2
6
CONTINUOUS
10
90.3227185894
20
52.1420899201
11
195.9227185894
21
52.1420899201
0
LINE
5
239
100
AcDbEntity
8
0
100
AcDbLine
62
2
6
CONTINUOUS
10
90.3227185894
20
37.1420899201
11
195.9227185894
21
37.1420899201
0
LINE
5
23A
100
AcDbEntity
8
0
100
AcDbLine
62
2
6
CONTINUOUS
10
90.3227185894
20
26.6420899201
11
195.9227185894
21
26.6420899201
0
LINE
5
23B
100
AcDbEntity
8
0
100
AcDbLine
62
2
6
CONTINUOUS
10
90.3227185894
20
16.1420899201
11
195.9227185894
21
16.1420899201
0
LINE
5
23C
100
AcDbEntity
8
0
100
AcDbLine
62
2
6
CONTINUOUS
10
143.1227185894
20
37.1420899201
11
143.1227185894
21
16.1420899201
0
LINE
5
23D
100
AcDbEntity
8
0
100
AcDbLine
62
2
6
CONTINUOUS
10
195.9227185894
20
67.1420899201
11
195.9227185894
21
16.1420899201
0
TEXT
5
23E
100
AcDbEntity
8
0
100
AcDbText
62
4
6
CONTINUOUS
10
120.1567687686
20
57.1420899201
7
STANDARD
40
5.0000000000
1
Standardprogramm
41
0.5741487455
72
1
11
143.1227185894
21
57.1420899201
100
AcDbText
0
TEXT
5
23F
100
AcDbEntity
8
0
100
AcDbText
62
4
6
CONTINUOUS
10
118.1854426037
20
42.1420899201
7
STANDARD
40
5.0000000000
1
Rosette, oval, CH-RZ
41
0.4987455197
72
1
11
143.1227185894
21
42.1420899201
100
AcDbText
0
TEXT
5
240
100
AcDbEntity
8
0
100
AcDbText
62
4
6
CONTINUOUS
10
124.9764820303
20
30.3920899201
7
STANDARD
40
3.0000000000
1
01.07.2003
41
0.5648745520
72
2
11
141.9227185894
21
30.3920899201
100
AcDbText
0
TEXT
5
241
100
AcDbEntity
8
0
100
AcDbText
62
4
6
CONTINUOUS
10
183.5936863313
20
30.3920899201
7
STANDARD
40
3.0000000000
1
Blatt 37
41
0.4637096774
72
2
11
194.7227185894
21
30.3920899201
100
AcDbText
0
TEXT
5
242
100
AcDbEntity
8
0
100
AcDbText
62
4
6
CONTINUOUS
10
127.2883099872
20
19.8920899201
7
STANDARD
40
3.0000000000
1
Liesegang
41
0.5420151334
72
2
11
141.9227185894
21
19.8920899201
100
AcDbText
0
TEXT
5
243
100
AcDbEntity
8
0
100
AcDbText
62
4
6
CONTINUOUS
10
160.0227185894
20
19.8920899201
7
STANDARD
40
3.0000000000
1
B 7295 0011
41
0.5757575758
72
1
11
169.5227185894
21
19.8920899201
100
AcDbText
0
LINE
5
244
100
AcDbEntity
8
0
100
AcDbLine
62
7
6
CONTINUOUS
10
0.0000000000
20
0.0000000000
11
210.0000000000
21
0.0000000000
0
LINE
5
245
100
AcDbEntity
8
0
100
AcDbLine
62
7
6
CONTINUOUS
10
0.0000000000
20
0.0000000000
11
0.0000000000
21
297.0000000000
0
LINE
5
246
100
AcDbEntity
8
0
100
AcDbLine
62
7
6
CONTINUOUS
10
210.0000000000
20
0.0000000000
11
210.0000000000
21
297.0000000000
0
LINE
5
247
100
AcDbEntity
8
0
100
AcDbLine
62
7
6
CONTINUOUS
10
0.0000000000
20
297.0000000000
11
210.0000000000
21
297.0000000000
0
LINE
5
248
100
AcDbEntity
8
DEFAULT_1
100
AcDbLine
62
2
6
CENTER
10
68.0335800256
20
183.6026025875
11
62.2835800256
21
183.6026025875
0
LINE
5
249
100
AcDbEntity
8
DEFAULT_1
100
AcDbLine
62
2
6
CENTER
10
68.0335800256
20
183.6026025875
11
73.7835800256
21
183.6026025875
0
LINE
5
24A
100
AcDbEntity
8
0
100
AcDbLine
62
9
6
CONTINUOUS
10
54.0335800256
20
191.1026025875
11
52.0335800256
21
191.1026025877
0
LINE
5
24B
100
AcDbEntity
8
0
100
AcDbLine
62
9
6
CONTINUOUS
10
82.0335800256
20
191.1026025875
11
84.0335800256
21
191.1026025875
0
LINE
5
24C
100
AcDbEntity
8
0
100
AcDbLine
62
7
6
CONTINUOUS
10
52.0335800256
20
226.1026025875
11
52.0335800256
21
191.1026025875
0
LINE
5
24D
100
AcDbEntity
8
0
100
AcDbLine
62
9
6
CONTINUOUS
10
54.0335800256
20
226.1026025875
11
54.0335800256
21
191.1026025875
0
LINE
5
24E
100
AcDbEntity
8
DEFAULT_1
100
AcDbLine
62
2
6
CENTER
10
68.0335800256
20
244.0118139685
11
68.0335800256
21
239.3526025875
0
LINE
5
24F
100
AcDbEntity
8
DEFAULT_1
100
AcDbLine
62
2
6
CENTER
10
68.0335800256
20
227.8526025875
11
68.0335800256
21
189.3526025875
0
LINE
5
250
100
AcDbEntity
8
DEFAULT_1
100
AcDbLine
62
2
6
CENTER
10
68.0335800256
20
177.8526025875
11
68.0335800256
21
173.1933912065
0
LINE
5
251
100
AcDbEntity
8
DEFAULT_1
100
AcDbLine
62
2
6
CENTER
10
68.0335800256
20
233.6026025875
11
68.0335800256
21
227.8526025875
0
LINE
5
252
100
AcDbEntity
8
DEFAULT_1
100
AcDbLine
62
2
6
CENTER
10
68.0335800256
20
183.6026025875
11
68.0335800256
21
177.8526025875
0
LINE
5
253
100
AcDbEntity
8
DEFAULT_1
100
AcDbLine
62
2
6
CENTER
10
68.0335800256
20
183.6026025875
11
68.0335800256
21
189.3526025875
0
LINE
5
254
100
AcDbEntity
8
DEFAULT_1
100
AcDbLine
62
2
6
CENTER
10
68.0335800256
20
233.6026025875
11
68.0335800256
21
239.3526025875
0
LINE
5
255
100
AcDbEntity
8
DEFAULT_1
100
AcDbLine
62
2
6
CENTER
10
50.1335800256
20
208.6026025875
11
85.9335800256
21
208.6026025875
0
LINE
5
256
100
AcDbEntity
8
0
100
AcDbLine
62
9
6
CONTINUOUS
10
82.0335800256
20
191.1026025875
11
82.0335800256
21
226.1026025875
0
LINE
5
257
100
AcDbEntity
8
0
100
AcDbLine
62
7
6
CONTINUOUS
10
84.0335800256
20
191.1026025875
11
84.0335800256
21
226.1026025875
0
LINE
5
258
100
AcDbEntity
8
0
100
AcDbLine
62
9
6
CONTINUOUS
10
54.0335800256
20
226.1026025875
11
52.0335800256
21
226.1026025875
0
LINE
5
259
100
AcDbEntity
8
0
100
AcDbLine
62
9
6
CONTINUOUS
10
82.0335800256
20
226.1026025875
11
84.0335800256
21
226.1026025873
0
LINE
5
25A
100
AcDbEntity
8
DEFAULT_1
100
AcDbLine
62
2
6
CENTER
10
68.0335800256
20
233.6026025875
11
62.2835800256
21
233.6026025875
0
LINE
5
25B
100
AcDbEntity
8
DEFAULT_1
100
AcDbLine
62
2
6
CENTER
10
68.0335800256
20
233.6026025875
11
73.7835800256
21
233.6026025875
0
LINE
5
25C
100
AcDbEntity
8
0
100
AcDbLine
62
7
6
CONTINUOUS
10
143.3736214352
20
175.1026025875
11
141.0736214095
21
175.1026025875
0
LINE
5
25D
100
AcDbEntity
8
0
100
AcDbLine
62
7
6
CONTINUOUS
10
140.0736214610
20
175.1026025875
11
138.3736214352
21
175.1026025875
0
LINE
5
25E
100
AcDbEntity
8
0
100
AcDbLine
62
7
6
CONTINUOUS
10
138.3736214352
20
175.1028822453
11
138.3736214352
21
242.1023229297
0
LINE
5
25F
100
AcDbEntity
8
0
100
AcDbLine
62
7
6
CONTINUOUS
10
145.3736214352
20
240.1024404755
11
145.3736214352
21
177.1027646995
0
LINE
5
260
100
AcDbEntity
8
0
100
AcDbLine
62
7
6
CONTINUOUS
10
143.3736214352
20
242.1026025875
11
141.0736214095
21
242.1026025875
0
LINE
5
261
100
AcDbEntity
8
0
100
AcDbLine
62
7
6
CONTINUOUS
10
140.0736214610
20
242.1026025875
11
138.3736214352
21
242.1026025875
0
LINE
5
262
100
AcDbEntity
8
0
100
AcDbLine
62
7
6
CONTINUOUS
10
35.0597140028
20
117.7506220193
11
34.4316973937
21
116.3907276135
0
LINE
5
263
100
AcDbEntity
8
0
100
AcDbLine
62
9
6
CONTINUOUS
10
35.3541549297
20
112.5273485729
11
34.7261383206
21
111.1674541670
0
LINE
5
264
100
AcDbEntity
8
0
100
AcDbLine
62
7
6
CONTINUOUS
10
42.1125188842
20
97.0637174834
11
34.7261383206
21
111.1674541670
0
LINE
5
265
100
AcDbEntity
8
0
100
AcDbLine
62
9
6
CONTINUOUS
10
35.3541549297
20
112.5273485729
11
42.7405354933
21
98.4236118892
0
LINE
5
266
100
AcDbEntity
8
0
100
AcDbLine
62
9
6
CONTINUOUS
10
36.4764210623
20
113.3049520436
11
43.8628016259
21
99.2012153600
0
LINE
5
267
100
AcDbEntity
8
0
100
AcDbLine
62
9
6
CONTINUOUS
10
42.7405354933
20
98.4236118892
11
42.1125188842
21
97.0637174834
0
LINE
5
268
100
AcDbEntity
8
0
100
AcDbLine
62
9
6
CONTINUOUS
10
56.0576344718
20
102.4722552781
11
48.6712539082
21
116.5759919618
0
LINE
5
269
100
AcDbEntity
8
0
100
AcDbLine
62
7
6
CONTINUOUS
10
56.6922926920
20
102.3922408777
11
49.3059121274
21
116.4959775631
0
LINE
5
26A
100
AcDbEntity
8
0
100
AcDbLine
62
7
6
CONTINUOUS
10
56.9719282440
20
96.9386697778
11
56.3439116349
21
95.5787753720
0
CIRCLE
5
26B
100
AcDbEntity
8
0
100
AcDbCircle
62
7
6
CONTINUOUS
10
68.0335800256
20
208.6026025875
40
11.1500000000
0
ARC
5
26C
100
AcDbEntity
8
0
100
AcDbCircle
62
7
6
CONTINUOUS
10
68.0335800256
20
226.1026025875
40
16.0000000000
100
AcDbArc
50
0.0000000000
51
180.0000000000
0
ARC
5
26D
100
AcDbEntity
8
0
100
AcDbCircle
62
7
6
CONTINUOUS
10
68.0335800256
20
191.1026025875
40
16.0000000000
100
AcDbArc
50
180.0000000000
51
360.0000000000
0
ARC
5
26E
100
AcDbEntity
8
0
100
AcDbCircle
62
9
6
CONTINUOUS
10
68.0335800256
20
226.1026025875
40
13.9999998848
100
AcDbArc
50
0.0000000000
51
180.0000000000
0
ARC
5
26F
100
AcDbEntity
8
0
100
AcDbCircle
62
9
6
CONTINUOUS
10
68.0335800256
20
191.1026025875
40
13.9999998848
100
AcDbArc
50
180.0000000000
51
360.0000000000
0
ARC
5
270
100
AcDbEntity
8
0
100
AcDbCircle
62
7
6
CONTINUOUS
10
143.3736214352
20
177.1026025875
40
2.0000000000
100
AcDbArc
50
270.0000000000
51
360.0000000000
0
ARC
5
271
100
AcDbEntity
8
0
100
AcDbCircle
62
7
6
CONTINUOUS
10
143.3736214352
20
240.1026025875
40
2.0000000000
100
AcDbArc
50
0.0000000000
51
90.0000000000
0
SPLINE
5
272
100
AcDbEntity
8
0
100
AcDbSpline
62
7
6
CONTINUOUS
70
0
71
3
72
16
73
12
74
10
42
0.0000001000
43
0.0000001000
44
0.0000000001
40
0.0000000000
40
0.0000000000
40
0.0000000000
40
0.0000000000
40
0.0299832507
40
0.1172102738
40
0.2495730866
40
0.4136568957
40
0.5864700742
40
0.7503261235
40
0.8829207448
40
0.9698844422
40
1.0000000000
40
1.0000000000
40
1.0000000000
40
1.0000000000
10
141.0736214237
20
242.1026025875
30
0.0000000000
10
141.0636302921
20
242.1022903643
30
0.0000000000
10
141.0245718889
20
242.1011063728
30
0.0000000000
10
140.9413967121
20
242.0988896126
30
0.0000000000
10
140.8135086802
20
242.0963586443
30
0.0000000000
10
140.6570696868
20
242.0947119627
30
0.0000000000
10
140.4901221246
20
242.0947126253
30
0.0000000000
10
140.3336817927
20
242.0963594488
30
0.0000000000
10
140.2058801794
20
242.0988888277
30
0.0000000000
10
140.1226714155
20
242.1011064796
30
0.0000000000
10
140.0836566671
20
242.1022889866
30
0.0000000000
10
140.0736214476
20
242.1026025875
30
0.0000000000
11
141.0736214237
21
242.1026025875
31
0.0000000000
11
141.0436471604
21
242.1016939682
31
0.0000000000
11
140.9564371951
21
242.0993697096
31
0.0000000000
11
140.8240791917
21
242.0967503715
31
0.0000000000
11
140.6599783080
21
242.0950231347
31
0.0000000000
11
140.4871375732
21
242.0950238206
31
0.0000000000
11
140.3232644743
21
242.0967487940
31
0.0000000000
11
140.1906746733
21
242.0993728445
31
0.0000000000
11
140.1037279820
21
242.1016900830
31
0.0000000000
11
140.0736214476
21
242.1026025875
31
0.0000000000
0
SPLINE
5
273
100
AcDbEntity
8
0
100
AcDbSpline
62
7
6
CONTINUOUS
70
0
71
3
72
16
73
12
74
10
42
0.0000001000
43
0.0000001000
44
0.0000000001
40
0.0000000000
40
0.0000000000
40
0.0000000000
40
0.0000000000
40
0.0301155578
40
0.1170792552
40
0.2496738765
40
0.4135299258
40
0.5863431043
40
0.7504269134
40
0.8827897262
40
0.9700167493
40
1.0000000000
40
1.0000000000
40
1.0000000000
40
1.0000000000
10
140.0736214476
20
175.1026025875
30
0.0000000000
10
140.0836566671
20
175.1029161885
30
0.0000000000
10
140.1226714155
20
175.1040986954
30
0.0000000000
10
140.2058801794
20
175.1063163473
30
0.0000000000
10
140.3336817927
20
175.1088457262
30
0.0000000000
10
140.4901221246
20
175.1104925497
30
0.0000000000
10
140.6570696868
20
175.1104932123
30
0.0000000000
10
140.8135086802
20
175.1088465307
30
0.0000000000
10
140.9413967121
20
175.1063155624
30
0.0000000000
10
141.0245718889
20
175.1040988022
30
0.0000000000
10
141.0636302921
20
175.1029148107
30
0.0000000000
10
141.0736214237
20
175.1026025875
30
0.0000000000
11
140.0736214476
21
175.1026025875
31
0.0000000000
11
140.1037279820
21
175.1035150920
31
0.0000000000
11
140.1906746733
21
175.1058323305
31
0.0000000000
11
140.3232644743
21
175.1084563810
31
0.0000000000
11
140.4871375732
21
175.1101813544
31
0.0000000000
11
140.6599783080
21
175.1101820403
31
0.0000000000
11
140.8240791917
21
175.1084548035
31
0.0000000000
11
140.9564371951
21
175.1058354654
31
0.0000000000
11
141.0436471604
21
175.1035112068
31
0.0000000000
11
141.0736214237
21
175.1026025875
31
0.0000000000
0
SPLINE
5
274
100
AcDbEntity
8
0
100
AcDbSpline
62
7
6
CONTINUOUS
70
0
71
3
72
21
73
17
74
15
42
0.0000001000
43
0.0000001000
44
0.0000000001
40
0.0000000000
40
0.0000000000
40
0.0000000000
40
0.0000000000
40
0.0169962352
40
0.0832774367
40
0.1515785798
40
0.2223647417
40
0.2957993827
40
0.3717569469
40
0.4498629798
40
0.5295484862
40
0.6101104281
40
0.6907743761
40
0.7707577232
40
0.8493329403
40
0.9258904621
40
1.0000000000
40
1.0000000000
40
1.0000000000
40
1.0000000000
10
50.8941627379
20
104.8346253903
30
0.0000000000
10
50.9073297319
20
104.8980118005
30
0.0000000000
10
50.9636479196
20
105.2102852226
30
0.0000000000
10
50.9928012342
20
105.7896454400
30
0.0000000000
10
50.8823208456
20
106.5671865494
30
0.0000000000
10
50.6270777719
20
107.3381030366
30
0.0000000000
10
50.2348653203
20
108.0817659429
30
0.0000000000
10
49.7168251321
20
108.7785190582
30
0.0000000000
10
49.0871930751
20
109.4099975918
30
0.0000000000
10
48.3630108326
20
109.9595227809
30
0.0000000000
10
47.5637488790
20
110.4125231076
30
0.0000000000
10
46.7108198524
20
110.7569235271
30
0.0000000000
10
45.8270621132
20
110.9834816924
30
0.0000000000
10
44.9360032188
20
111.0859845854
30
0.0000000000
10
44.0617427425
20
111.0615253465
30
0.0000000000
10
43.4952894944
20
110.9587719091
30
0.0000000000
10
43.2231196889
20
110.8857673580
30
0.0000000000
11
50.8941627379
21
104.8346253903
31
0.0000000000
11
50.9286391950
21
105.0257277147
31
0.0000000000
11
50.9685736379
21
105.7807464538
31
0.0000000000
11
50.8614184439
21
106.5524582308
31
0.0000000000
11
50.6100965274
21
107.3198127603
31
0.0000000000
11
50.2214632950
21
108.0618786109
31
0.0000000000
11
49.7061196483
21
108.7584141608
31
0.0000000000
11
49.0781228185
21
109.3904197357
31
0.0000000000
11
48.3546029221
21
109.9406558713
31
0.0000000000
11
47.5552956958
21
110.3941135600
31
0.0000000000
11
46.7020041571
21
110.7384236582
31
0.0000000000
11
45.8180038749
21
110.9641942839
31
0.0000000000
11
44.9274080723
21
111.0652670030
31
0.0000000000
11
44.0545098812
21
111.0388848153
31
0.0000000000
11
43.2231196889
21
110.8857673580
31
0.0000000000
0
SPLINE
5
275
100
AcDbEntity
8
0
100
AcDbSpline
62
7
6
CONTINUOUS
70
0
71
3
72
11
73
7
74
5
42
0.0000001000
43
0.0000001000
44
0.0000000001
40
0.0000000000
40
0.0000000000
40
0.0000000000
40
0.0000000000
40
0.2984920977
40
0.5863074759
40
0.8650670010
40
1.0000000000
40
1.0000000000
40
1.0000000000
40
1.0000000000
10
43.2231196889
20
110.8857673580
30
0.0000000000
10
42.9606544488
20
110.8153658782
30
0.0000000000
10
42.4549551843
20
110.6354899822
30
0.0000000000
10
41.7667111427
20
110.2441543126
30
0.0000000000
10
41.2772957675
20
109.8275793013
30
0.0000000000
10
41.0294230597
20
109.5425140253
30
0.0000000000
10
40.9534178570
20
109.4457388963
30
0.0000000000
11
43.2231196889
21
110.8857673580
31
0.0000000000
11
42.4559156526
21
110.6100912762
31
0.0000000000
11
41.7738250983
21
110.2193762948
31
0.0000000000
11
41.1954536783
21
109.7242800999
31
0.0000000000
11
40.9534178570
21
109.4457388963
31
0.0000000000
0
SPLINE
5
276
100
AcDbEntity
8
0
100
AcDbSpline
62
7
6
CONTINUOUS
70
0
71
3
72
8
73
4
74
2
42
0.0000001000
43
0.0000001000
44
0.0000000001
40
0.0000000000
40
0.0000000000
40
0.0000000000
40
0.0000000000
40
1.0000000000
40
1.0000000000
40
1.0000000000
40
1.0000000000
10
51.2620425333
20
105.4149268484
30
0.0000000000
10
51.2780200767
20
105.4536460392
30
0.0000000000
10
51.2933164601
20
105.4926454426
30
0.0000000000
10
51.3079193708
20
105.5319019219
30
0.0000000000
11
51.2620425333
21
105.4149268484
31
0.0000000000
11
51.3079193708
21
105.5319019219
31
0.0000000000
0
SPLINE
5
277
100
AcDbEntity
8
0
100
AcDbSpline
62
7
6
CONTINUOUS
70
0
71
3
72
8
73
4
74
2
42
0.0000001000
43
0.0000001000
44
0.0000000001
40
0.0000000000
40
0.0000000000
40
0.0000000000
40
0.0000000000
40
1.0000000000
40
1.0000000000
40
1.0000000000
40
1.0000000000
10
51.3079193708
20
105.5319019219
30
0.0000000000
10
51.3107376826
20
105.5394782879
30
0.0000000000
10
51.3135301641
20
105.5470642294
30
0.0000000000
10
51.3162968041
20
105.5546595615
30
0.0000000000
11
51.3079193708
21
105.5319019219
31
0.0000000000
11
51.3162968041
21
105.5546595615
31
0.0000000000
0
SPLINE
5
278
100
AcDbEntity
8
0
100
AcDbSpline
62
7
6
CONTINUOUS
70
0
71
3
72
8
73
4
74
2
42
0.0000001000
43
0.0000001000
44
0.0000000001
40
0.0000000000
40
0.0000000000
40
0.0000000000
40
0.0000000000
40
1.0000000000
40
1.0000000000
40
1.0000000000
40
1.0000000000
10
51.3162968041
20
105.5546595615
30
0.0000000000
10
51.3346451406
20
105.6050317489
30
0.0000000000
10
51.3518568830
20
105.6558169683
30
0.0000000000
10
51.3679287543
20
105.7069613041
30
0.0000000000
11
51.3162968041
21
105.5546595615
31
0.0000000000
11
51.3679287543
21
105.7069613041
31
0.0000000000
0
SPLINE
5
279
100
AcDbEntity
8
0
100
AcDbSpline
62
7
6
CONTINUOUS
70
0
71
3
72
8
73
4
74
2
42
0.0000001000
43
0.0000001000
44
0.0000000001
40
0.0000000000
40
0.0000000000
40
0.0000000000
40
0.0000000000
40
1.0000000000
40
1.0000000000
40
1.0000000000
40
1.0000000000
10
51.3679287543
20
105.7069613041
30
0.0000000000
10
51.4050369778
20
105.8250480791
30
0.0000000000
10
51.4360685656
20
105.9450492979
30
0.0000000000
10
51.4609831817
20
106.0663013308
30
0.0000000000
11
51.3679287543
21
105.7069613041
31
0.0000000000
11
51.4609831817
21
106.0663013308
31
0.0000000000
0
SPLINE
5
27A
100
AcDbEntity
8
0
100
AcDbSpline
62
7
6
CONTINUOUS
70
0
71
3
72
9
73
5
74
3
42
0.0000001000
43
0.0000001000
44
0.0000000001
40
0.0000000000
40
0.0000000000
40
0.0000000000
40
0.0000000000
40
0.4974981321
40
1.0000000000
40
1.0000000000
40
1.0000000000
40
1.0000000000
10
51.4609831817
20
106.0663013308
30
0.0000000000
10
51.4734810943
20
106.1271249577
30
0.0000000000
10
51.4955086832
20
106.2500166195
30
0.0000000000
10
51.5112967069
20
106.3738415087
30
0.0000000000
10
51.5176805961
20
106.4362227876
30
0.0000000000
11
51.4609831817
21
106.0663013308
31
0.0000000000
11
51.4938541432
21
106.2496326800
31
0.0000000000
11
51.5176805961
21
106.4362227876
31
0.0000000000
0
SPLINE
5
27B
100
AcDbEntity
8
0
100
AcDbSpline
62
7
6
CONTINUOUS
70
0
71
3
72
8
73
4
74
2
42
0.0000001000
43
0.0000001000
44
0.0000000001
40
0.0000000000
40
0.0000000000
40
0.0000000000
40
0.0000000000
40
1.0000000000
40
1.0000000000
40
1.0000000000
40
1.0000000000
10
51.5176805961
20
106.4362227876
30
0.0000000000
10
51.5305292526
20
106.5617756598
30
0.0000000000
10
51.5371006422
20
106.6879727801
30
0.0000000000
10
51.5376060796
20
106.8141895739
30
0.0000000000
11
51.5176805961
21
106.4362227876
31
0.0000000000
11
51.5376060796
21
106.8141895739
31
0.0000000000
0
SPLINE
5
27C
100
AcDbEntity
8
0
100
AcDbSpline
62
7
6
CONTINUOUS
70
0
71
3
72
9
73
5
74
3
42
0.0000001000
43
0.0000001000
44
0.0000000001
40
0.0000000000
40
0.0000000000
40
0.0000000000
40
0.0000000000
40
0.4961693303
40
1.0000000000
40
1.0000000000
40
1.0000000000
40
1.0000000000
10
51.5376060796
20
106.8141895739
30
0.0000000000
10
51.5378604018
20
106.8776983971
30
0.0000000000
10
51.5352776721
20
107.0057067206
30
0.0000000000
10
51.5265658961
20
107.1334120741
30
0.0000000000
10
51.5206676596
20
107.1976150489
30
0.0000000000
11
51.5376060796
21
106.8141895739
31
0.0000000000
11
51.5337885861
21
107.0046514190
31
0.0000000000
11
51.5206676596
21
107.1976150489
31
0.0000000000
0
SPLINE
5
27D
100
AcDbEntity
8
0
100
AcDbSpline
62
7
6
CONTINUOUS
70
0
71
3
72
8
73
4
74
2
42
0.0000001000
43
0.0000001000
44
0.0000000001
40
0.0000000000
40
0.0000000000
40
0.0000000000
40
0.0000000000
40
1.0000000000
40
1.0000000000
40
1.0000000000
40
1.0000000000
10
51.5206676596
20
107.1976150489
30
0.0000000000
10
51.5087718978
20
107.3271017695
30
0.0000000000
10
51.4907381961
20
107.4560235023
30
0.0000000000
10
51.4669509259
20
107.5838716877
30
0.0000000000
11
51.5206676596
21
107.1976150489
31
0.0000000000
11
51.4669509259
21
107.5838716877
31
0.0000000000
0
SPLINE
5
27E
100
AcDbEntity
8
0
100
AcDbSpline
62
7
6
CONTINUOUS
70
0
71
3
72
9
73
5
74
3
42
0.0000001000
43
0.0000001000
44
0.0000000001
40
0.0000000000
40
0.0000000000
40
0.0000000000
40
0.0000000000
40
0.4954504634
40
1.0000000000
40
1.0000000000
40
1.0000000000
40
1.0000000000
10
51.4669509259
20
107.5838716877
30
0.0000000000
10
51.4549578681
20
107.6483301423
30
0.0000000000
10
51.4277995558
20
107.7778800503
30
0.0000000000
10
51.3948838293
20
107.9060527287
30
0.0000000000
10
51.3768671618
20
107.9703264670
30
0.0000000000
11
51.4669509259
21
107.5838716877
31
0.0000000000
11
51.4266333921
21
107.7763631961
31
0.0000000000
11
51.3768671618
21
107.9703264670
31
0.0000000000
0
SPLINE
5
27F
100
AcDbEntity
8
0
100
AcDbSpline
62
7
6
CONTINUOUS
70
0
71
3
72
8
73
4
74
2
42
0.0000001000
43
0.0000001000
44
0.0000000001
40
0.0000000000
40
0.0000000000
40
0.0000000000
40
0.0000000000
40
1.0000000000
40
1.0000000000
40
1.0000000000
40
1.0000000000
10
51.3768671618
20
107.9703264670
30
0.0000000000
10
51.3313524508
20
108.1326983716
30
0.0000000000
10
51.2768452084
20
108.2925447573
30
0.0000000000
10
51.2142581822
20
108.4491380869
30
0.0000000000
11
51.3768671618
21
107.9703264670
31
0.0000000000
11
51.2142581822
21
108.4491380869
31
0.0000000000
0
SPLINE
5
280
100
AcDbEntity
8
0
100
AcDbSpline
62
7
6
CONTINUOUS
70
0
71
3
72
9
73
5
74
3
42
0.0000001000
43
0.0000001000
44
0.0000000001
40
0.0000000000
40
0.0000000000
40
0.0000000000
40
0.0000000000
40
0.2827795211
40
1.0000000000
40
1.0000000000
40
1.0000000000
40
1.0000000000
10
51.2142581822
20
108.4491380869
30
0.0000000000
10
51.2016037384
20
108.4807996246
30
0.0000000000
10
51.1556854544
20
108.5922947944
30
0.0000000000
10
51.1057308402
20
108.7020516811
30
0.0000000000
10
51.0679386197
20
108.7798175630
30
0.0000000000
11
51.2142581822
21
108.4491380869
31
0.0000000000
11
51.1753114755
21
108.5437177255
31
0.0000000000
11
51.0679386197
21
108.7798175630
31
0.0000000000
0
SPLINE
5
281
100
AcDbEntity
8
0
100
AcDbSpline
62
7
6
CONTINUOUS
70
0
71
3
72
8
73
4
74
2
42
0.0000001000
43
0.0000001000
44
0.0000000001
40
0.0000000000
40
0.0000000000
40
0.0000000000
40
0.0000000000
40
1.0000000000
40
1.0000000000
40
1.0000000000
40
1.0000000000
10
51.0679386197
20
108.7798175630
30
0.0000000000
10
51.0451892442
20
108.8266294524
30
0.0000000000
10
51.0217282949
20
108.8730956535
30
0.0000000000
10
50.9975803240
20
108.9192031174
30
0.0000000000
11
51.0679386197
21
108.7798175630
31
0.0000000000
11
50.9975803240
21
108.9192031174
31
0.0000000000
0
SPLINE
5
282
100
AcDbEntity
8
0
100
AcDbSpline
62
7
6
CONTINUOUS
70
0
71
3
72
8
73
4
74
2
42
0.0000001000
43
0.0000001000
44
0.0000000001
40
0.0000000000
40
0.0000000000
40
0.0000000000
40
0.0000000000
40
1.0000000000
40
1.0000000000
40
1.0000000000
40
1.0000000000
10
50.9975803240
20
108.9192031174
30
0.0000000000
10
50.9729943207
20
108.9661469482
30
0.0000000000
10
50.9476961451
20
109.0127189091
30
0.0000000000
10
50.9217117100
20
109.0589052283
30
0.0000000000
11
50.9975803240
21
108.9192031174
31
0.0000000000
11
50.9217117100
21
109.0589052283
31
0.0000000000
0
SPLINE
5
283
100
AcDbEntity
8
0
100
AcDbSpline
62
7
6
CONTINUOUS
70
0
71
3
72
17
73
13
74
11
42
0.0000001000
43
0.0000001000
44
0.0000000001
40
0.0000000000
40
0.0000000000
40
0.0000000000
40
0.0000000000
40
0.0324075015
40
0.1388638975
40
0.2483314253
40
0.3600126240
40
0.4729221687
40
0.5859746774
40
0.6980733073
40
0.8081984082
40
0.9154956595
40
1.0000000000
40
1.0000000000
40
1.0000000000
40
1.0000000000
10
50.9217117100
20
109.0589052283
30
0.0000000000
10
50.8785540932
20
109.1356162077
30
0.0000000000
10
50.6855148350
20
109.4597589972
30
0.0000000000
10
50.2820400803
20
110.0024240235
30
0.0000000000
10
49.6524080232
20
110.6339025570
30
0.0000000000
10
48.9282257808
20
111.1834277461
30
0.0000000000
10
48.1289638272
20
111.6364280728
30
0.0000000000
10
47.2760348005
20
111.9808284923
30
0.0000000000
10
46.3922770614
20
112.2073866576
30
0.0000000000
10
45.5012181669
20
112.3098895506
30
0.0000000000
10
44.6796437412
20
112.2869043127
30
0.0000000000
10
44.1644513261
20
112.2007914634
30
0.0000000000
10
43.9411862149
20
112.1481672005
30
0.0000000000
11
50.9217117100
21
109.0589052283
31
0.0000000000
11
50.7866782431
21
109.2857835762
31
0.0000000000
11
50.2713345964
21
109.9823191260
31
0.0000000000
11
49.6433377667
21
110.6143247010
31
0.0000000000
11
48.9198178703
21
111.1645608365
31
0.0000000000
11
48.1205106440
21
111.6180185252
31
0.0000000000
11
47.2672191053
21
111.9623286234
31
0.0000000000
11
46.3832188230
21
112.1880992491
31
0.0000000000
11
45.4926230204
21
112.2891719683
31
0.0000000000
11
44.6197248294
21
112.2627897805
31
0.0000000000
11
43.9411862149
21
112.1481672005
31
0.0000000000
0
SPLINE
5
284
100
AcDbEntity
8
0
100
AcDbSpline
62
7
6
CONTINUOUS
70
0
71
3
72
8
73
4
74
2
42
0.0000001000
43
0.0000001000
44
0.0000000001
40
0.0000000000
40
0.0000000000
40
0.0000000000
40
0.0000000000
40
1.0000000000
40
1.0000000000
40
1.0000000000
40
1.0000000000
10
43.9411862149
20
112.1481672005
30
0.0000000000
10
43.8900307438
20
112.1361097010
30
0.0000000000
10
43.8390705349
20
112.1232812959
30
0.0000000000
10
43.7883346371
20
112.1096723232
30
0.0000000000
11
43.9411862149
21
112.1481672005
31
0.0000000000
11
43.7883346371
21
112.1096723232
31
0.0000000000
0
SPLINE
5
285
100
AcDbEntity
8
0
100
AcDbSpline
62
7
6
CONTINUOUS
70
0
71
3
72
8
73
4
74
2
42
0.0000001000
43
0.0000001000
44
0.0000000001
40
0.0000000000
40
0.0000000000
40
0.0000000000
40
0.0000000000
40
1.0000000000
40
1.0000000000
40
1.0000000000
40
1.0000000000
10
43.7883346371
20
112.1096723232
30
0.0000000000
10
43.7385286727
20
112.0963127881
30
0.0000000000
10
43.6889031595
20
112.0821907753
30
0.0000000000
10
43.6394933444
20
112.0672998009
30
0.0000000000
11
43.7883346371
21
112.1096723232
31
0.0000000000
11
43.6394933444
21
112.0672998009
31
0.0000000000
0
SPLINE
5
286
100
AcDbEntity
8
0
100
AcDbSpline
62
7
6
CONTINUOUS
70
0
71
3
72
8
73
4
74
2
42
0.0000001000
43
0.0000001000
44
0.0000000001
40
0.0000000000
40
0.0000000000
40
0.0000000000
40
0.0000000000
40
1.0000000000
40
1.0000000000
40
1.0000000000
40
1.0000000000
10
43.6394933444
20
112.0672998009
30
0.0000000000
10
43.5251354207
20
112.0328349699
30
0.0000000000
10
43.4119329501
20
111.9942509588
30
0.0000000000
10
43.3003229299
20
111.9514673764
30
0.0000000000
11
43.6394933444
21
112.0672998009
31
0.0000000000
11
43.3003229299
21
111.9514673764
31
0.0000000000
0
SPLINE
5
287
100
AcDbEntity
8
0
100
AcDbSpline
62
7
6
CONTINUOUS
70
0
71
3
72
9
73
5
74
3
42
0.0000001000
43
0.0000001000
44
0.0000000001
40
0.0000000000
40
0.0000000000
40
0.0000000000
40
0.0000000000
40
0.6041527853
40
1.0000000000
40
1.0000000000
40
1.0000000000
40
1.0000000000
10
43.3003229299
20
111.9514673764
30
0.0000000000
10
43.2060344754
20
111.9153236874
30
0.0000000000
10
43.0518484184
20
111.8505372803
30
0.0000000000
10
42.9014979632
20
111.7774065870
30
0.0000000000
10
42.8426611283
20
111.7471486937
30
0.0000000000
11
43.3003229299
21
111.9514673764
31
0.0000000000
11
43.0211306007
21
111.8339962414
31
0.0000000000
11
42.8426611283
21
111.7471486937
31
0.0000000000
0
SPLINE
5
288
100
AcDbEntity
8
0
100
AcDbSpline
62
7
6
CONTINUOUS
70
0
71
3
72
8
73
4
74
2
42
0.0000001000
43
0.0000001000
44
0.0000000001
40
0.0000000000
40
0.0000000000
40
0.0000000000
40
0.0000000000
40
1.0000000000
40
1.0000000000
40
1.0000000000
40
1.0000000000
10
42.8426611283
20
111.7471486937
30
0.0000000000
10
42.7259749467
20
111.6871407407
30
0.0000000000
10
42.6119592701
20
111.6219830704
30
0.0000000000
10
42.5012221644
20
111.5516616118
30
0.0000000000
11
42.8426611283
21
111.7471486937
31
0.0000000000
11
42.5012221644
21
111.5516616118
31
0.0000000000
0
SPLINE
5
289
100
AcDbEntity
8
0
100
AcDbSpline
62
7
6
CONTINUOUS
70
0
71
3
72
9
73
5
74
3
42
0.0000001000
43
0.0000001000
44
0.0000000001
40
0.0000000000
40
0.0000000000
40
0.0000000000
40
0.0000000000
40
0.5040894484
40
1.0000000000
40
1.0000000000
40
1.0000000000
40
1.0000000000
10
42.5012221644
20
111.5516616118
30
0.0000000000
10
42.4463312088
20
111.5168041714
30
0.0000000000
10
42.3390379650
20
111.4451378971
30
0.0000000000
10
42.2352063523
20
111.3684717994
30
0.0000000000
10
42.1846473401
20
111.3292467639
30
0.0000000000
11
42.5012221644
21
111.5516616118
31
0.0000000000
11
42.3390400464
21
111.4432812600
31
0.0000000000
11
42.1846473401
21
111.3292467639
31
0.0000000000
0
SPLINE
5
28A
100
AcDbEntity
8
0
100
AcDbSpline
62
7
6
CONTINUOUS
70
0
71
3
72
8
73
4
74
2
42
0.0000001000
43
0.0000001000
44
0.0000000001
40
0.0000000000
40
0.0000000000
40
0.0000000000
40
0.0000000000
40
1.0000000000
40
1.0000000000
40
1.0000000000
40
1.0000000000
10
42.1846473401
20
111.3292467639
30
0.0000000000
10
42.0842356617
20
111.2513446951
30
0.0000000000
10
41.9875007927
20
111.1686877237
30
0.0000000000
10
41.8950762347
20
111.0814645143
30
0.0000000000
11
42.1846473401
21
111.3292467639
31
0.0000000000
11
41.8950762347
21
111.0814645143
31
0.0000000000
0
SPLINE
5
28B
100
AcDbEntity
8
0
100
AcDbSpline
62
7
6
CONTINUOUS
70
0
71
3
72
9
73
5
74
3
42
0.0000001000
43
0.0000001000
44
0.0000000001
40
0.0000000000
40
0.0000000000
40
0.0000000000
40
0.0000000000
40
0.5028953163
40
1.0000000000
40
1.0000000000
40
1.0000000000
40
1.0000000000
10
41.8950762347
20
111.0814645143
30
0.0000000000
10
41.8491852012
20
111.0381560766
30
0.0000000000
10
41.7600446110
20
110.9497993553
30
0.0000000000
10
41.6754124400
20
110.8570826788
30
0.0000000000
10
41.6345216921
20
110.8099669512
30
0.0000000000
11
41.8950762347
21
111.0814645143
31
0.0000000000
11
41.7606686265
21
110.9481850652
31
0.0000000000
11
41.6345216921
21
110.8099669512
31
0.0000000000
0
SPLINE
5
28C
100
AcDbEntity
8
0
100
AcDbSpline
62
7
6
CONTINUOUS
70
0
71
3
72
8
73
4
74
2
42
0.0000001000
43
0.0000001000
44
0.0000000001
40
0.0000000000
40
0.0000000000
40
0.0000000000
40
0.0000000000
40
1.0000000000
40
1.0000000000
40
1.0000000000
40
1.0000000000
10
41.6345216921
20
110.8099669512
30
0.0000000000
10
41.5530762510
20
110.7161227097
30
0.0000000000
10
41.4763132920
20
110.6182087881
30
0.0000000000
10
41.4047560037
20
110.5166326699
30
0.0000000000
11
41.6345216921
21
110.8099669512
31
0.0000000000
11
41.4047560037
21
110.5166326699
31
0.0000000000
0
SPLINE
5
28D
100
AcDbEntity
8
0
100
AcDbSpline
62
7
6
CONTINUOUS
70
0
71
3
72
9
73
5
74
3
42
0.0000001000
43
0.0000001000
44
0.0000000001
40
0.0000000000
40
0.0000000000
40
0.0000000000
40
0.0000000000
40
0.5285368856
40
1.0000000000
40
1.0000000000
40
1.0000000000
40
1.0000000000
10
41.4047560037
20
110.5166326699
30
0.0000000000
10
41.3691225237
20
110.4660506724
30
0.0000000000
10
41.3041457883
20
110.3686305417
30
0.0000000000
10
41.2440213115
20
110.2681396641
30
0.0000000000
10
41.2167815607
20
110.2201323078
30
0.0000000000
11
41.4047560037
21
110.5166326699
31
0.0000000000
11
41.3017928054
21
110.3622125905
31
0.0000000000
11
41.2167815607
21
110.2201323078
31
0.0000000000
0
SPLINE
5
28E
100
AcDbEntity
8
0
100
AcDbSpline
62
7
6
CONTINUOUS
70
0
71
3
72
8
73
4
74
2
42
0.0000001000
43
0.0000001000
44
0.0000000001
40
0.0000000000
40
0.0000000000
40
0.0000000000
40
0.0000000000
40
1.0000000000
40
1.0000000000
40
1.0000000000
40
1.0000000000
10
41.2167815607
20
110.2201323078
30
0.0000000000
10
41.2136311522
20
110.2145800256
30
0.0000000000
10
41.2104955472
20
110.2090193216
30
0.0000000000
10
41.2073747894
20
110.2034502778
30
0.0000000000
11
41.2167815607
21
110.2201323078
31
0.0000000000
11
41.2073747894
21
110.2034502778
31
0.0000000000
0
SPLINE
5
28F
100
AcDbEntity
8
0
100
AcDbSpline
62
7
6
CONTINUOUS
70
0
71
3
72
8
73
4
74
2
42
0.0000001000
43
0.0000001000
44
0.0000000001
40
0.0000000000
40
0.0000000000
40
0.0000000000
40
0.0000000000
40
1.0000000000
40
1.0000000000
40
1.0000000000
40
1.0000000000
10
41.2073747894
20
110.2034502778
30
0.0000000000
10
41.1865102212
20
110.1662171117
30
0.0000000000
10
41.1663093069
20
110.1286111623
30
0.0000000000
10
41.1467850721
20
110.0906569065
30
0.0000000000
11
41.2073747894
21
110.2034502778
31
0.0000000000
11
41.1467850721
21
110.0906569065
31
0.0000000000
0
SPLINE
5
290
100
AcDbEntity
8
0
100
AcDbSpline
62
7
6
CONTINUOUS
70
0
71
3
72
22
73
18
74
16
42
0.0000001000
43
0.0000001000
44
0.0000000001
40
0.0000000000
40
0.0000000000
40
0.0000000000
40
0.0000000000
40
0.0708818737
40
0.1440057055
40
0.2189171175
40
0.2950054765
40
0.3715625952
40
0.4478425254
40
0.5231215747
40
0.5967582040
40
0.6682521602
40
0.7373009196
40
0.8038488701
40
0.8681203899
40
0.9306231760
40
0.9921068201
40
1.0000000000
40
1.0000000000
40
1.0000000000
40
1.0000000000
10
41.4108711159
20
106.5860288363
30
0.0000000000
10
41.5426980162
20
106.3343153112
30
0.0000000000
10
41.8525497884
20
105.8440037384
30
0.0000000000
10
42.4282640952
20
105.1778554832
30
0.0000000000
10
43.1074866377
20
104.5853440809
30
0.0000000000
10
43.8717703586
20
104.0824203421
30
0.0000000000
10
44.7006444976
20
103.6823767982
30
0.0000000000
10
45.5719086678
20
103.3959306869
30
0.0000000000
10
46.4622755755
20
103.2308186511
30
0.0000000000
10
47.3479648796
20
103.1916440416
30
0.0000000000
10
48.2053092324
20
103.2797834157
30
0.0000000000
10
49.0113030960
20
103.4933903800
30
0.0000000000
10
49.7440684035
20
103.8274345394
30
0.0000000000
10
50.3832520531
20
104.2736951276
30
0.0000000000
10
50.9104796826
20
104.8206447874
30
0.0000000000
10
51.1947984073
20
105.2708082613
30
0.0000000000
10
51.3149605821
20
105.5221813427
30
0.0000000000
10
51.3282480488
20
105.5509582525
30
0.0000000000
11
41.4108711159
21
106.5860288363
31
0.0000000000
11
41.8644086160
21
105.8642629396
31
0.0000000000
11
42.4380380897
21
105.1977157807
31
0.0000000000
11
43.1161124204
21
104.6045690286
31
0.0000000000
11
43.8801355079
21
104.1010021804
31
0.0000000000
11
44.7092667941
21
103.7007512270
31
0.0000000000
11
45.5808897388
21
103.4147339711
31
0.0000000000
11
46.4712287404
21
103.2507522179
31
0.0000000000
11
47.3559976717
21
103.2132789620
31
0.0000000000
11
48.2110623427
21
103.3033363763
31
0.0000000000
11
49.0130988182
21
103.5184679291
31
0.0000000000
11
49.7402296339
21
103.8528053927
31
0.0000000000
11
50.3726205567
21
104.2972289124
31
0.0000000000
11
50.8930216106
21
104.8396157733
31
0.0000000000
11
51.2872376116
21
105.4651710757
31
0.0000000000
11
51.3282480488
21
105.5509582525
31
0.0000000000
0
SPLINE
5
291
100
AcDbEntity
8
0
100
AcDbSpline
62
7
6
CONTINUOUS
70
0
71
3
72
12
73
8
74
6
42
0.0000001000
43
0.0000001000
44
0.0000000001
40
0.0000000000
40
0.0000000000
40
0.0000000000
40
0.0000000000
40
0.2180274376
40
0.4281799362
40
0.6314100869
40
0.8295547926
40
1.0000000000
40
1.0000000000
40
1.0000000000
40
1.0000000000
10
34.7261383206
20
111.1674541670
30
0.0000000000
10
34.5436014290
20
111.5159945966
30
0.0000000000
10
34.2381274023
20
112.2302429138
30
0.0000000000
10
33.9747506963
20
113.3448041886
30
0.0000000000
10
33.9226175511
20
114.4539297482
30
0.0000000000
10
34.0780291595
20
115.4811381649
30
0.0000000000
10
34.3027113751
20
116.1113530723
30
0.0000000000
10
34.4318766084
20
116.3910885819
30
0.0000000000
11
34.7261383206
21
111.1674541670
31
0.0000000000
11
34.2654040344
21
112.2541580126
31
0.0000000000
11
34.0073192360
21
113.3622053769
31
0.0000000000
11
33.9589238057
21
114.4613716164
31
0.0000000000
11
34.1215378449
21
115.5216743413
31
0.0000000000
11
34.4318766084
21
116.3910885819
31
0.0000000000
0
SPLINE
5
292
100
AcDbEntity
8
0
100
AcDbSpline
62
7
6
CONTINUOUS
70
0
71
3
72
13
73
9
74
7
42
0.0000001000
43
0.0000001000
44
0.0000000001
40
0.0000000000
40
0.0000000000
40
0.0000000000
40
0.0000000000
40
0.0858457528
40
0.2129238898
40
0.3829718830
40
0.5822894017
40
0.7963198421
40
1.0000000000
40
1.0000000000
40
1.0000000000
40
1.0000000000
10
52.5110312799
20
92.9707985995
30
0.0000000000
10
52.5060208657
20
92.9812336022
30
0.0000000000
10
52.5038826676
20
93.0129228760
30
0.0000000000
10
52.5303241516
20
93.0592522750
30
0.0000000000
10
52.5771692684
20
93.1081177380
30
0.0000000000
10
52.6419942779
20
93.1543989684
30
0.0000000000
10
52.7164490985
20
93.1932689200
30
0.0000000000
10
52.7700384642
20
93.2126374557
30
0.0000000000
10
52.7967548432
20
93.2198036335
30
0.0000000000
11
52.5110312799
21
92.9707985995
31
0.0000000000
11
52.5070339303
21
93.0058221837
31
0.0000000000
11
52.5287334539
21
93.0528288873
31
0.0000000000
11
52.5757190653
21
93.1037414133
31
0.0000000000
11
52.6412773070
21
93.1516617715
31
0.0000000000
11
52.7185343790
21
93.1920974960
31
0.0000000000
11
52.7967548432
21
93.2198036335
31
0.0000000000
0
SPLINE
5
293
100
AcDbEntity
8
0
100
AcDbSpline
62
7
6
CONTINUOUS
70
0
71
3
72
11
73
7
74
5
42
0.0000001000
43
0.0000001000
44
0.0000000001
40
0.0000000000
40
0.0000000000
40
0.0000000000
40
0.0000000000
40
0.4289823909
40
0.7555352180
40
0.9849593993
40
1.0000000000
40
1.0000000000
40
1.0000000000
40
1.0000000000
10
52.7967548432
20
93.2198036335
30
0.0000000000
10
52.8197703042
20
93.2259771081
30
0.0000000000
10
52.8613583447
20
93.2336126497
30
0.0000000000
10
52.9164110751
20
93.2326389206
30
0.0000000000
10
52.9469568990
20
93.2150480162
30
0.0000000000
10
52.9534729610
20
93.2034048135
30
0.0000000000
10
52.9538497853
20
93.2026743208
30
0.0000000000
11
52.7967548432
21
93.2198036335
31
0.0000000000
11
52.8672032991
21
93.2319454698
31
0.0000000000
11
52.9213796543
21
93.2268238568
31
0.0000000000
11
52.9526463284
21
93.2048219349
31
0.0000000000
11
52.9538497853
21
93.2026743208
31
0.0000000000
0
SPLINE
5
294
100
AcDbEntity
8
0
100
AcDbSpline
62
7
6
CONTINUOUS
70
0
71
3
72
21
73
17
74
15
42
0.0000001000
43
0.0000001000
44
0.0000000001
40
0.0000000000
40
0.0000000000
40
0.0000000000
40
0.0000000000
40
0.0726857351
40
0.1476704836
40
0.2244883041
40
0.3025130236
40
0.3810184321
40
0.4592395980
40
0.5364344118
40
0.6119450079
40
0.6852584023
40
0.7560643725
40
0.8243058911
40
0.8902130466
40
0.9543064560
40
1.0000000000
40
1.0000000000
40
1.0000000000
40
1.0000000000
10
50.9975810963
20
108.9191996043
30
0.0000000000
10
50.8657541960
20
109.1709131294
30
0.0000000000
10
50.5559024238
20
109.6612247022
30
0.0000000000
10
49.9801881171
20
110.3273729574
30
0.0000000000
10
49.3009655745
20
110.9198843597
30
0.0000000000
10
48.5366818537
20
111.4228080985
30
0.0000000000
10
47.7078077147
20
111.8228516425
30
0.0000000000
10
46.8365435444
20
112.1092977537
30
0.0000000000
10
45.9461766367
20
112.2744097895
30
0.0000000000
10
45.0604873327
20
112.3135843990
30
0.0000000000
10
44.2031429798
20
112.2254450249
30
0.0000000000
10
43.3971491162
20
112.0118380606
30
0.0000000000
10
42.6643838088
20
111.6777939012
30
0.0000000000
10
42.0252001592
20
111.2315333131
30
0.0000000000
10
41.5453694518
20
110.7337535543
30
0.0000000000
10
41.3051330893
20
110.3757280793
30
0.0000000000
10
41.2167799560
20
110.2201244638
30
0.0000000000
11
50.9975810963
21
108.9191996043
31
0.0000000000
11
50.5440435963
21
109.6409655010
31
0.0000000000
11
49.9704141226
21
110.3075126599
31
0.0000000000
11
49.2923397919
21
110.9006594120
31
0.0000000000
11
48.5283167043
21
111.4042262602
31
0.0000000000
11
47.6991854182
21
111.8044772136
31
0.0000000000
11
46.8275624734
21
112.0904944695
31
0.0000000000
11
45.9372234719
21
112.2544762227
31
0.0000000000
11
45.0524545406
21
112.2919494786
31
0.0000000000
11
44.1973898696
21
112.2018920644
31
0.0000000000
11
43.3953533940
21
111.9867605115
31
0.0000000000
11
42.6682225783
21
111.6524230479
31
0.0000000000
11
42.0358316556
21
111.2079995282
31
0.0000000000
11
41.5154306016
21
110.6656126673
31
0.0000000000
11
41.2167799560
21
110.2201244638
31
0.0000000000
0
SPLINE
5
295
100
AcDbEntity
8
0
100
AcDbSpline
62
7
6
CONTINUOUS
70
0
71
3
72
8
73
4
74
2
42
0.0000001000
43
0.0000001000
44
0.0000000001
40
0.0000000000
40
0.0000000000
40
0.0000000000
40
0.0000000000
40
1.0000000000
40
1.0000000000
40
1.0000000000
40
1.0000000000
10
41.2167799560
20
110.2201244638
30
0.0000000000
10
41.1925541586
20
110.1774590651
30
0.0000000000
10
41.1692030034
20
110.1342980147
30
0.0000000000
10
41.1467534928
20
110.0906731514
30
0.0000000000
11
41.2167799560
21
110.2201244638
31
0.0000000000
11
41.1467534928
21
110.0906731514
31
0.0000000000
0
SPLINE
5
296
100
AcDbEntity
8
0
100
AcDbSpline
62
7
6
CONTINUOUS
70
0
71
3
72
8
73
4
74
2
42
0.0000001000
43
0.0000001000
44
0.0000000001
40
0.0000000000
40
0.0000000000
40
0.0000000000
40
0.0000000000
40
1.0000000000
40
1.0000000000
40
1.0000000000
40
1.0000000000
10
51.2619255706
20
105.4146877926
30
0.0000000000
10
51.2779283947
20
105.4534914638
30
0.0000000000
10
51.2932501015
20
105.4925766667
30
0.0000000000
10
51.3078836259
20
105.5319180664
30
0.0000000000
11
51.2619255706
21
105.4146877926
31
0.0000000000
11
51.3078836259
21
105.5319180664
31
0.0000000000
0
SPLINE
5
297
100
AcDbEntity
8
0
100
AcDbSpline
62
7
6
CONTINUOUS
70
0
71
3
72
8
73
4
74
2
42
0.0000001000
43
0.0000001000
44
0.0000000001
40
0.0000000000
40
0.0000000000
40
0.0000000000
40
0.0000000000
40
1.0000000000
40
1.0000000000
40
1.0000000000
40
1.0000000000
10
51.3078836259
20
105.5319180664
30
0.0000000000
10
51.3107018105
20
105.5394945956
30
0.0000000000
10
51.3134944713
20
105.5470806268
30
0.0000000000
10
51.3162615579
20
105.5546759791
30
0.0000000000
11
51.3078836259
21
105.5319180664
31
0.0000000000
11
51.3162615579
21
105.5546759791
31
0.0000000000
0
SPLINE
5
298
100
AcDbEntity
8
0
100
AcDbSpline
62
7
6
CONTINUOUS
70
0
71
3
72
12
73
8
74
6
42
0.0000001000
43
0.0000001000
44
0.0000000001
40
0.0000000000
40
0.0000000000
40
0.0000000000
40
0.0000000000
40
0.0993653118
40
0.3144879256
40
0.5351317276
40
0.7632910147
40
1.0000000000
40
1.0000000000
40
1.0000000000
40
1.0000000000
10
51.3162615579
20
105.5546759791
30
0.0000000000
10
51.3557303251
20
105.6630134595
30
0.0000000000
10
51.4641799605
20
106.0118999833
30
0.0000000000
10
51.5575346326
20
106.6289369336
30
0.0000000000
10
51.5212043470
20
107.4018588080
30
0.0000000000
10
51.3376637050
20
108.1785686964
30
0.0000000000
10
51.1247864927
20
108.6763104924
30
0.0000000000
10
50.9975810963
20
108.9191996043
30
0.0000000000
11
51.3162615579
21
105.5546759791
31
0.0000000000
11
51.4189120528
21
105.8848524203
31
0.0000000000
11
51.5322337114
21
106.6237508818
31
0.0000000000
11
51.4985081459
21
107.3897323549
31
0.0000000000
11
51.3186553020
21
108.1619028619
31
0.0000000000
11
50.9975810963
21
108.9191996043
31
0.0000000000
0
SPLINE
5
299
100
AcDbEntity
8
0
100
AcDbSpline
62
7
6
CONTINUOUS
70
0
71
3
72
12
73
8
74
6
42
0.0000001000
43
0.0000001000
44
0.0000000001
40
0.0000000000
40
0.0000000000
40
0.0000000000
40
0.0000000000
40
0.1704452074
40
0.3685899131
40
0.5718200638
40
0.7819725624
40
1.0000000000
40
1.0000000000
40
1.0000000000
40
1.0000000000
10
41.2058074852
20
110.2262490692
30
0.0000000000
10
41.1157954633
20
110.0313083860
30
0.0000000000
10
40.9592200443
20
109.5921273724
30
0.0000000000
10
40.8509175797
20
108.8762915070
30
0.0000000000
10
40.8872478652
20
108.1033696327
30
0.0000000000
10
41.0707885072
20
107.3266597442
30
0.0000000000
10
41.2836657196
20
106.8289179482
30
0.0000000000
10
41.4108711159
20
106.5860288363
30
0.0000000000
11
41.2058074852
21
110.2262490692
31
0.0000000000
11
40.9895401594
21
109.6203760203
31
0.0000000000
11
40.8762185009
21
108.8814775588
31
0.0000000000
11
40.9099440663
21
108.1154960857
31
0.0000000000
11
41.0897969102
21
107.3433255787
31
0.0000000000
11
41.4108711159
21
106.5860288363
31
0.0000000000
0
SPLINE
5
29A
100
AcDbEntity
8
0
100
AcDbSpline
62
7
6
CONTINUOUS
70
0
71
3
72
13
73
9
74
7
42
0.0000001000
43
0.0000001000
44
0.0000000001
40
0.0000000000
40
0.0000000000
40
0.0000000000
40
0.0000000000
40
0.1778861259
40
0.3504479013
40
0.5180583066
40
0.6813226042
40
0.8414729039
40
1.0000000000
40
1.0000000000
40
1.0000000000
40
1.0000000000
10
56.6922926920
20
102.3922408777
30
0.0000000000
10
56.8478114434
20
102.0952895494
30
0.0000000000
10
57.1157895315
20
101.4890197759
30
0.0000000000
10
57.3814510757
20
100.5462126711
30
0.0000000000
10
57.5013980834
20
99.6014491052
30
0.0000000000
10
57.4749837280
20
98.6726712285
30
0.0000000000
10
57.3046175076
20
97.7767913671
30
0.0000000000
10
57.0971749319
20
97.2098764111
30
0.0000000000
10
56.9719282440
20
96.9386697778
30
0.0000000000
11
56.6922926920
21
102.3922408777
31
0.0000000000
11
57.0971184110
21
101.4716912059
31
0.0000000000
11
57.3599572938
21
100.5322346394
31
0.0000000000
11
57.4776367055
21
99.5920297412
31
0.0000000000
11
57.4501150554
21
98.6694688584
31
0.0000000000
11
57.2801041239
21
97.7802073966
31
0.0000000000
11
56.9719282440
21
96.9386697778
31
0.0000000000
0
SPLINE
5
29B
100
AcDbEntity
8
0
100
AcDbSpline
62
7
6
CONTINUOUS
70
0
71
3
72
22
73
18
74
16
42
0.0000001000
43
0.0000001000
44
0.0000000001
40
0.0000000000
40
0.0000000000
40
0.0000000000
40
0.0000000000
40
0.0581255313
40
0.1171241318
40
0.1777175876
40
0.2399804258
40
0.3045916685
40
0.3711204899
40
0.4396256229
40
0.5095308603
40
0.5805238165
40
0.6520225635
40
0.7235667478
40
0.7945663358
40
0.8646358065
40
0.9331118927
40
1.0000000000
40
1.0000000000
40
1.0000000000
40
1.0000000000
10
35.0597140028
20
117.7506220193
30
0.0000000000
10
35.2004637248
20
118.0553986077
30
0.0000000000
10
35.5415714075
20
118.6447485115
30
0.0000000000
10
36.2123410043
20
119.4287238514
30
0.0000000000
10
37.0304327430
20
120.0961521081
30
0.0000000000
10
37.9784576058
20
120.6295269351
30
0.0000000000
10
39.0324967096
20
121.0133193682
30
0.0000000000
10
40.1679357002
20
121.2375270208
30
0.0000000000
10
41.3540904148
20
121.2962574490
30
0.0000000000
10
42.5624257310
20
121.1889680501
30
0.0000000000
10
43.7627355385
20
120.9195086965
30
0.0000000000
10
44.9273606205
20
120.4951461823
30
0.0000000000
10
46.0288473903
20
119.9266200710
30
0.0000000000
10
47.0422233213
20
119.2271398961
30
0.0000000000
10
47.9429682975
20
118.4134352373
30
0.0000000000
10
48.7104492945
20
117.5039241286
30
0.0000000000
10
49.1266834682
20
116.8382011722
30
0.0000000000
10
49.3059121274
20
116.4959775632
30
0.0000000000
11
35.0597140028
21
117.7506220193
31
0.0000000000
11
35.5638939738
21
118.6224567714
31
0.0000000000
11
36.2274010913
21
119.4001139040
31
0.0000000000
11
37.0396110370
21
120.0653714302
31
0.0000000000
11
37.9785885825
21
120.5965453084
31
0.0000000000
11
39.0296006038
21
120.9820932990
31
0.0000000000
11
40.1599917398
21
121.2078905844
31
0.0000000000
11
41.3453946925
21
121.2687675420
31
0.0000000000
11
42.5520179276
21
121.1632947018
31
0.0000000000
11
43.7524494999
21
120.8948954750
31
0.0000000000
11
44.9165653502
21
120.4711679148
31
0.0000000000
11
46.0180109329
21
119.9024152273
31
0.0000000000
11
47.0299432487
21
119.2028798181
31
0.0000000000
11
47.9298780183
21
118.3879669280
31
0.0000000000
11
48.6934854860
21
117.4798946364
31
0.0000000000
11
49.3059121274
21
116.4959775632
31
0.0000000000
0
SPLINE
5
29C
100
AcDbEntity
8
0
100
AcDbSpline
62
7
6
CONTINUOUS
70
0
71
3
72
22
73
18
74
16
42
0.0000001000
43
0.0000001000
44
0.0000000001
40
0.0000000000
40
0.0000000000
40
0.0000000000
40
0.0000000000
40
0.0078931799
40
0.0693768240
40
0.1318796101
40
0.1961511299
40
0.2626990804
40
0.3317478398
40
0.4032417960
40
0.4768784253
40
0.5521574746
40
0.6284374048
40
0.7049945235
40
0.7810828825
40
0.8559942945
40
0.9291181263
40
1.0000000000
40
1.0000000000
40
1.0000000000
40
1.0000000000
10
56.3437324203
20
95.5784144035
30
0.0000000000
10
56.3246652034
20
95.5371201831
30
0.0000000000
10
56.1522351768
20
95.1764054475
30
0.0000000000
10
55.7442441817
20
94.5304309558
30
0.0000000000
10
54.9876843546
20
93.7455704573
30
0.0000000000
10
54.0704701488
20
93.1051965192
30
0.0000000000
10
53.0189683624
20
92.6258506402
30
0.0000000000
10
51.8623852397
20
92.3193294359
30
0.0000000000
10
50.6321153164
20
92.1928514102
30
0.0000000000
10
49.3611710236
20
92.2490660965
30
0.0000000000
10
48.0835144744
20
92.4859981658
30
0.0000000000
10
46.8332699251
20
92.8970419129
30
0.0000000000
10
45.6438541203
20
93.4710954288
30
0.0000000000
10
44.5471241173
20
94.1927797178
30
0.0000000000
10
43.5724549980
20
95.0430202950
30
0.0000000000
10
42.7463178761
20
95.9989281052
30
0.0000000000
10
42.3016875304
20
96.7025142186
30
0.0000000000
10
42.1125188842
20
97.0637174834
30
0.0000000000
11
56.3437324203
21
95.5784144035
31
0.0000000000
11
56.2848833623
21
95.4553117282
31
0.0000000000
11
55.7191922398
21
94.5576538952
31
0.0000000000
11
54.9724283956
21
93.7793409110
31
0.0000000000
11
54.0649616007
21
93.1416031248
31
0.0000000000
11
53.0215451835
21
92.6618363609
31
0.0000000000
11
51.8706408240
21
92.3531274061
31
0.0000000000
11
50.6436421929
21
92.2238970359
31
0.0000000000
11
49.3740186144
21
92.2776703179
31
0.0000000000
11
48.0964021099
21
92.5129804571
31
0.0000000000
11
46.8456427273
21
92.9234088063
31
0.0000000000
11
45.6558579220
21
93.4977599502
31
0.0000000000
11
44.5595019220
21
94.2203670866
31
0.0000000000
11
43.5864804609
21
95.0715193767
31
0.0000000000
11
42.7633350278
21
96.0279996047
31
0.0000000000
11
42.1125188842
21
97.0637174834
31
0.0000000000
0
SPLINE
5
29D
100
AcDbEntity
8
0
100
AcDbSpline
62
9
6
CONTINUOUS
70
0
71
3
72
11
73
7
74
5
42
0.0000001000
43
0.0000001000
44
0.0000000001
40
0.0000000000
40
0.0000000000
40
0.0000000000
40
0.0000000000
40
0.3316759810
40
0.6094410804
40
0.8279681498
40
1.0000000000
40
1.0000000000
40
1.0000000000
40
1.0000000000
10
48.6712539082
20
116.5759919618
30
0.0000000000
10
48.7423745383
20
116.5950687650
30
0.0000000000
10
48.8754967576
20
116.6223678276
30
0.0000000000
10
49.0603342601
20
116.6280183630
30
0.0000000000
10
49.2076808743
20
116.5961052327
30
0.0000000000
10
49.2799803510
20
116.5391187417
30
0.0000000000
10
49.2999158299
20
116.5065108115
30
0.0000000000
11
48.6712539082
21
116.5759919618
31
0.0000000000
11
48.8881407510
21
116.6179289799
31
0.0000000000
11
49.0731279977
21
116.6199383346
31
0.0000000000
11
49.2136090053
21
116.5818830144
31
0.0000000000
11
49.2999158299
21
116.5065108115
31
0.0000000000
0
SPLINE
5
29E
100
AcDbEntity
8
0
100
AcDbSpline
62
9
6
CONTINUOUS
70
0
71
3
72
8
73
4
74
2
42
0.0000001000
43
0.0000001000
44
0.0000000001
40
0.0000000000
40
0.0000000000
40
0.0000000000
40
0.0000000000
40
1.0000000000
40
1.0000000000
40
1.0000000000
40
1.0000000000
10
49.2999158299
20
116.5065108115
30
0.0000000000
10
49.3020212343
20
116.5030670578
30
0.0000000000
10
49.3039935920
20
116.4995394217
30
0.0000000000
10
49.3058357194
20
116.4959384773
30
0.0000000000
11
49.2999158299
21
116.5065108115
31
0.0000000000
11
49.3058357194
21
116.4959384773
31
0.0000000000
0
SPLINE
5
29F
100
AcDbEntity
8
0
100
AcDbSpline
62
9
6
CONTINUOUS
70
0
71
3
72
13
73
9
74
7
42
0.0000001000
43
0.0000001000
44
0.0000000001
40
0.0000000000
40
0.0000000000
40
0.0000000000
40
0.0000000000
40
0.1767260757
40
0.3627130077
40
0.5475416798
40
0.7209160951
40
0.8738267568
40
1.0000000000
40
1.0000000000
40
1.0000000000
40
1.0000000000
10
36.4764210623
20
113.3049520436
30
0.0000000000
10
36.3969039350
20
113.2836230348
30
0.0000000000
10
36.2366050283
20
113.2286458702
30
0.0000000000
10
36.0055391025
20
113.1195546481
30
0.0000000000
10
35.7886383009
20
112.9873810040
30
0.0000000000
10
35.6001378417
20
112.8408340584
30
0.0000000000
10
35.4522638428
20
112.6898058923
30
0.0000000000
10
35.3787983646
20
112.5807109663
30
0.0000000000
10
35.3541549297
20
112.5273485729
30
0.0000000000
11
36.4764210623
21
113.3049520436
31
0.0000000000
11
36.2424146183
21
113.2259451732
31
0.0000000000
11
36.0072360091
21
113.1152526679
31
0.0000000000
11
35.7869122684
21
112.9804180389
31
0.0000000000
11
35.5964580948
21
112.8306300435
31
0.0000000000
11
35.4488526256
21
112.6760964860
31
0.0000000000
11
35.3541549297
21
112.5273485729
31
0.0000000000
0
SPLINE
5
2A0
100
AcDbEntity
8
0
100
AcDbSpline
62
9
6
CONTINUOUS
70
0
71
3
72
28
73
24
74
22
42
0.0000001000
43
0.0000001000
44
0.0000000001
40
0.0000000000
40
0.0000000000
40
0.0000000000
40
0.0000000000
40
0.0482854315
40
0.0982715205
40
0.1496263429
40
0.2019117649
40
0.2546488938
40
0.3074196272
40
0.3598229847
40
0.4114683808
40
0.4620018328
40
0.5111610781
40
0.5587834262
40
0.6048418205
40
0.6494449206
40
0.6928535852
40
0.7354507749
40
0.7777279639
40
0.8202267423
40
0.8634471595
40
0.9077244307
40
0.9532328587
40
1.0000000000
40
1.0000000000
40
1.0000000000
40
1.0000000000
10
43.8628016259
20
99.2012153600
30
0.0000000000
10
44.0109601605
20
98.9183178108
30
0.0000000000
10
44.3548037757
20
98.3638491402
30
0.0000000000
10
44.9865496689
20
97.5986511503
30
0.0000000000
10
45.7305667823
20
96.9026928036
30
0.0000000000
10
46.5694878879
20
96.2934556701
30
0.0000000000
10
47.4838524894
20
95.7852395597
30
0.0000000000
10
48.4530215027
20
95.3894338355
30
0.0000000000
10
49.4557674297
20
95.1146646246
30
0.0000000000
10
50.4701137853
20
94.9670559563
30
0.0000000000
10
51.4737255352
20
94.9500485302
30
0.0000000000
10
52.4444240664
20
95.0642955718
30
0.0000000000
10
53.3607707936
20
95.3076834682
30
0.0000000000
10
54.2023122489
20
95.6753696579
30
0.0000000000
10
54.9499755824
20
96.1598200989
30
0.0000000000
10
55.5863224255
20
96.7507101399
30
0.0000000000
10
56.0961524826
20
97.4349353242
30
0.0000000000
10
56.4671593109
20
98.1967843211
30
0.0000000000
10
56.6904998099
20
99.0184053947
30
0.0000000000
10
56.7611457942
20
99.8799155878
30
0.0000000000
10
56.6784367766
20
100.7600027943
30
0.0000000000
10
56.4466061106
20
101.6366606773
30
0.0000000000
10
56.2011343000
20
102.1982531774
30
0.0000000000
10
56.0576344718
20
102.4722552781
30
0.0000000000
11
43.8628016259
21
99.2012153600
31
0.0000000000
11
44.3660121884
21
98.3859749646
31
0.0000000000
11
44.9960786157
21
97.6200462139
31
0.0000000000
11
45.7393352452
21
96.9230485375
31
0.0000000000
11
46.5782570303
21
96.3127903578
31
0.0000000000
11
47.4926921970
21
95.8041758984
31
0.0000000000
11
48.4620767078
21
95.4084868871
31
0.0000000000
11
49.4650371271
21
95.1343780080
31
0.0000000000
11
50.4792304139
21
94.9879867452
31
0.0000000000
11
51.4817547398
21
94.9726378975
31
0.0000000000
11
52.4502045268
21
95.0886693604
31
0.0000000000
11
53.3628249717
21
95.3334677119
31
0.0000000000
11
54.1992597014
21
95.7015730634
31
0.0000000000
11
54.9407117813
21
96.1847218738
31
0.0000000000
11
55.5706039899
21
96.7721189459
31
0.0000000000
11
56.0747304655
21
97.4504854164
31
0.0000000000
11
56.4418915197
21
98.2046904799
31
0.0000000000
11
56.6639254424
21
99.0181575942
31
0.0000000000
11
56.7356934767
21
99.8726919662
31
0.0000000000
11
56.6557101850
21
100.7475553794
31
0.0000000000
11
56.4271416125
21
101.6210862937
31
0.0000000000
11
56.0576344718
21
102.4722552781
31
0.0000000000
0
SPLINE
5
2A1
100
AcDbEntity
8
0
100
AcDbSpline
62
9
6
CONTINUOUS
70
0
71
3
72
17
73
13
74
11
42
0.0000001000
43
0.0000001000
44
0.0000000001
40
0.0000000000
40
0.0000000000
40
0.0000000000
40
0.0000000000
40
0.0945415298
40
0.1923434111
40
0.2928225911
40
0.3951217043
40
0.4983039857
40
0.6015515804
40
0.7040800644
40
0.8051253427
40
0.9039949585
40
1.0000000000
40
1.0000000000
40
1.0000000000
40
1.0000000000
10
42.7405354933
20
98.4236118892
30
0.0000000000
10
42.9099740555
20
98.1000817320
30
0.0000000000
10
43.3030980212
20
97.4662214636
30
0.0000000000
10
44.0252997590
20
96.5915984146
30
0.0000000000
10
44.8756304840
20
95.7963161545
30
0.0000000000
10
45.8343936793
20
95.1001400479
30
0.0000000000
10
46.8793569740
20
94.5194133332
30
0.0000000000
10
47.9869345052
20
94.0671454861
30
0.0000000000
10
49.1328709953
20
93.7531925863
30
0.0000000000
10
50.2920543491
20
93.5845505888
30
0.0000000000
10
51.4382820018
20
93.5651613680
30
0.0000000000
10
52.1883020361
20
93.6533619710
30
0.0000000000
10
52.5528571848
20
93.7232040415
30
0.0000000000
11
42.7405354933
21
98.4236118892
31
0.0000000000
11
43.3160667668
21
97.4913059017
31
0.0000000000
11
44.0361895963
21
96.6160474425
31
0.0000000000
11
44.8856501822
21
95.8195753783
31
0.0000000000
11
45.8444151308
21
95.1222339379
31
0.0000000000
11
46.8894585835
21
94.5410520163
31
0.0000000000
11
47.9972824926
21
94.0889179544
31
0.0000000000
11
49.1434639949
21
93.7757197499
31
0.0000000000
11
50.3024722305
21
93.6084690186
31
0.0000000000
11
51.4481383664
21
93.5909635194
31
0.0000000000
11
52.5528571848
21
93.7232040415
31
0.0000000000
0
SPLINE
5
2A2
100
AcDbEntity
8
0
100
AcDbSpline
62
9
6
CONTINUOUS
70
0
71
3
72
8
73
4
74
2
42
0.0000001000
43
0.0000001000
44
0.0000000001
40
0.0000000000
40
0.0000000000
40
0.0000000000
40
0.0000000000
40
1.0000000000
40
1.0000000000
40
1.0000000000
40
1.0000000000
10
52.5528571848
20
93.7232040415
30
0.0000000000
10
52.5548646290
20
93.7235886309
30
0.0000000000
10
52.5568719234
20
93.7239740205
30
0.0000000000
10
52.5588790671
20
93.7243602107
30
0.0000000000
11
52.5528571848
21
93.7232040415
31
0.0000000000
11
52.5588790671
21
93.7243602107
31
0.0000000000
0
SPLINE
5
2A3
100
AcDbEntity
8
0
100
AcDbSpline
62
9
6
CONTINUOUS
70
0
71
3
72
8
73
4
74
2
42
0.0000001000
43
0.0000001000
44
0.0000000001
40
0.0000000000
40
0.0000000000
40
0.0000000000
40
0.0000000000
40
1.0000000000
40
1.0000000000
40
1.0000000000
40
1.0000000000
10
52.5588790671
20
93.7243602107
30
0.0000000000
10
52.6803003896
20
93.7477226220
30
0.0000000000
10
52.8011705165
20
93.7740145309
30
0.0000000000
10
52.9213092483
20
93.8032989762
30
0.0000000000
11
52.5588790671
21
93.7243602107
31
0.0000000000
11
52.9213092483
21
93.8032989762
31
0.0000000000
0
SPLINE
5
2A4
100
AcDbEntity
8
0
100
AcDbSpline
62
9
6
CONTINUOUS
70
0
71
3
72
13
73
9
74
7
42
0.0000001000
43
0.0000001000
44
0.0000000001
40
0.0000000000
40
0.0000000000
40
0.0000000000
40
0.0000000000
40
0.1331584740
40
0.3303872886
40
0.5213846286
40
0.7072676054
40
0.8896758690
40
1.0000000000
40
1.0000000000
40
1.0000000000
40
1.0000000000
10
52.9213092483
20
93.8032989762
30
0.0000000000
10
53.1498608153
20
93.8590096182
30
0.0000000000
10
53.7103658604
20
94.0241083249
30
0.0000000000
10
54.5571307715
20
94.3940842893
30
0.0000000000
10
55.4115502106
20
94.9477042537
30
0.0000000000
10
56.1387681101
20
95.6229546257
30
0.0000000000
10
56.6464133164
20
96.3042095430
30
0.0000000000
10
56.8901145682
20
96.7616240486
30
0.0000000000
10
56.9718872648
20
96.9386611442
30
0.0000000000
11
52.9213092483
21
93.8032989762
31
0.0000000000
11
53.5977822687
21
94.0033559181
31
0.0000000000
11
54.5536426338
21
94.4240272727
31
0.0000000000
11
55.4009645371
21
94.9761597631
31
0.0000000000
11
56.1208071095
21
95.6474191437
31
0.0000000000
11
56.6969376287
21
96.4226329470
31
0.0000000000
11
56.9718872648
21
96.9386611442
31
0.0000000000
0
SPLINE
5
2A5
100
AcDbEntity
8
0
100
AcDbSpline
62
9
6
CONTINUOUS
70
0
71
3
72
13
73
9
74
7
42
0.0000001000
43
0.0000001000
44
0.0000000001
40
0.0000000000
40
0.0000000000
40
0.0000000000
40
0.0000000000
40
0.1767258214
40
0.3627126158
40
0.5475412858
40
0.7209158059
40
0.8738266203
40
1.0000000000
40
1.0000000000
40
1.0000000000
40
1.0000000000
10
43.8628016259
20
99.2012153600
30
0.0000000000
10
43.7832846133
20
99.1798863814
30
0.0000000000
10
43.6229858764
20
99.1249092909
30
0.0000000000
10
43.3919200975
20
99.0158181902
30
0.0000000000
10
43.1750192800
20
98.8836446047
30
0.0000000000
10
42.9865186908
20
98.7370976321
30
0.0000000000
10
42.8386445285
20
98.5860693691
30
0.0000000000
10
42.7651789553
20
98.4769743402
30
0.0000000000
10
42.7405354932
20
98.4236118893
30
0.0000000000
11
43.8628016259
21
99.2012153600
31
0.0000000000
11
43.6287955128
21
99.1222086219
31
0.0000000000
11
43.3936170570
21
99.0115162428
31
0.0000000000
11
43.1732932872
21
98.8766816677
31
0.0000000000
11
42.9828389612
21
98.7268936296
31
0.0000000000
11
42.8352333099
21
98.5723599515
31
0.0000000000
11
42.7405354932
21
98.4236118893
31
0.0000000000
0
SPLINE
5
2A6
100
AcDbEntity
8
0
100
AcDbSpline
62
7
6
CONTINUOUS
70
0
71
3
72
13
73
9
74
7
42
0.0000001000
43
0.0000001000
44
0.0000000001
40
0.0000000000
40
0.0000000000
40
0.0000000000
40
0.0000000000
40
0.0851470539
40
0.2120341110
40
0.3831614729
40
0.5831297870
40
0.7969014722
40
1.0000000000
40
1.0000000000
40
1.0000000000
40
1.0000000000
10
52.9538497853
20
93.2026743208
30
0.0000000000
10
52.9590730545
20
93.1925487538
30
0.0000000000
10
52.9605618114
20
93.1605641445
30
0.0000000000
10
52.9341718846
20
93.1145731253
30
0.0000000000
10
52.8883974670
20
93.0642454070
30
0.0000000000
10
52.8247701766
20
93.0158337978
30
0.0000000000
10
52.7512363066
20
92.9749603761
30
0.0000000000
10
52.6978316035
20
92.9549812000
30
0.0000000000
10
52.6711515947
20
92.9478247775
30
0.0000000000
11
52.9538497853
21
93.2026743208
31
0.0000000000
11
52.9576736700
21
93.1679141664
31
0.0000000000
11
52.9359738569
21
93.1209080155
31
0.0000000000
11
52.8897172757
21
93.0686034614
31
0.0000000000
11
52.8252646013
21
93.0185721058
31
0.0000000000
11
52.7489885498
21
92.9762631966
31
0.0000000000
11
52.6711515947
21
92.9478247775
31
0.0000000000
0
SPLINE
5
2A7
100
AcDbEntity
8
0
100
AcDbSpline
62
7
6
CONTINUOUS
70
0
71
3
72
12
73
8
74
6
42
0.0000001000
43
0.0000001000
44
0.0000000001
40
0.0000000000
40
0.0000000000
40
0.0000000000
40
0.0000000000
40
0.1704452074
40
0.3685899131
40
0.5718200638
40
0.7819725624
40
1.0000000000
40
1.0000000000
40
1.0000000000
40
1.0000000000
10
51.3282480488
20
105.5509582525
30
0.0000000000
10
51.4182600708
20
105.7458989358
30
0.0000000000
10
51.5748354898
20
106.1850799494
30
0.0000000000
10
51.6831379544
20
106.9009158148
30
0.0000000000
10
51.6468076689
20
107.6738376891
30
0.0000000000
10
51.4632670268
20
108.4505475776
30
0.0000000000
10
51.2503898145
20
108.9482893736
30
0.0000000000
10
51.1231844182
20
109.1911784854
30
0.0000000000
11
51.3282480488
21
105.5509582525
31
0.0000000000
11
51.5445153747
21
106.1568313015
31
0.0000000000
11
51.6578370332
21
106.8957297629
31
0.0000000000
11
51.6241114678
21
107.6617112361
31
0.0000000000
11
51.4442586238
21
108.4338817431
31
0.0000000000
11
51.1231844182
21
109.1911784854
31
0.0000000000
0
SPLINE
5
2A8
100
AcDbEntity
8
0
100
AcDbSpline
62
7
6
CONTINUOUS
70
0
71
3
72
11
73
7
74
5
42
0.0000001000
43
0.0000001000
44
0.0000000001
40
0.0000000000
40
0.0000000000
40
0.0000000000
40
0.0000000000
40
0.4184315929
40
0.7426707879
40
0.9781110750
40
1.0000000000
40
1.0000000000
40
1.0000000000
40
1.0000000000
10
52.6711515947
20
92.9478247775
30
0.0000000000
10
52.6480527490
20
92.9416289363
30
0.0000000000
10
52.6058719382
20
92.9342150118
30
0.0000000000
10
52.5494718800
20
92.9374934837
30
0.0000000000
10
52.5184514752
20
92.9568314200
30
0.0000000000
10
52.5115689504
20
92.9696788132
30
0.0000000000
10
52.5110312799
20
92.9707985995
30
0.0000000000
11
52.6711515947
21
92.9478247775
31
0.0000000000
11
52.6003179899
21
92.9364183540
31
0.0000000000
11
52.5451635772
21
92.9434074940
31
0.0000000000
11
52.5127893467
21
92.9675242111
31
0.0000000000
11
52.5110312799
21
92.9707985995
31
0.0000000000
0
SPLINE
5
2A9
100
AcDbEntity
8
0
100
AcDbSpline
62
7
6
CONTINUOUS
70
0
71
3
72
22
73
18
74
16
42
0.0000001000
43
0.0000001000
44
0.0000000001
40
0.0000000000
40
0.0000000000
40
0.0000000000
40
0.0000000000
40
0.0708818737
40
0.1440057055
40
0.2189171175
40
0.2950054765
40
0.3715625952
40
0.4478425254
40
0.5231215747
40
0.5967582040
40
0.6682521602
40
0.7373009196
40
0.8038488701
40
0.8681203899
40
0.9306231760
40
0.9921068201
40
1.0000000000
40
1.0000000000
40
1.0000000000
40
1.0000000000
10
51.1231844182
20
109.1911784854
30
0.0000000000
10
50.9913575178
20
109.4428920106
30
0.0000000000
10
50.6815057456
20
109.9332035834
30
0.0000000000
10
50.1057914389
20
110.5993518386
30
0.0000000000
10
49.4265688963
20
111.1918632408
30
0.0000000000
10
48.6622851755
20
111.6947869797
30
0.0000000000
10
47.8334110365
20
112.0948305236
30
0.0000000000
10
46.9621468663
20
112.3812766349
30
0.0000000000
10
46.0717799585
20
112.5463886707
30
0.0000000000
10
45.1860906545
20
112.5855632802
30
0.0000000000
10
44.3287463016
20
112.4974239060
30
0.0000000000
10
43.5227524380
20
112.2838169418
30
0.0000000000
10
42.7899871306
20
111.9497727823
30
0.0000000000
10
42.1508034810
20
111.5035121942
30
0.0000000000
10
41.6235758515
20
110.9565625344
30
0.0000000000
10
41.3392571268
20
110.5063990605
30
0.0000000000
10
41.2190949519
20
110.2550259791
30
0.0000000000
10
41.2058074852
20
110.2262490692
30
0.0000000000
11
51.1231844182
21
109.1911784854
31
0.0000000000
11
50.6696469181
21
109.9129443821
31
0.0000000000
11
50.0960174444
21
110.5794915410
31
0.0000000000
11
49.4179431137
21
111.1726382932
31
0.0000000000
11
48.6539200262
21
111.6762051414
31
0.0000000000
11
47.8247887400
21
112.0764560948
31
0.0000000000
11
46.9531657952
21
112.3624733506
31
0.0000000000
11
46.0628267937
21
112.5264551039
31
0.0000000000
11
45.1780578624
21
112.5639283598
31
0.0000000000
11
44.3229931914
21
112.4738709455
31
0.0000000000
11
43.5209567158
21
112.2587393926
31
0.0000000000
11
42.7938259001
21
111.9244019291
31
0.0000000000
11
42.1614349774
21
111.4799784093
31
0.0000000000
11
41.6410339234
21
110.9375915484
31
0.0000000000
11
41.2468179225
21
110.3120362461
31
0.0000000000
11
41.2058074852
21
110.2262490692
31
0.0000000000
0
SPLINE
5
2AA
100
AcDbEntity
8
0
100
AcDbSpline
62
9
6
CONTINUOUS
70
0
71
3
72
13
73
9
74
7
42
0.0000001000
43
0.0000001000
44
0.0000000001
40
0.0000000000
40
0.0000000000
40
0.0000000000
40
0.0000000000
40
0.0691452086
40
0.2471067777
40
0.4280896669
40
0.6134977020
40
0.8040610844
40
1.0000000000
40
1.0000000000
40
1.0000000000
40
1.0000000000
10
35.0597444900
20
117.7506079376
30
0.0000000000
10
35.0073352834
20
117.6371410629
30
0.0000000000
10
34.8348255052
20
117.2248169821
30
0.0000000000
10
34.6309337643
20
116.4748936609
30
0.0000000000
10
34.5501435783
20
115.4903813036
30
0.0000000000
10
34.6445920984
20
114.4846292543
30
0.0000000000
10
34.9095050623
20
113.4826028952
30
0.0000000000
10
35.1900786827
20
112.8406397936
30
0.0000000000
10
35.3541549297
20
112.5273485729
30
0.0000000000
11
35.0597444900
21
117.7506079376
31
0.0000000000
11
34.9150843129
21
117.4047792705
31
0.0000000000
11
34.6613011184
21
116.4751745336
31
0.0000000000
11
34.5792286711
21
115.4986336884
31
0.0000000000
11
34.6705649879
21
114.4988522473
31
0.0000000000
11
34.9316995963
21
113.5005819086
31
0.0000000000
11
35.3541549297
21
112.5273485729
31
0.0000000000
0
SPLINE
5
2AB
100
AcDbEntity
8
0
100
AcDbSpline
62
9
6
CONTINUOUS
70
0
71
3
72
12
73
8
74
6
42
0.0000001000
43
0.0000001000
44
0.0000000001
40
0.0000000000
40
0.0000000000
40
0.0000000000
40
0.0000000000
40
0.3257578937
40
0.5985665772
40
0.8131940964
40
0.9824227029
40
1.0000000000
40
1.0000000000
40
1.0000000000
40
1.0000000000
10
56.0576344718
20
102.4722552781
30
0.0000000000
10
56.1287551935
20
102.4913321054
30
0.0000000000
10
56.2618775308
20
102.5186311814
30
0.0000000000
10
56.4467151290
20
102.5242816603
30
0.0000000000
10
56.5941215631
20
102.4923554709
30
0.0000000000
10
56.6697741291
20
102.4326901104
30
0.0000000000
10
56.6904017172
20
102.3957488666
30
0.0000000000
10
56.6922162874
20
102.3922017915
30
0.0000000000
11
56.0576344718
21
102.4722552781
31
0.0000000000
11
56.2745215981
21
102.5141923260
31
0.0000000000
11
56.4595089076
21
102.5162016108
31
0.0000000000
11
56.5999898208
21
102.4781462031
31
0.0000000000
11
56.6863907956
21
102.4026195160
31
0.0000000000
11
56.6922162874
21
102.3922017915
31
0.0000000000
0
SPLINE
5
2AC
100
AcDbEntity
8
0
100
AcDbSpline
62
9
6
CONTINUOUS
70
0
71
3
72
28
73
24
74
22
42
0.0000001000
43
0.0000001000
44
0.0000000001
40
0.0000000000
40
0.0000000000
40
0.0000000000
40
0.0000000000
40
0.0482854315
40
0.0982715205
40
0.1496263429
40
0.2019117649
40
0.2546488938
40
0.3074196272
40
0.3598229847
40
0.4114683808
40
0.4620018328
40
0.5111610781
40
0.5587834262
40
0.6048418205
40
0.6494449206
40
0.6928535852
40
0.7354507749
40
0.7777279639
40
0.8202267423
40
0.8634471595
40
0.9077244307
40
0.9532328587
40
1.0000000000
40
1.0000000000
40
1.0000000000
40
1.0000000000
10
48.6712539082
20
116.5759919618
30
0.0000000000
10
48.5230953736
20
116.8588895110
30
0.0000000000
10
48.1792517584
20
117.4133581815
30
0.0000000000
10
47.5475058652
20
118.1785561715
30
0.0000000000
10
46.8034887517
20
118.8745145182
30
0.0000000000
10
45.9645676461
20
119.4837516517
30
0.0000000000
10
45.0502030446
20
119.9919677621
30
0.0000000000
10
44.0810340314
20
120.3877734863
30
0.0000000000
10
43.0782881043
20
120.6625426972
30
0.0000000000
10
42.0639417488
20
120.8101513655
30
0.0000000000
10
41.0603299989
20
120.8271587916
30
0.0000000000
10
40.0896314676
20
120.7129117500
30
0.0000000000
10
39.1732847405
20
120.4695238536
30
0.0000000000
10
38.3317432851
20
120.1018376639
30
0.0000000000
10
37.5840799516
20
119.6173872229
30
0.0000000000
10
36.9477331085
20
119.0264971819
30
0.0000000000
10
36.4379030515
20
118.3422719976
30
0.0000000000
10
36.0668962232
20
117.5804230007
30
0.0000000000
10
35.8435557242
20
116.7588019271
30
0.0000000000
10
35.7729097399
20
115.8972917340
30
0.0000000000
10
35.8556187575
20
115.0172045275
30
0.0000000000
10
36.0874494234
20
114.1405466445
30
0.0000000000
10
36.3329212341
20
113.5789541444
30
0.0000000000
10
36.4764210623
20
113.3049520436
30
0.0000000000
11
48.6712539082
21
116.5759919618
31
0.0000000000
11
48.1680433456
21
117.3912323571
31
0.0000000000
11
47.5379769184
21
118.1571611079
31
0.0000000000
11
46.7947202888
21
118.8541587843
31
0.0000000000
11
45.9557985037
21
119.4644169640
31
0.0000000000
11
45.0413633371
21
119.9730314234
31
0.0000000000
11
44.0719788263
21
120.3687204347
31
0.0000000000
11
43.0690184070
21
120.6428293138
31
0.0000000000
11
42.0548251201
21
120.7892205766
31
0.0000000000
11
41.0523007943
21
120.8045694242
31
0.0000000000
11
40.0838510072
21
120.6885379613
31
0.0000000000
11
39.1712305624
21
120.4437396099
31
0.0000000000
11
38.3347958327
21
120.0756342584
31
0.0000000000
11
37.5933437527
21
119.5924854480
31
0.0000000000
11
36.9634515441
21
119.0050883758
31
0.0000000000
11
36.4593250685
21
118.3267219054
31
0.0000000000
11
36.0921640143
21
117.5725168419
31
0.0000000000
11
35.8701300917
21
116.7590497276
31
0.0000000000
11
35.7983620573
21
115.9045153556
31
0.0000000000
11
35.8783453490
21
115.0296519423
31
0.0000000000
11
36.1069139215
21
114.1561210281
31
0.0000000000
11
36.4764210623
21
113.3049520436
31
0.0000000000
0
ENDSEC
0
SECTION
2
OBJECTS
0
DICTIONARY
5
2AD
100
AcDbDictionary
3
ACAD_GROUP
350
2AE
3
ACAD_MLINESTYLE
350
2AF
0
DICTIONARY
5
2AE
102
{ACAD_REACTORS
330
2AD
102
}
100
AcDbDictionary
0
DICTIONARY
5
2AF
102
{ACAD_REACTORS
330
2AD
102
}
100
AcDbDictionary
3
STANDARD
350
2B0
0
MLINESTYLE
5
2B0
102
{ACAD_REACTORS
330
2AF
102
}
100
AcDbMlineStyle
2
STANDARD
70
0
3

62
256
51
90.0
52
90.0
71
2
49
0.5
62
256
6
BYLAYER
49
-0.5
62
256
6
BYLAYER
0
ENDSEC
0
EOF
